osu file format v14

[General]
AudioFilename: audio.mp3
AudioLeadIn: 0
PreviewTime: 53607
Countdown: 0
SampleSet: Soft
StackLeniency: 0.7
Mode: 0
LetterboxInBreaks: 0
WidescreenStoryboard: 1

[Editor]
Bookmarks: 26413,102671
DistanceSpacing: 1
BeatDivisor: 4
GridSize: 32
TimelineZoom: 1.9

[Metadata]
Title:Torikago
TitleUnicode:トリカゴ
Artist:XX:me
ArtistUnicode:XX:me
Creator:Matsubara Kanon
Version:Insane
Source:ダーリン・イン・ザ・フランキス
Tags:Darling in the FranXX ending ed tasuke912 Poii walaowey
BeatmapID:1586081
BeatmapSetID:753364

[Difficulty]
HPDrainRate:6
CircleSize:3.8
OverallDifficulty:7
ApproachRate:8
SliderMultiplier:1.6
SliderTickRate:1

[Events]
//Background and Video events
0,0,"darli_1.png",0,0
//Break Periods
//Storyboard Layer 0 (Background)
//Storyboard Layer 1 (Fail)
//Storyboard Layer 2 (Pass)
//Storyboard Layer 3 (Foreground)
//Storyboard Sound Samples

[TimingPoints]
91,387.096774193548,4,2,1,30,1,0
1639,-125,4,2,1,40,0,0
7832,-111.111111111111,4,2,1,50,0,0
14026,-100,4,2,1,50,0,0
26413,-100,4,2,1,60,0,0
38607,-100,4,2,1,70,0,0
40155,-100,4,2,1,60,0,0
51187,-100,4,2,1,70,0,0
53703,-100,4,2,1,60,0,0
54284,-90.9090909090909,4,2,1,70,0,1
66284,-90.9090909090909,4,2,1,70,0,0
66671,-90.9090909090909,4,2,1,70,0,1
79058,-100,4,2,1,40,0,0
82155,-100,4,2,1,50,0,0
83703,-100,4,2,1,60,0,0
85252,-90.9090909090909,4,2,1,70,0,1
97445,-100,4,2,1,60,0,0
99187,-100,4,2,1,50,0,0
99961,-100,4,2,1,40,0,0
100736,-100,4,2,1,30,0,0
101510,-100,4,2,1,20,0,0
102284,-100,4,2,1,10,0,0

[Colours]
Combo1 : 60,255,60
Combo2 : 255,113,113
Combo3 : 223,0,134
Combo4 : 255,139,23

[HitObjects]
183,176,1058,5,8,0:3:0:0:
274,75,1252,1,4,0:3:0:0:
289,74,1639,6,0,L|288:151,1,64,4|0,0:0|0:0,0:0:0:0:
376,176,2026,2,0,L|378:112,1,64,0|0,0:0|0:0,0:0:0:0:
498,35,2413,1,4,0:0:0:0:
509,43,2800,1,0,0:0:0:0:
473,190,2994,6,0,P|450:242|379:274,1,128,4|0,0:0|0:0,0:0:0:0:
293,263,3574,1,0,0:0:0:0:
180,148,3768,2,0,L|121:278,1,128,4|2,0:0|0:0,0:0:0:0:
127,274,4252,1,2,0:0:0:0:
126,283,4349,1,2,0:0:0:0:
125,292,4445,1,2,0:0:0:0:
124,301,4542,1,2,0:0:0:0:
268,339,4736,6,0,P|306:329|348:333,1,64,4|0,0:0|0:0,0:0:0:0:
347,234,5123,2,0,P|309:244|267:240,1,64,0|0,0:0|0:0,0:0:0:0:
193,131,5510,1,4,0:0:0:0:
200,119,5897,1,0,0:0:0:0:
358,80,6090,6,0,P|425:99|486:60,1,128,4|0,0:0|0:0,0:0:0:0:
413,16,6671,1,0,0:0:0:0:
272,72,6865,2,0,P|275:109|303:150,1,64,4|0,0:0|0:0,0:0:0:0:
406,204,7252,1,8,0:0:0:0:
358,80,7445,1,8,0:0:0:0:
316,208,7639,1,2,0:0:0:0:
316,208,7736,1,2,0:0:0:0:
316,208,7832,6,0,L|253:280,1,71.9999978027344,4|0,0:0|0:0,0:0:0:0:
160,305,8220,1,8,0:0:0:0:
189,231,8413,1,0,0:0:0:0:
239,336,8607,2,0,P|283:341|318:326,1,71.9999978027344,2|2,0:0|0:0,0:0:0:0:
375,275,8994,1,8,0:0:0:0:
269,152,9187,6,0,L|125:137,1,143.999995605469,4|2,0:0|0:0,0:0:0:0:
189,231,9768,1,8,0:0:0:0:
281,65,9961,2,0,L|124:48,1,143.999995605469,4|2,0:0|0:0,0:0:0:0:
53,86,10542,1,8,0:0:0:0:
125,137,10736,1,0,0:0:0:0:
17,228,10929,6,0,L|-1:157,1,71.9999978027344,4|0,0:0|0:0,0:0:0:0:
130,254,11316,1,12,0:0:0:0:
127,270,11703,1,2,0:0:0:0:
108,350,11897,1,2,0:0:0:0:
47,292,12090,1,8,0:0:0:0:
188,332,12284,6,0,L|286:332,1,71.9999978027344,4|0,0:0|0:0,0:0:0:0:
337,285,12671,1,2,0:0:0:0:
262,247,12865,1,8,0:0:0:0:
340,369,13058,2,0,P|383:358|417:315,1,71.9999978027344,6|0,0:0|0:0,0:0:0:0:
459,207,13445,1,2,0:0:0:0:
337,285,13639,1,2,0:0:0:0:
479,291,13832,1,2,0:0:0:0:
368,203,14026,6,0,P|329:197|283:215,2,80,4|0|2,0:0|0:0|0:0,0:0:0:0:
459,207,14607,2,0,P|451:164|419:128,1,80,8|2,0:1|0:0,0:0:0:0:
325,82,14994,1,0,0:0:0:0:
216,151,15187,2,0,L|192:231,1,80,2|0,0:0|0:0,0:0:0:0:
301,307,15574,6,0,L|383:262,2,80,2|0|2,0:0|0:0|0:0,0:0:0:0:
143,314,16155,2,0,P|108:279|98:224,1,80,8|2,0:1|0:0,0:0:0:0:
225,157,16542,2,0,P|212:204|169:240,1,80,0|2,0:0|0:0,0:0:0:0:
127,156,16929,1,0,0:0:0:0:
229,68,17123,6,0,P|266:77|307:122,2,80,2|0|2,0:0|0:0|0:0,0:0:0:0:
305,193,17704,2,0,P|353:175|383:131,1,80,8|2,0:1|0:0,0:0:0:0:
377,64,18091,1,0,0:0:0:0:
225,157,18284,2,0,L|222:261,1,80,2|0,0:0|0:0,0:0:0:0:
382,257,18671,6,0,P|431:254|481:282,2,80,2|0|2,0:0|0:0|0:0,0:0:0:0:
252,327,19252,2,0,P|203:330|153:302,1,80,8|2,0:1|0:0,0:0:0:0:
74,212,19639,1,2,0:0:0:0:
222,236,19832,1,2,0:0:0:0:
84,303,20026,1,2,0:0:0:0:
158,174,20220,6,0,P|197:149|259:156,2,80,2|0|2,0:0|0:0|0:0,0:0:0:0:
301,192,20801,2,0,L|375:150,1,80,8|2,0:1|0:0,0:0:0:0:
268,76,21188,1,0,0:0:0:0:
222,236,21381,2,0,L|223:341,1,80,2|0,0:0|0:0,0:0:0:0:
410,348,21768,6,0,P|343:313|287:364,1,160,2|2,0:0|0:0,0:0:0:0:
150,352,22349,2,0,L|66:304,1,80,8|2,0:1|0:0,0:0:0:0:
52,177,22736,1,2,0:0:0:0:
157,261,22929,1,2,0:0:0:0:
158,149,23123,1,2,0:0:0:0:
70,294,23316,5,2,0:0:0:0:
58,306,23703,1,2,0:0:0:0:
38,161,23897,2,0,L|76:54,1,80,8|2,0:1|0:0,0:0:0:0:
169,154,24284,2,0,L|255:81,1,80,8|2,0:1|0:0,0:0:0:0:
347,161,24671,1,0,0:0:0:0:
262,310,24865,6,0,P|250:272|257:225,1,80,4|0,0:0|0:0,0:0:0:0:
349,349,25252,1,8,0:0:0:0:
173,344,25445,1,8,0:1:0:0:
162,330,25832,1,8,0:0:0:0:
267,200,26026,1,8,0:0:0:0:
260,351,26220,1,8,0:0:0:0:
158,195,26413,6,0,P|123:172|70:162,1,80,4|0,0:0|0:0,0:0:0:0:
90,340,26800,1,8,0:0:0:0:
232,272,26994,2,0,L|266:199,1,80,8|0,0:1|0:0,0:0:0:0:
359,195,27381,1,2,0:0:0:0:
321,274,27574,2,0,L|373:351,1,80,8|0,0:0|0:0,0:0:0:0:
448,209,27961,6,0,P|441:158|403:118,1,80,2|0,0:0|0:0,0:0:0:0:
318,73,28348,1,8,0:0:0:0:
265,199,28542,2,0,P|241:223|169:233,1,80,8|0,0:1|0:0,0:0:0:0:
101,153,28929,1,2,0:0:0:0:
193,149,29123,1,8,0:0:0:0:
106,243,29316,1,0,0:0:0:0:
11,150,29510,6,0,P|23:105|66:69,1,80,2|0,0:0|0:0,0:0:0:0:
144,70,29897,1,8,0:0:0:0:
282,143,30091,2,0,L|348:192,1,80,8|0,0:1|0:0,0:0:0:0:
197,236,30478,1,2,0:0:0:0:
228,76,30671,2,0,P|269:60|317:66,1,80,8|0,0:0|0:0,0:0:0:0:
436,131,31058,6,0,P|413:86|415:44,1,80,2|0,0:0|0:0,0:0:0:0:
512,163,31445,1,8,0:0:0:0:
370,183,31639,2,0,L|293:251,1,80,8|0,0:1|0:0,0:0:0:0:
298,380,32026,1,2,0:0:0:0:
393,271,32220,1,8,0:0:0:0:
386,361,32413,1,2,0:0:0:0:
249,302,32607,6,0,P|226:264|232:204,1,80,2|0,0:0|0:0,0:0:0:0:
239,96,32994,1,8,0:0:0:0:
99,156,33188,2,0,L|79:260,1,80,8|0,0:1|0:0,0:0:0:0:
183,162,33575,1,2,0:0:0:0:
69,74,33768,2,0,P|30:102|13:153,1,80,8|0,0:0|0:0,0:0:0:0:
153,80,34155,6,0,P|197:77|244:102,1,80,2|0,0:0|0:0,0:0:0:0:
306,197,34542,1,8,0:0:0:0:
426,137,34736,2,0,P|436:73|357:95,1,160,8|2,0:1|0:0,0:0:0:0:
398,223,35316,1,8,0:0:0:0:
512,154,35510,1,2,0:0:0:0:
333,160,35703,6,0,P|311:197|308:247,1,80,4|0,0:0|0:0,0:0:0:0:
399,324,36090,1,8,0:0:0:0:
217,319,36284,2,0,B|140:275|140:275|187:257,1,120,4|0,0:0|0:0,0:0:0:0:
192,231,36671,1,8,0:1:0:0:
97,146,36865,1,8,0:0:0:0:
51,260,37058,1,0,0:0:0:0:
13,181,37252,6,0,L|18:89,2,80,4|0|0,0:0|0:0|0:0,0:0:0:0:
97,146,37832,1,0,0:0:0:0:
108,134,38220,1,2,0:0:0:0:
202,34,38413,1,2,0:0:0:0:
279,187,38607,5,4,0:0:0:0:
273,204,38994,1,2,0:0:0:0:
317,32,39187,1,4,0:0:0:0:
327,44,39574,1,2,0:0:0:0:
327,44,39671,1,2,0:0:0:0:
327,44,39768,2,0,L|361:91,1,40,2|2,0:0|0:0,0:0:0:0:
405,147,39961,1,2,0:0:0:0:
292,264,40155,6,0,P|226:233|143:284,1,160,4|2,0:0|0:0,0:0:0:0:
224,325,40736,1,8,0:0:0:0:
356,327,40929,1,2,0:0:0:0:
356,327,41026,1,2,0:0:0:0:
356,327,41123,2,0,P|379:289|374:226,1,80,2|2,0:0|0:0,0:0:0:0:
329,180,41510,1,8,0:0:0:0:
181,229,41703,6,0,P|132:148|128:67,1,160,2|2,0:0|0:0,0:0:0:0:
195,25,42284,1,8,0:0:0:0:
279,63,42478,2,0,L|329:95,2,40,2|2|2,0:0|0:0|0:0,0:0:0:0:
291,170,42865,1,2,0:0:0:0:
404,79,43058,1,8,0:0:0:0:
359,228,43252,6,0,P|288:262|217:220,1,160,2|2,0:0|0:0,0:0:0:0:
209,136,43832,1,8,0:0:0:0:
139,192,44026,2,0,L|110:243,2,40,2|2|2,0:0|0:0|0:0,0:0:0:0:
119,104,44413,1,2,0:0:0:0:
53,160,44607,1,8,0:0:0:0:
92,315,44800,6,0,P|138:318|181:298,1,80,4|0,0:0|0:0,0:0:0:0:
220,230,45187,1,2,0:0:0:0:
262,317,45381,1,8,0:0:0:0:
311,236,45574,2,0,P|301:189|265:153,1,80,0|2,0:0|0:0,0:0:0:0:
193,142,45961,1,2,0:0:0:0:
220,230,46155,1,8,0:0:0:0:
334,87,46349,6,0,P|297:73|257:73,1,80,4|0,0:0|0:0,0:0:0:0:
281,164,46736,1,2,0:0:0:0:
410,135,46929,1,8,0:0:0:0:
357,212,47123,2,0,L|326:315,1,80,0|2,0:0|0:0,0:0:0:0:
485,384,47510,1,2,0:0:0:0:
416,272,47703,1,8,0:0:0:0:
304,381,47897,1,0,0:0:0:0:
256,220,48090,6,0,L|287:121,1,80,4|0,0:0|0:0,0:0:0:0:
469,97,48477,2,0,L|410:151,1,80,8|0,0:0|0:0,0:0:0:0:
196,150,48865,2,0,L|227:51,1,80,2|2,0:0|0:0,0:0:0:0:
412,32,49252,2,0,L|353:86,1,80,8|0,0:0|0:0,0:0:0:0:
133,91,49639,6,0,L|155:14,1,80,2|0,0:0|0:0,0:0:0:0:
196,150,50026,1,8,0:0:0:0:
45,105,50220,1,0,0:0:0:0:
219,73,50413,1,2,0:0:0:0:
219,73,50510,1,8,0:0:0:0:
219,73,50607,1,2,0:0:0:0:
175,230,50800,1,8,0:0:0:0:
133,91,50994,1,2,0:0:0:0:
237,289,51187,6,0,L|310:350,1,80,4|0,0:0|0:0,0:0:0:0:
431,209,51574,2,0,L|351:216,1,80,8|0,0:0|0:0,0:0:0:0:
174,81,51961,1,8,0:0:0:0:
381,133,52155,1,2,0:0:0:0:
187,122,52349,1,8,0:0:0:0:
372,32,52542,1,2,0:0:0:0:
211,211,52736,6,0,P|160:211|125:191,1,80,12|0,0:0|0:0,0:0:0:0:
275,149,53123,5,8,0:0:0:0:
275,149,53220,1,0,0:0:0:0:
275,149,53316,2,0,L|299:197,3,40,2|0|0|8,0:0|0:0|0:0|0:0,0:0:0:0:
295,224,53703,6,0,L|272:289,1,40,2|2,0:0|0:0,0:0:0:0:
201,266,53897,2,0,L|180:325,1,40,2|2,0:0|0:0,0:0:0:0:
107,306,54090,2,0,L|88:357,1,40,2|2,0:0|0:0,0:0:0:0:
8,343,54284,6,0,L|45:242,1,88.000002685547,4|0,0:0|0:0,0:0:0:0:
132,130,54671,1,8,0:0:0:0:
200,265,54865,1,0,0:0:0:0:
57,171,55058,2,0,P|48:121|78:64,1,88.000002685547,2|2,0:0|0:0,0:0:0:0:
208,49,55445,1,8,0:0:0:0:
276,193,55639,6,0,P|346:244|438:191,1,176.000005371094,2|2,0:0|0:0,0:0:0:0:
371,70,56220,2,0,L|356:157,1,88.000002685547,8|0,0:0|0:0,0:0:0:0:
446,129,56607,1,2,0:0:0:0:
280,98,56800,1,2,0:0:0:0:
422,214,56994,1,8,0:0:0:0:
263,259,57187,1,0,0:0:0:0:
186,86,57381,6,0,P|147:75|75:88,1,88.000002685547,4|0,0:0|0:0,0:0:0:0:
0,227,57768,1,8,0:0:0:0:
134,168,57961,1,0,0:0:0:0:
191,301,58155,2,0,P|223:335|288:340,1,88.000002685547,2|2,0:0|0:0,0:0:0:0:
397,308,58542,1,8,0:0:0:0:
235,218,58736,6,0,P|157:215|95:296,1,176.000005371094,2|2,0:0|0:0,0:0:0:0:
83,163,59316,2,0,P|123:139|192:133,1,88.000002685547,8|0,0:0|0:0,0:0:0:0:
313,166,59703,1,2,0:0:0:0:
313,166,59800,1,8,0:0:0:0:
313,166,59897,1,2,0:0:0:0:
274,20,60090,2,0,L|175:52,1,88.000002685547,8|2,0:0|0:0,0:0:0:0:
157,77,60381,1,2,0:0:0:0:
157,77,60478,6,0,P|120:85|46:55,1,88.000002685547,4|0,0:0|0:0,0:0:0:0:
0,174,60865,1,8,0:0:0:0:
182,156,61058,1,2,0:0:0:0:
100,282,61252,2,0,L|93:184,1,88.000002685547,2|0,0:0|0:0,0:0:0:0:
196,306,61639,1,8,0:0:0:0:
363,197,61832,6,0,P|445:217|475:296,1,176.000005371094,4|2,0:0|0:0,0:0:0:0:
387,284,62413,1,8,0:0:0:0:
218,217,62607,2,0,P|135:237|105:316,1,176.000005371094,4|2,0:0|0:0,0:0:0:0:
196,306,63187,1,8,0:0:0:0:
308,237,63381,1,0,0:0:0:0:
216,104,63574,6,0,L|131:138,1,88.000002685547,4|0,0:0|0:0,0:0:0:0:
49,201,63961,1,8,0:0:0:0:
100,54,64155,2,0,L|188:22,1,88.000002685547,4|0,0:0|0:0,0:0:0:0:
310,147,64542,1,2,0:0:0:0:
216,104,64736,1,8,0:0:0:0:
346,0,64929,1,0,0:0:0:0:
383,212,65123,6,0,P|305:246|230:205,1,176.000005371094,4|8,0:0|0:0,0:0:0:0:
406,128,65703,2,0,P|448:152|472:218,1,88.000002685547,4|2,0:0|0:0,0:0:0:0:
470,211,65994,1,8,0:0:0:0:
469,237,66090,1,8,0:0:0:0:
468,263,66187,1,2,0:0:0:0:
467,289,66284,2,0,L|427:342,3,44.0000013427735,2|2|2|2,0:0|0:0|0:0|0:0,0:0:0:0:
369,341,66671,6,0,P|329:329|266:337,1,88.000002685547,4|0,0:0|0:0,0:0:0:0:
145,382,67058,1,8,0:0:0:0:
255,248,67252,1,0,0:0:0:0:
105,297,67445,2,0,P|57:280|17:243,1,88.000002685547,2|2,0:0|0:0,0:0:0:0:
11,148,67832,1,8,0:0:0:0:
191,188,68026,6,0,P|266:213|268:132,1,176.000005371094,2|2,0:0|0:0,0:0:0:0:
113,129,68607,2,0,P|94:177|105:233,1,88.000002685547,8|0,0:0|0:0,0:0:0:0:
164,283,68994,1,2,0:0:0:0:
198,95,69187,1,2,0:0:0:0:
19,153,69381,1,8,0:0:0:0:
191,188,69574,1,0,0:0:0:0:
119,43,69768,6,0,P|106:85|112:128,1,88.000002685547,4|0,0:0|0:0,0:0:0:0:
262,243,70155,1,8,0:0:0:0:
198,95,70348,1,0,0:0:0:0:
174,278,70542,2,0,P|199:315|261:341,1,88.000002685547,2|2,0:0|0:0,0:0:0:0:
356,253,70929,1,8,0:0:0:0:
318,81,71123,6,0,P|273:156|262:242,1,176.000005371094,2|2,0:0|0:0,0:0:0:0:
394,332,71703,2,0,P|428:306|441:238,1,88.000002685547,8|0,0:0|0:0,0:0:0:0:
399,139,72090,1,2,0:0:0:0:
399,139,72187,1,8,0:0:0:0:
399,139,72284,1,2,0:0:0:0:
243,142,72478,2,0,L|158:117,1,88.000002685547,8|2,0:0|0:0,0:0:0:0:
116,105,72768,1,2,0:0:0:0:
116,105,72865,6,0,P|129:152|110:223,1,88.000002685547,4|0,0:0|0:0,0:0:0:0:
11,308,73252,1,8,0:0:0:0:
27,157,73445,1,2,0:0:0:0:
113,293,73639,2,0,L|232:325,1,88.000002685547,2|0,0:0|0:0,0:0:0:0:
322,272,74026,1,8,0:0:0:0:
276,122,74220,6,0,P|209:97|223:175,1,176.000005371094,4|2,0:0|0:0,0:0:0:0:
351,162,74801,1,8,0:0:0:0:
238,13,74995,2,0,P|157:39|113:125,1,176.000005371094,4|2,0:0|0:0,0:0:0:0:
235,135,75574,1,8,0:0:0:0:
38,115,75768,1,0,0:0:0:0:
185,236,75961,6,0,P|234:249|283:238,1,88.000002685547,4|0,0:0|0:0,0:0:0:0:
239,93,76348,1,8,0:0:0:0:
110,198,76542,2,0,P|99:248|139:305,1,88.000002685547,4|0,0:0|0:0,0:0:0:0:
282,327,76929,1,2,0:0:0:0:
282,327,77026,1,0,0:0:0:0:
282,327,77123,2,0,L|347:297,1,44.0000013427735,8|0,0:0|0:0,0:0:0:0:
358,229,77316,2,0,L|393:179,1,44.0000013427735,0|0,0:0|0:0,0:0:0:0:
356,107,77510,6,0,L|336:14,1,88.000002685547,4|0,0:0|0:0,0:0:0:0:
191,27,77897,1,8,0:0:0:0:
202,197,78090,2,0,L|225:90,1,88.000002685547,4|2,0:0|0:0,0:0:0:0:
193,114,78381,1,8,0:0:0:0:
167,110,78477,1,8,0:0:0:0:
142,99,78574,1,2,0:0:0:0:
122,80,78671,2,0,L|106:36,3,44.0000013427735,2|2|2|2,0:0|0:0|0:0|0:0,0:0:0:0:
20,46,79058,6,0,L|57:152,1,80,4|0,0:0|0:0,0:0:0:0:
8,192,79445,2,0,L|45:297,1,80,2|2,0:0|0:0,0:0:0:0:
108,298,79832,1,2,0:0:0:0:
105,217,80026,1,2,0:0:0:0:
44,346,80220,1,2,0:0:0:0:
184,326,80413,1,2,0:0:0:0:
184,326,80510,1,2,0:0:0:0:
184,326,80607,6,0,L|254:272,1,80,2|2,0:0|0:0,0:0:0:0:
296,147,80994,2,0,L|229:201,1,80,2|2,0:0|0:0,0:0:0:0:
104,172,81381,1,2,0:0:0:0:
223,113,81574,1,2,0:0:0:0:
160,229,81768,1,2,0:0:0:0:
143,102,81961,1,2,0:0:0:0:
180,260,82155,5,2,0:0:0:0:
100,88,82349,1,2,0:0:0:0:
233,197,82542,2,0,L|308:223,1,80,2|2,0:0|0:0,0:0:0:0:
442,169,82929,1,2,0:0:0:0:
347,133,83123,1,2,0:0:0:0:
403,259,83316,2,0,P|381:298|333:325,1,80,2|2,0:0|0:0,0:0:0:0:
77,270,83703,5,8,0:0:0:0:
308,223,83897,1,8,0:0:0:0:
171,377,84090,1,8,0:0:0:0:
187,176,84284,1,8,0:0:0:0:
352,318,84478,5,8,0:0:0:0:
379,301,84574,1,8,0:0:0:0:
399,276,84671,1,8,0:0:0:0:
410,245,84768,1,8,0:0:0:0:
412,213,84865,2,0,L|392:152,1,40,8|2,0:0|0:0,0:0:0:0:
321,138,85058,2,0,L|303:83,1,40,2|2,0:0|0:0,0:0:0:0:
220,85,85252,6,0,P|170:80|128:100,1,88.000002685547,4|0,0:0|0:0,0:0:0:0:
29,210,85640,1,8,0:0:0:0:
187,176,85833,1,0,0:0:0:0:
64,35,86026,2,0,P|44:74|44:118,1,88.000002685547,2|2,0:0|0:0,0:0:0:0:
122,249,86414,1,8,0:0:0:0:
220,85,86607,6,0,P|276:138|268:234,1,176.000005371094,4|2,0:0|0:0,0:0:0:0:
178,349,87188,1,8,0:0:0:0:
187,176,87381,2,0,P|255:138|358:189,1,176.000005371094,4|2,0:0|0:0,0:0:0:0:
409,282,87962,1,8,0:0:0:0:
269,230,88156,1,0,0:0:0:0:
423,114,88349,6,0,L|529:122,1,88.000002685547,4|0,0:0|0:0,0:0:0:0:
341,18,88736,1,12,0:0:0:0:
342,168,88929,1,0,0:0:0:0:
208,98,89123,2,0,P|166:95|115:119,1,88.000002685547,2|2,0:0|0:0,0:0:0:0:
16,230,89510,1,8,0:0:0:0:
179,191,89703,6,0,P|255:251|229:350,1,176.000005371094,4|2,0:0|0:0,0:0:0:0:
171,281,90285,1,8,0:0:0:0:
333,205,90478,2,0,P|406:212|492:277,1,176.000005371094,4|2,0:0|0:0,0:0:0:0:
366,347,91059,1,8,0:0:0:0:
366,347,91155,1,8,0:0:0:0:
366,347,91252,1,8,0:0:0:0:
246,187,91445,6,0,P|264:149|325:115,1,88.000002685547,4|0,0:0|0:0,0:0:0:0:
439,75,91833,1,8,0:0:0:0:
333,205,92026,1,0,0:0:0:0:
183,83,92220,2,0,L|95:124,1,88.000002685547,2|2,0:0|0:0,0:0:0:0:
54,269,92607,1,8,0:0:0:0:
267,284,92800,6,0,P|280:222|203:256,1,176.000005371094,4|2,0:0|0:0,0:0:0:0:
274,367,93381,1,8,0:0:0:0:
432,240,93574,2,0,P|454:162|400:69,1,176.000005371094,4|2,0:0|0:0,0:0:0:0:
257,50,94155,1,8,0:0:0:0:
344,169,94349,1,0,0:0:0:0:
171,121,94542,6,0,P|150:78|150:32,1,88.000002685547,4|0,0:0|0:0,0:0:0:0:
225,202,94929,1,12,0:0:0:0:
211,214,95316,1,2,0:0:0:0:
80,129,95510,1,2,0:0:0:0:
66,284,95703,1,8,0:0:0:0:
171,121,95897,6,0,P|221:113|268:132,1,88.000002685547,4|0,0:0|0:0,0:0:0:0:
356,234,96284,1,2,0:0:0:0:
211,214,96478,1,8,0:0:0:0:
429,189,96671,2,0,P|442:239|420:293,1,88.000002685547,4|0,0:0|0:0,0:0:0:0:
277,359,97058,1,2,0:0:0:0:
356,234,97252,1,8,0:0:0:0:
171,188,97445,5,4,0:0:0:0:
256,192,97542,12,0,102284,0:0:0:0:
