osu file format v14

[General]
AudioFilename: audio.mp3
AudioLeadIn: 0
PreviewTime: 53253
Countdown: 0
SampleSet: Soft
StackLeniency: 0.7
Mode: 0
LetterboxInBreaks: 0
WidescreenStoryboard: 0

[Editor]
DistanceSpacing: 1.5
BeatDivisor: 4
GridSize: 32
TimelineZoom: 1

[Metadata]
Title:Torikago
TitleUnicode:トリカゴ
Artist:XX:me
ArtistUnicode:XX:me
Creator:Mamiko
Version:Insane
Source:DARLING in the FRANXX
Tags:ダーリン・イン・ザ・フランキス ゼロツー 戸松遥 イチゴ 市ノ瀬加那 ミク 山下七海 ココロ 早見沙織 イクノ 石上静香
BeatmapID:1535662
BeatmapSetID:727360

[Difficulty]
HPDrainRate:5
CircleSize:4
OverallDifficulty:8.5
ApproachRate:9
SliderMultiplier:1.6
SliderTickRate:1

[Events]
//Background and Video events
0,0,"bggb.jpg",0,0
Video,0,"vvv.flv"
//Break Periods
//Storyboard Layer 0 (Background)
//Storyboard Layer 1 (Fail)
//Storyboard Layer 2 (Pass)
//Storyboard Layer 3 (Foreground)
//Storyboard Sound Samples

[TimingPoints]
1189,387.096774193548,4,2,1,50,1,0
1189,-133.333333333333,4,2,1,50,0,0
7188,-100,4,2,1,50,0,0
25963,-100,4,1,1,50,0,0
37188,-133.333333333333,4,2,1,50,0,0
37769,-100,4,2,1,50,0,0
53447,-200,4,2,1,50,0,0
53834,-100,4,2,1,50,0,1
84801,-100,4,2,1,50,0,0
101834,-100,4,2,1,5,0,0

[Colours]
Combo1 : 128,0,0
Combo2 : 0,128,192
Combo3 : 255,128,128
Combo4 : 128,128,64

[HitObjects]
116,253,608,5,8,0:3:0:0:
116,253,801,1,4,0:3:0:0:
414,206,1189,6,0,L|422:142,1,60.0000022888184,4|0,0:0|0:0,0:0:0:0:
343,82,1576,1,0,3:3:0:0:
343,82,1769,1,4,0:3:0:0:
312,214,1963,2,0,P|319:247|325:279,1,60.0000022888184,0|0,1:0|0:0,0:0:0:0:
225,347,2350,1,2,0:0:0:0:
94,303,2543,6,0,L|107:159,1,120.000004577637,4|0,0:0|3:0,0:0:0:0:
208,200,3124,1,4,0:3:0:0:
34,105,3318,2,0,P|84:79|152:92,1,120.000004577637,0|8,1:0|0:3,0:0:0:0:
177,104,3801,1,0,3:0:0:0:
212,102,3898,1,4,3:3:0:0:
242,82,3995,1,0,3:0:0:0:
258,51,4092,1,4,3:3:0:0:
287,185,4285,6,0,L|303:249,1,60.0000022888184,4|0,0:0|1:0,0:0:0:0:
390,302,4672,1,8,0:0:0:0:
390,302,4866,1,4,0:3:0:0:
478,174,5059,2,0,P|484:147|488:108,1,60.0000022888184,2|0,0:0|1:0,0:0:0:0:
409,61,5447,1,4,0:3:0:0:
301,243,5640,6,0,P|259:255|177:262,1,120.000004577637,4|4,0:0|0:3,0:0:0:0:
179,151,6221,1,2,0:0:0:0:
128,342,6414,2,0,P|84:303|86:245,1,120.000004577637,0|2,1:0|1:2,0:0:0:0:
168,57,6995,1,0,1:0:0:0:
287,158,7188,1,0,3:0:0:0:
287,158,7285,1,0,3:0:0:0:
287,158,7382,6,0,L|181:174,1,80,4|0,0:0|0:0,0:0:0:0:
35,151,7769,2,0,L|114:139,1,80,8|0,0:0|0:0,0:0:0:0:
263,250,8156,1,2,0:0:0:0:
106,310,8350,1,0,1:0:0:0:
114,139,8543,1,8,0:0:0:0:
292,69,8737,6,0,P|359:106|365:186,1,160,4|2,0:0|0:0,0:0:0:0:
284,329,9318,1,8,0:0:0:0:
61,277,9511,2,0,B|90:256|90:256|126:270|126:270|167:249|229:246,1,160,0|0,1:0|1:0,0:0:0:0:
377,275,10092,1,8,0:0:0:0:
182,344,10285,1,2,0:0:0:0:
213,139,10479,6,0,L|229:231,1,80,4|0,0:0|0:0,0:0:0:0:
49,177,10866,2,0,L|35:98,1,80,8|0,0:0|0:0,0:0:0:0:
142,43,11253,1,4,0:3:0:0:
317,170,11447,1,0,0:0:0:0:
367,64,11640,1,8,0:0:0:0:
204,130,11834,6,0,B|160:158|160:158|140:235,1,120,4|0,0:0|0:0,0:0:0:0:
134,252,12221,1,2,0:0:0:0:
75,138,12414,1,8,0:0:0:0:
262,321,12608,2,0,L|169:344,1,80,2|0,0:0|0:0,0:0:0:0:
39,305,12995,5,0,1:0:0:0:
39,305,13092,1,0,1:0:0:0:
39,305,13188,2,0,L|29:251,1,40,8|0,1:3|0:0,0:0:0:0:
75,138,13382,2,0,L|82:177,1,40,4|0,0:3|0:0,0:0:0:0:
179,226,13576,6,0,L|267:202,1,80,2|0,0:0|0:0,0:0:0:0:
398,254,13963,1,8,0:0:0:0:
427,113,14156,2,0,B|392:109|372:86|372:86|372:142|339:202,1,160,2|0,0:0|0:0,0:0:0:0:
251,109,14737,2,0,P|236:68|210:32,1,80,8|0,0:0|0:0,0:0:0:0:
88,106,15124,6,0,L|77:193,1,80,2|0,0:0|0:0,0:0:0:0:
56,313,15511,1,8,0:0:0:0:
233,295,15705,2,0,B|201:256|131:262|131:262|176:215,1,160,2|0,0:0|0:0,0:0:0:0:
285,148,16285,1,8,0:0:0:0:
234,296,16479,1,0,0:0:0:0:
377,179,16672,6,0,P|416:197|458:238,1,80,2|0,0:0|0:0,0:0:0:0:
317,257,17059,1,8,0:0:0:0:
258,175,17253,2,0,B|269:133|258:83|258:83|291:91|334:81,1,160,2|0,0:0|0:0,0:0:0:0:
166,125,17834,2,0,P|136:134|77:125,1,80,8|0,0:0|0:0,0:0:0:0:
49,290,18221,5,2,0:0:0:0:
49,290,18414,1,0,0:0:0:0:
156,238,18608,1,8,0:0:0:0:
31,147,18801,2,0,B|56:167|70:194|70:194|85:147|120:102,1,160,2|0,0:0|3:0,0:0:0:0:
243,48,19382,1,8,0:0:0:0:
360,121,19576,1,4,0:3:0:0:
283,249,19769,6,0,P|242:238|196:235,1,80,2|0,0:0|0:0,0:0:0:0:
305,357,20156,1,8,0:0:0:0:
421,327,20350,2,0,P|433:251|442:156,1,160,2|0,0:0|0:0,0:0:0:0:
394,78,20930,1,8,0:0:0:0:
319,164,21124,1,0,0:0:0:0:
211,108,21318,6,0,P|202:70|204:16,1,80,2|0,0:0|0:0,0:0:0:0:
300,57,21705,1,8,0:0:0:0:
187,225,21898,2,0,P|126:273|29:235,1,160,2|0,0:0|0:0,0:0:0:0:
23,139,22479,1,8,0:0:0:0:
187,225,22672,1,0,3:0:0:0:
275,178,22866,6,0,B|313:195|313:195|340:176|340:176|388:192|437:168,1,160,4|8,0:3|0:0,0:0:0:0:
486,309,23447,2,0,P|447:306|399:300,1,80,2|0,0:0|0:0,0:0:0:0:
223,255,23834,1,0,0:0:0:0:
255,361,24027,1,8,0:0:0:0:
407,302,24221,1,0,0:0:0:0:
365,155,24414,6,0,P|343:186|329:236,1,80,4|0,0:0|0:0,0:0:0:0:
255,361,24801,1,8,0:0:0:0:
171,299,24995,2,0,P|137:275|60:265,1,120,2|0,0:0|0:0,0:0:0:0:
36,277,25382,1,2,3:0:0:0:
199,184,25576,1,8,3:2:0:0:
53,77,25769,1,2,1:3:0:0:
102,236,25963,6,0,L|115:128,1,80,0|0,1:0|0:0,0:0:0:0:
154,49,26350,1,8,0:0:0:0:
337,205,26543,2,0,P|270:215|205:140,1,160,2|0,1:2|0:0,0:0:0:0:
154,49,27124,1,8,0:0:0:0:
300,120,27318,1,0,0:0:0:0:
188,284,27511,6,0,L|97:296,1,80,0|0,1:0|1:0,0:0:0:0:
270,354,27898,1,8,0:0:0:0:
380,324,28092,2,0,L|402:154,1,160,2|0,1:2|0:0,0:0:0:0:
336,84,28672,1,8,0:0:0:0:
495,190,28866,1,0,0:0:0:0:
296,166,29059,6,0,P|272:197|263:251,1,80,0|0,1:0|0:0,0:0:0:0:
400,165,29447,1,8,0:0:0:0:
237,79,29640,2,0,P|154:82|54:96,1,160,2|0,1:2|0:0,0:0:0:0:
28,233,30221,2,0,P|66:238|115:244,1,80,8|0,0:0|0:0,0:0:0:0:
251,343,30608,5,0,1:0:0:0:
225,235,30801,1,0,1:0:0:0:
351,194,30995,1,8,0:0:0:0:
395,340,31188,2,0,B|360:341|330:311|330:311|299:338|243:343,1,160,2|0,1:2|1:0,0:0:0:0:
118,336,31769,2,0,L|126:237,1,80,8|0,0:0|0:0,0:0:0:0:
70,126,32156,6,0,P|107:141|150:152,1,80,0|0,1:0|0:0,0:0:0:0:
316,63,32543,1,0,0:0:0:0:
219,26,32737,2,0,L|237:189,1,160
333,261,33318,1,0,0:0:0:0:
444,216,33511,1,0,0:0:0:0:
236,185,33705,6,0,P|207:216|190:273,1,80
198,341,34092,1,0,0:0:0:0:
356,360,34285,2,0,L|337:191,1,160
384,84,34866,1,0,0:0:0:0:
384,84,35059,1,0,0:0:0:0:
149,65,35253,6,0,L|56:83,1,80
213,149,35640,1,0,0:0:0:0:
70,305,35834,2,0,L|154:316,1,80
265,328,36221,1,0,0:0:0:0:
133,210,36414,1,0,0:0:0:0:
340,115,36608,1,0,0:0:0:0:
340,115,36705,1,0,0:0:0:0:
340,115,36801,6,0,P|338:159|328:210,1,80
259,268,37188,2,0,P|261:305|268:346,1,60.0000022888184,2|0,0:0|0:0,0:0:0:0:
265,329,37769,5,4,0:3:0:0:
180,209,37963,1,8,0:3:0:0:
55,278,38156,1,4,0:0:0:0:
55,278,38543,1,4,0:3:0:0:
75,70,38737,1,8,0:0:0:0:
75,70,39124,5,0,0:0:0:0:
102,98,39220,1,0,0:0:0:0:
139,113,39317,1,0,0:0:0:0:
178,110,39414,1,0,0:0:0:0:
213,91,39511,1,8,0:0:0:0:
375,42,39705,6,0,B|332:100|332:100|354:193,1,160
373,295,40285,2,0,P|416:302|456:322,1,80,2|0,0:0|0:0,0:0:0:0:
448,317,40576,1,0,0:0:0:0:
448,317,40672,1,4,0:3:0:0:
437,178,40866,1,0,0:0:0:0:
264,263,41059,1,8,0:0:0:0:
205,156,41253,6,0,L|330:177,1,120,2|0,0:0|0:0,0:0:0:0:
353,184,41640,1,0,0:0:0:0:
329,81,41834,1,8,0:0:0:0:
113,214,42027,5,0,0:0:0:0:
113,214,42124,1,0,0:0:0:0:
113,214,42221,1,4,0:3:0:0:
118,310,42414,1,0,0:0:0:0:
285,263,42608,1,8,0:0:0:0:
167,130,42801,6,0,B|116:110|116:110|11:163,1,160,4|0,0:0|0:0,0:0:0:0:
236,221,43382,1,0,0:0:0:0:
264,130,43576,1,0,0:0:0:0:
264,130,43672,1,0,0:0:0:0:
264,130,43769,1,0,0:0:0:0:
113,214,43963,1,0,0:0:0:0:
214,338,44156,1,0,0:0:0:0:
405,320,44350,6,0,B|392:301|363:280|363:280|367:241|394:160,1,160
346,61,44930,1,0,0:0:0:0:
484,112,45124,2,0,P|495:153|506:228,1,80
282,232,45511,1,0,0:0:0:0:
388,180,45705,1,0,0:0:0:0:
238,95,45898,6,0,B|190:102|190:102|143:136|143:136|77:117,1,160
126,35,46479,1,0,0:0:0:0:
231,183,46672,2,0,L|245:278,1,80
61,340,47059,1,0,0:0:0:0:
161,261,47253,1,0,0:0:0:0:
9,211,47447,1,0,0:0:0:0:
228,182,47640,6,0,L|246:18,1,160
152,63,48221,1,0,0:0:0:0:
327,167,48414,1,0,0:0:0:0:
327,167,48608,1,0,0:0:0:0:
241,302,48801,2,0,L|152:315,1,80
32,193,49188,6,0,L|128:203,1,80
111,201,49479,1,0,0:0:0:0:
111,201,49576,1,0,0:0:0:0:
278,91,49769,1,0,0:0:0:0:
186,57,49963,1,0,0:0:0:0:
188,85,50060,1,0,0:0:0:0:
191,113,50156,1,0,0:0:0:0:
195,280,50350,1,0,0:0:0:0:
303,201,50543,1,0,0:0:0:0:
87,322,50737,5,0,0:0:0:0:
358,279,50930,1,0,0:0:0:0:
92,167,51124,5,0,0:0:0:0:
362,271,51318,1,0,0:0:0:0:
205,360,51511,6,0,L|195:279,1,80
342,76,51898,2,0,L|332:155,1,80
308,187,52188,5,0,0:0:0:0:
308,187,52285,1,0,0:0:0:0:
92,165,52479,1,0,0:0:0:0:
252,97,52672,1,0,0:0:0:0:
84,280,52866,1,0,0:0:0:0:
84,280,52963,1,0,0:0:0:0:
84,280,53059,6,0,L|37:292,1,40
228,339,53253,2,0,L|221:299,1,40
166,169,53447,6,0,P|162:195|158:226,1,40
331,321,53834,6,0,P|378:303|432:308,1,80,4|2,0:0|0:0,0:0:0:0:
483,326,54124,1,0,0:0:0:0:
483,326,54221,2,0,L|494:230,1,80,8|0,0:0|0:0,0:0:0:0:
395,95,54608,2,0,P|356:113|321:141,1,80,0|2,0:0|0:0,0:0:0:0:
277,245,54995,1,8,0:0:0:0:
114,190,55188,6,0,P|77:167|39:128,1,80,2|0,0:0|0:0,0:0:0:0:
215,45,55576,1,2,0:0:0:0:
215,45,55769,2,0,L|206:138,1,80,8|0,0:0|0:0,0:0:0:0:
124,334,56156,1,0,0:0:0:0:
293,259,56350,1,4,0:3:0:0:
114,190,56543,1,8,0:0:0:0:
190,272,56737,1,0,0:0:0:0:
386,211,56930,6,0,B|378:120,1,80,4|0,0:0|0:0,0:0:0:0:
368,50,57221,1,0,0:0:0:0:
368,50,57318,2,0,P|330:39|289:48,1,80
168,165,57705,2,0,P|106:170|50:94,1,160
268,211,58285,6,0,L|282:311,1,80
69,353,58672,2,0,L|57:273,1,80
150,204,59059,1,0,0:0:0:0:
208,338,59253,1,0,0:0:0:0:
208,338,59350,1,0,0:0:0:0:
208,338,59447,1,0,0:0:0:0:
370,308,59640,1,0,0:0:0:0:
442,183,59834,1,0,0:0:0:0:
442,183,59930,1,0,0:0:0:0:
442,183,60027,6,0,P|407:157|359:163,1,80
250,214,60414,1,0,0:0:0:0:
209,67,60608,1,0,0:0:0:0:
386,79,60801,2,0,L|372:162,1,80
342,313,61188,1,0,0:0:0:0:
162,278,61382,6,0,L|149:187,1,80
121,69,61769,1,0,0:0:0:0:
270,129,61963,1,0,0:0:0:0:
64,332,62156,2,0,L|34:154,1,160
37,174,62640,1,0,0:0:0:0:
37,174,62737,1,0,0:0:0:0:
243,265,62930,1,0,0:0:0:0:
374,212,63124,6,0,P|398:185|416:130,1,80
190,66,63511,1,0,0:0:0:0:
157,203,63705,2,0,L|136:301,1,80
252,147,64092,1,0,0:0:0:0:
59,228,64285,1,0,0:0:0:0:
277,299,64479,1,0,0:0:0:0:
277,299,64576,1,0,0:0:0:0:
277,299,64672,6,0,P|323:312|370:334,1,80
174,367,65059,1,0,0:0:0:0:
157,203,65253,2,0,L|149:101,1,80
361,68,65640,1,0,0:0:0:0:
361,68,65737,1,0,0:0:0:0:
361,68,65834,2,0,L|354:130,1,40
266,200,66027,2,0,L|261:156,1,40
150,123,66221,6,0,L|55:146,1,80
15,199,66511,1,0,0:0:0:0:
15,199,66608,2,0,P|13:243|32:282,1,80
196,353,66995,2,0,L|207:258,1,80
124,204,67382,1,0,0:0:0:0:
306,313,67576,6,0,P|360:329|431:260,1,160
430,115,68156,2,0,P|392:104|343:97,1,80
185,170,68543,1,0,0:0:0:0:
119,44,68737,1,0,0:0:0:0:
257,94,68930,1,0,0:0:0:0:
40,151,69124,1,0,0:0:0:0:
185,170,69318,6,0,P|190:221|190:273,1,80
151,328,69608,1,0,0:0:0:0:
150,328,69705,2,0,P|114:342|64:334,1,80
274,204,70092,2,0,P|311:216|338:245,1,80
277,353,70479,1,0,0:0:0:0:
90,242,70672,6,0,L|78:55,1,160
300,110,71253,1,0,0:0:0:0:
179,193,71447,1,0,0:0:0:0:
379,257,71640,1,0,0:0:0:0:
379,257,71737,1,0,0:0:0:0:
379,257,71834,1,0,0:0:0:0:
163,339,72027,1,0,0:0:0:0:
105,124,72221,1,0,0:0:0:0:
105,124,72318,1,0,0:0:0:0:
105,124,72414,6,0,P|142:103|190:91,1,80
293,197,72801,1,0,0:0:0:0:
372,43,72995,1,0,0:0:0:0:
293,197,73188,2,0,P|281:241|273:304,1,80
437,202,73576,1,0,0:0:0:0:
345,125,73769,6,0,B|323:107|291:98|291:98|240:140|174:131,1,160
200,132,74253,1,0,0:0:0:0:
200,132,74350,1,0,0:0:0:0:
40,80,74543,2,0,P|61:115|73:183,1,80
57,352,74930,1,0,0:0:0:0:
234,283,75124,1,0,0:0:0:0:
101,245,75318,1,0,0:0:0:0:
247,373,75511,6,0,L|348:354,1,80
440,339,75898,1,0,0:0:0:0:
266,44,76092,2,0,P|246:81|261:203,1,160
492,240,76672,1,0,0:0:0:0:
469,207,76768,1,0,0:0:0:0:
432,192,76865,1,0,0:0:0:0:
394,199,76962,1,0,0:0:0:0:
364,225,77059,6,0,P|333:250|302:288,1,80
127,345,77447,1,0,0:0:0:0:
124,325,77543,1,0,0:0:0:0:
122,306,77640,2,0,L|112:220,1,80
91,212,77930,1,0,0:0:0:0:
107,176,78026,1,0,0:0:0:0:
140,154,78123,1,0,0:0:0:0:
179,153,78220,1,0,0:0:0:0:
213,172,78318,1,0,0:0:0:0:
245,196,78414,1,0,0:0:0:0:
284,205,78511,1,0,0:0:0:0:
323,198,78608,5,0,0:0:0:0:
370,121,78801,1,0,0:0:0:0:
451,161,78995,1,0,0:0:0:0:
360,313,79188,6,0,L|280:302,1,80
110,346,79576,1,0,0:0:0:0:
86,242,79769,1,0,0:0:0:0:
245,145,79963,1,0,0:0:0:0:
245,145,80059,1,0,0:0:0:0:
245,145,80156,6,0,L|236:226,1,80
330,321,80543,1,0,0:0:0:0:
482,273,80737,2,0,P|445:253|381:245,1,80
236,224,81124,5,0,0:0:0:0:
330,321,81318,1,0,0:0:0:0:
408,244,81511,1,0,0:0:0:0:
164,117,81705,6,0,L|155:198,1,80
231,319,82092,1,0,0:0:0:0:
413,156,82285,2,0,P|369:166|330:206,1,80
231,319,82672,5,0,0:0:0:0:
127,223,82866,1,0,0:0:0:0:
321,105,83059,1,0,0:0:0:0:
317,137,83155,1,0,0:0:0:0:
314,169,83252,5,0,0:0:0:0:
137,338,83447,1,0,0:0:0:0:
415,253,83640,1,0,0:0:0:0:
216,138,83834,1,0,0:0:0:0:
352,153,84027,5,0,0:0:0:0:
386,174,84123,1,0,0:0:0:0:
426,173,84220,1,0,0:0:0:0:
458,150,84317,1,0,0:0:0:0:
472,113,84414,1,0,0:0:0:0:
464,75,84510,1,0,0:0:0:0:
436,47,84607,1,0,0:0:0:0:
397,40,84704,1,0,0:0:0:0:
361,54,84801,6,0,P|326:70|260:86,1,80
94,62,85188,1,0,0:0:0:0:
117,196,85382,1,0,0:0:0:0:
280,239,85576,2,0,L|295:137,1,80
69,296,85963,1,0,0:0:0:0:
179,356,86156,6,0,P|183:264|138:187,1,160
43,171,86737,1,0,0:0:0:0:
223,39,86930,2,0,L|211:143,1,80
282,230,87318,1,0,0:0:0:0:
394,182,87511,2,0,P|433:164|467:138,1,80
282,230,87898,5,0,0:0:0:0:
294,347,88092,1,0,0:0:0:0:
96,298,88285,1,0,0:0:0:0:
145,143,88479,1,0,0:0:0:0:
212,302,88672,2,0,L|114:318,1,80
133,314,88963,1,0,0:0:0:0:
133,314,89059,1,0,0:0:0:0:
57,135,89253,6,0,P|81:73|180:64,1,160
299,153,89834,1,0,0:0:0:0:
145,143,90027,2,0,P|169:173|182:226,1,80
131,346,90414,1,0,0:0:0:0:
276,279,90608,1,0,0:0:0:0:
310,269,90704,1,0,0:0:0:0:
345,274,90801,1,0,0:0:0:0:
375,294,90898,1,0,0:0:0:0:
393,324,90995,6,0,L|475:312,1,80
376,144,91382,2,0,L|296:156,1,80
95,300,91769,1,0,0:0:0:0:
229,349,91963,1,0,0:0:0:0:
195,200,92156,1,0,0:0:0:0:
95,154,92350,6,0,B|44:163|44:163|8:193|-1:270,1,160
195,200,92930,1,0,0:0:0:0:
270,102,93124,2,0,L|259:12,1,80
195,200,93511,1,0,0:0:0:0:
413,240,93705,1,0,0:0:0:0:
422,141,93898,1,0,0:0:0:0:
254,288,94092,5,0,0:0:0:0:
254,288,94479,2,0,L|175:303,1,80
63,74,94866,2,0,L|142:89,1,80
306,119,95253,1,0,0:0:0:0:
71,328,95447,6,0,P|80:281|101:254,1,80
197,192,95834,1,0,0:0:0:0:
380,325,96027,1,0,0:0:0:0:
197,192,96221,6,0,L|207:98,1,80
458,237,96608,2,0,L|362:217,1,80
68,158,96995,5,0,0:0:0:0:
256,192,97188,12,0,101834,0:0:0:0:
