osu file format v14

[General]
AudioFilename: audio.mp3
AudioLeadIn: 0
PreviewTime: 167117
Countdown: 0
SampleSet: Soft
StackLeniency: 0.7
Mode: 0
LetterboxInBreaks: 0
WidescreenStoryboard: 1

[Editor]
Bookmarks: 25077,40755,67077,79271,94948,125916,138303,150690,167722,180109,198690
DistanceSpacing: 1.1
BeatDivisor: 4
GridSize: 4
TimelineZoom: 1.8

[Metadata]
Title:Torikago
TitleUnicode:トリカゴ
Artist:XX:me
ArtistUnicode:XX:me
Creator:Kibbleru
Version:Collab Hard
Source:DARLING in the FRANXX
Tags:ダーリン・イン・ザ・フランキス kiss me Yoshimaro Kyle73 Doormat
BeatmapID:1560857
BeatmapSetID:731356

[Difficulty]
HPDrainRate:5
CircleSize:4
OverallDifficulty:6
ApproachRate:7.8
SliderMultiplier:1.5
SliderTickRate:1

[Events]
//Background and Video events
0,0,"darlingxx.jpg",0,0
//Break Periods
2,127471,131142
//Storyboard Layer 0 (Background)
//Storyboard Layer 1 (Fail)
//Storyboard Layer 2 (Pass)
//Storyboard Layer 3 (Foreground)
//Storyboard Sound Samples

[TimingPoints]
497,387.096774193548,4,2,1,65,1,0
497,-111.111111111111,4,2,1,65,0,0
6690,-100,4,2,1,65,0,0
12884,-136.986301369863,4,2,1,50,0,0
24303,-111.111111111111,4,2,1,50,0,0
24690,-111.111111111111,4,2,1,55,0,0
40755,-100,4,2,1,70,0,1
52561,-100,4,2,1,65,0,0
53142,-100,4,2,1,70,0,1
63980,-100,4,2,1,70,0,0
65529,-100,4,2,1,65,0,0
67077,-136.986301369863,4,2,1,50,0,0
78884,-136.986301369863,4,2,1,55,0,0
79271,-111.111111111111,4,2,1,55,0,0
88755,-111.111111111111,4,2,1,65,0,0
94948,-100,4,2,1,70,0,1
106754,-100,4,2,1,70,0,1
106755,-100,4,2,1,65,0,0
107335,-100,4,2,1,70,0,1
119141,-100,4,2,1,70,0,1
119142,-100,4,2,1,65,0,1
119722,-100,4,2,1,65,0,0
120303,-100,4,2,2,65,0,0
120400,-100,4,2,1,65,0,0
120690,-100,4,2,2,65,0,0
120787,-100,4,2,1,65,0,0
121077,-100,4,2,2,65,0,0
121271,-100,4,2,1,65,0,0
121464,-100,4,2,2,65,0,0
121561,-100,4,2,1,65,0,0
121851,-100,4,2,2,65,0,0
122045,-100,4,2,1,65,0,0
122626,-100,4,2,2,65,0,0
122723,-100,4,2,1,65,0,0
123013,-100,4,2,2,65,0,0
123110,-100,4,2,1,65,0,0
123400,-100,4,2,2,65,0,0
123497,-100,4,2,1,65,0,0
123787,-100,4,2,2,65,0,0
123884,-100,4,2,1,65,0,0
124174,-100,4,2,2,65,0,0
124367,-100,4,2,1,65,0,0
138303,-111.111111111111,4,2,1,55,0,0
163077,-111.111111111111,4,2,1,65,0,0
166174,-111.111111111111,4,2,1,55,0,0
167722,-136.986301369863,4,2,1,50,0,0
169948,-136.986301369863,4,2,1,5,0,0
170045,-136.986301369863,4,2,1,50,0,0
170142,-136.986301369863,4,2,1,5,0,0
170239,-136.986301369863,4,2,1,50,0,0
173045,-136.986301369863,4,2,1,5,0,0
173142,-136.986301369863,4,2,1,50,0,0
173238,-136.986301369863,4,2,1,5,0,0
173335,-136.986301369863,4,2,1,50,0,0
173916,-136.986301369863,4,2,1,55,0,0
177013,-100,4,2,1,65,0,0
180109,-100,4,2,1,70,0,1
191916,-100,4,2,1,65,0,1
192496,-100,4,2,1,65,0,0
193077,-100,4,2,2,65,0,0
193174,-100,4,2,1,65,0,0
193464,-100,4,2,2,65,0,0
193561,-100,4,2,1,65,0,0
193851,-100,4,2,2,65,0,0
194045,-100,4,2,1,65,0,0
194238,-100,4,2,2,65,0,0
194335,-100,4,2,1,65,0,0
194625,-100,4,2,2,65,0,0
194819,-100,4,2,1,65,0,0
195400,-100,4,2,2,65,0,0
195497,-100,4,2,1,65,0,0
195787,-100,4,2,2,65,0,0
195884,-100,4,2,1,65,0,0
196174,-100,4,2,2,65,0,0
196271,-100,4,2,1,65,0,0
196561,-100,4,2,2,65,0,0
196658,-100,4,2,1,65,0,0
196948,-100,4,2,2,65,0,0
197141,-100,4,2,1,65,0,0
198690,-111.111111111111,4,2,1,65,0,0
210980,-111.111111111111,4,2,1,5,0,0

[Colours]
Combo1 : 109,254,197
Combo2 : 156,175,254
Combo3 : 201,85,217
Combo4 : 255,176,214

[HitObjects]
436,96,497,5,4,3:3:0:0:
469,175,690,1,0,0:0:0:0:
393,203,884,1,4,0:0:0:0:
355,128,1077,1,4,0:0:0:0:
469,175,1271,2,0,L|465:315,1,134.999995880127,4|4,3:1|0:0,0:0:0:0:
396,352,1851,6,0,P|331:341|303:282,1,134.999995880127,4|4,3:1|0:0,0:0:0:0:
300,202,2432,1,4,0:0:0:0:
227,238,2626,2,0,L|87:223,1,134.999995880127,4|8,3:1|0:1,0:0:0:0:
81,234,3109,1,8,0:1:0:0:
71,244,3206,2,0,L|84:291,2,33.7499989700318,8|8|8,0:1|0:1|0:1,0:0:0:0:
39,161,3593,6,0,L|44:93,1,67.4999979400635,4|0,3:3|0:0,0:0:0:0:
119,65,3980,2,0,L|134:130,1,67.4999979400635,4|4,0:0|0:0,0:0:0:0:
209,160,4367,2,0,P|265:125|289:63,1,134.999995880127,4|4,3:1|0:0,0:0:0:0:
365,96,4948,6,0,P|366:162|408:214,1,134.999995880127,4|4,3:1|0:0,0:0:0:0:
478,254,5529,1,6,0:0:0:0:
427,316,5722,2,0,L|350:309,1,67.4999979400635,4|0,3:1|0:0,0:0:0:0:
288,260,6109,1,8,0:3:0:0:
277,340,6302,1,8,0:3:0:0:
208,296,6496,1,4,0:0:0:0:
208,296,6593,1,4,0:0:0:0:
208,296,6690,6,0,L|201:221,1,75,4|4,3:3|0:0,0:0:0:0:
125,254,7077,2,0,L|131:328,1,75,8|4,0:3|0:0,0:0:0:0:
36,289,7464,2,0,P|50:215|52:140,1,150,0|8,3:0|0:3,0:0:0:0:
107,78,8045,6,0,P|171:111|240:86,1,150,4|4,3:1|3:2,0:0:0:0:
312,45,8625,1,8,0:3:0:0:
325,126,8819,2,0,P|313:196|304:292,1,150,4|4,3:3|3:2,0:0:0:0:
335,357,9400,1,8,0:3:0:0:
391,296,9593,1,4,0:0:0:0:
335,357,9787,6,0,L|167:337,2,150,4|12|0,3:1|0:3|3:0,0:0:0:0:
412,327,10755,1,4,3:2:0:0:
422,245,10948,1,8,0:3:0:0:
349,205,11142,6,0,P|307:226|211:182,1,150,4|4,3:1|3:2,0:0:0:0:
163,127,11722,1,8,0:3:0:0:
241,101,11916,2,0,L|420:91,1,150,4|4,3:1|3:2,0:0:0:0:
348,15,12496,2,0,L|273:19,1,75,8|4,0:1|3:2,0:0:0:0:
156,12,12884,5,4,3:0:0:0:
156,12,13077,2,0,L|144:76,1,54.7500015037537,4|2,0:0|3:2,0:0:0:0:
184,138,13464,2,0,P|212:114|296:110,1,109.500003007507,4|4,0:0|0:0,0:0:0:0:
346,156,14045,1,2,3:2:0:0:
346,156,14238,1,4,0:0:0:0:
411,106,14432,5,0,0:0:0:0:
411,106,14626,2,0,L|403:46,1,54.7500015037537,4|2,0:0|3:2,0:0:0:0:
498,84,15013,2,0,L|486:200,1,109.500003007507,4|4,0:0|3:2,0:0:0:0:
423,244,15593,1,2,3:2:0:0:
423,244,15787,1,4,3:2:0:0:
354,198,15980,5,0,3:2:0:0:
354,198,16174,2,0,L|298:206,1,54.7500015037537,4|2,0:0|3:2,0:0:0:0:
226,243,16561,2,0,P|206:219|211:135,1,109.500003007507,4|4,0:0|0:0,0:0:0:0:
259,81,17142,1,2,3:2:0:0:
259,81,17335,1,4,0:0:0:0:
193,30,17529,5,0,3:0:0:0:
193,30,17722,2,0,L|121:42,1,54.7500015037537,4|2,0:0|3:2,0:0:0:0:
56,32,18109,2,0,P|36:56|44:136,1,109.500003007507,4|4,0:0|3:2,0:0:0:0:
100,185,18690,2,0,P|128:173|156:141,1,54.7500015037537,2|4,3:2|3:2,0:0:0:0:
202,216,19077,5,0,3:0:0:0:
202,216,19271,2,0,L|198:292,1,54.7500015037537,4|2,0:0|3:2,0:0:0:0:
291,242,19658,2,0,L|279:126,1,109.500003007507,4|4,0:0|0:0,0:0:0:0:
338,75,20238,1,2,3:2:0:0:
338,75,20432,1,4,0:0:0:0:
415,103,20626,6,0,L|427:167,1,54.7500015037537,0|4,0:0|0:0,0:0:0:0:
453,233,21013,1,2,3:2:0:0:
421,308,21206,2,0,P|358:291|296:288,1,109.500003007507,4|4,0:0|3:2,0:0:0:0:
237,318,21787,1,2,3:2:0:0:
197,245,21981,1,4,3:2:0:0:
263,197,22174,6,0,P|323:193|381:177,1,109.500003007507,4|2,3:1|3:2,0:0:0:0:
351,100,22755,2,0,P|296:101|243:114,1,109.500003007507,4|4,0:1|0:0,0:0:0:0:
182,169,23335,2,0,L|128:160,1,54.7500015037537,2|4,3:2|0:0,0:0:0:0:
71,92,23722,5,4,0:1:0:0:
1,144,23915,1,0,0:0:0:0:
57,211,24109,1,2,0:0:0:0:
127,159,24303,1,0,0:0:0:0:
127,159,24690,1,8,0:3:0:0:
57,211,24884,1,10,0:3:0:0:
71,92,25077,6,0,P|136:76|195:106,1,134.999995880127,4|0,3:3|0:0,0:0:0:0:
258,154,25658,2,0,P|269:122|272:88,1,67.4999979400635,12|0,0:1|0:0,0:0:0:0:
279,7,26045,1,0,3:0:0:0:
279,7,26142,1,0,3:0:0:0:
279,7,26239,1,0,3:0:0:0:
350,44,26432,1,8,3:1:0:0:
429,26,26626,6,0,P|425:93|419:160,1,134.999995880127,4|0,3:1|0:0,0:0:0:0:
396,238,27206,2,0,P|363:230|329:226,1,67.4999979400635,8|0,0:1|3:0,0:0:0:0:
316,234,27496,1,0,3:0:0:0:
303,242,27593,2,0,P|269:238|236:230,1,67.4999979400635,2|0,3:2|0:0,0:0:0:0:
165,190,27980,1,8,0:1:0:0:
138,266,28174,6,0,P|71:271|10:301,1,134.999995880127,2|0,3:2|0:0,0:0:0:0:
6,212,28755,2,0,P|10:179|16:146,1,67.4999979400635,8|0,3:1|3:0,0:0:0:0:
16,146,29045,1,0,3:0:0:0:
16,146,29142,1,0,3:0:0:0:
73,89,29335,1,8,0:1:0:0:
138,136,29529,1,8,0:1:0:0:
94,203,29722,6,0,P|103:269|112:336,1,134.999995880127,2|0,3:2|0:0,0:0:0:0:
188,365,30303,2,0,P|195:332|203:299,1,67.4999979400635,8|0,0:1|3:0,0:0:0:0:
203,299,30593,1,0,3:0:0:0:
203,299,30690,1,0,3:0:0:0:
267,250,30884,1,0,3:0:0:0:
342,278,31077,1,8,0:1:0:0:
342,278,31271,6,0,P|367:217|341:157,1,134.999995880127,4|4,0:3|0:0,0:0:0:0:
270,116,31851,2,0,L|203:104,1,67.4999979400635,8|6,3:1|0:0,0:0:0:0:
131,66,32238,1,0,3:0:0:0:
93,137,32432,1,4,3:2:0:0:
165,174,32626,1,8,3:1:0:0:
203,104,32819,6,0,L|337:94,1,134.999995880127,4|4,3:3|0:0,0:0:0:0:
415,72,33400,2,0,P|411:106|411:140,1,67.4999979400635,8|6,3:1|0:0,0:0:0:0:
480,192,33787,1,0,0:0:0:0:
423,258,33980,1,4,3:2:0:0:
354,202,34174,1,8,3:1:0:0:
410,139,34367,1,4,0:0:0:0:
354,202,34561,6,0,L|287:190,1,67.4999979400635,4|0,3:3|0:0,0:0:0:0:
202,166,34948,2,0,L|213:232,1,67.4999979400635,8|4,3:1|0:0,0:0:0:0:
233,318,35335,1,0,3:0:0:0:
149,344,35529,1,4,3:2:0:0:
128,258,35722,2,0,L|117:192,1,67.4999979400635,8|4,3:1|0:0,0:0:0:0:
119,103,36109,6,0,P|184:112|235:71,1,134.999995880127,2|8,3:2|3:1,0:0:0:0:
316,103,36690,1,4,0:0:0:0:
264,176,36884,2,0,L|232:186,2,33.7499989700318,8|8|4,0:3|0:3|0:0,0:0:0:0:
337,223,37271,1,8,3:1:0:0:
393,156,37464,1,8,3:1:0:0:
461,211,37658,6,0,P|453:243|449:277,1,67.4999979400635,12|4,0:3|3:2,0:0:0:0:
348,289,38045,2,0,P|344:255|337:223,1,67.4999979400635,8|4,0:1|3:2,0:0:0:0:
263,174,38432,2,0,P|230:181|197:190,1,67.4999979400635,8|4,0:1|3:2,0:0:0:0:
180,276,38819,2,0,P|212:283|245:292,1,67.4999979400635,8|4,0:1|3:2,0:0:0:0:
341,236,39206,6,0,P|360:210|364:176,1,67.4999979400635,12|0,0:1|0:0,0:0:0:0:
440,128,39593,2,0,L|452:168,3,33.7499989700318,0|0|0|0,1:1|1:1|1:1|1:1,0:0:0:0:
476,168,39980,2,0,L|488:208,3,33.7499989700318,8|8|8|0,3:1|3:1|3:1|3:0,0:0:0:0:
512,208,40367,2,0,P|508:252|508:296,1,67.4999979400635,8|8,3:1|3:1,0:0:0:0:
456,341,40755,6,0,P|384:317|311:299,1,150,4|8,3:3|0:3,0:0:0:0:
242,342,41335,1,4,3:2:0:0:
169,302,41529,2,0,L|181:226,1,75,2|4,3:2|0:0,0:0:0:0:
203,148,41916,1,8,0:3:0:0:
269,196,42109,6,0,P|318:185|420:154,1,150,6|6,3:2|3:2,0:0:0:0:
381,80,42690,2,0,P|306:68|232:64,1,150,8|0,0:3|3:0,0:0:0:0:
160,104,43271,1,4,3:2:0:0:
159,186,43464,2,0,P|168:238|180:262,1,75,8|4,0:3|0:0,0:0:0:0:
248,299,43851,6,0,P|294:266|328:179,1,150,4|8,3:3|0:3,0:0:0:0:
349,101,44432,1,4,3:2:0:0:
431,111,44626,2,0,L|451:187,1,75,2|4,3:2|0:0,0:0:0:0:
482,259,45013,1,8,0:3:0:0:
422,315,45206,6,0,P|374:303|254:299,1,150,6|6,3:2|3:2,0:0:0:0:
231,226,45787,2,0,L|307:206,1,75,8|4,0:3|0:0,0:0:0:0:
351,139,46174,2,0,P|371:155|387:163,2,37.5,0|0|4,3:0|1:0|0:0,0:0:0:0:
305,69,46561,2,0,L|229:89,1,75,8|4,0:3|0:0,0:0:0:0:
225,97,46851,1,0,1:0:0:0:
217,105,46948,6,0,L|61:64,1,150,4|8,3:3|0:3,0:0:0:0:
8,119,47529,1,4,3:2:0:0:
59,183,47722,2,0,P|104:241|109:315,1,150,2|8,3:2|0:3,0:0:0:0:
197,345,48303,6,0,P|202:271|246:212,1,150,4|4,3:3|3:2,0:0:0:0:
327,196,48884,1,8,0:3:0:0:
284,124,49077,2,0,P|218:89|145:95,1,150,4|4,3:1|3:2,0:0:0:0:
86,153,49658,2,0,L|100:226,1,75,8|4,0:3|0:0,0:0:0:0:
182,270,50045,6,0,L|197:197,1,75,4|4,3:1|0:0,0:0:0:0:
266,151,50432,1,8,0:3:0:0:
333,194,50626,2,0,P|370:258|362:332,1,150,4|4,3:1|3:2,0:0:0:0:
265,366,51206,1,8,0:3:0:0:
281,282,51400,1,4,0:0:0:0:
362,331,51593,6,0,L|514:314,1,150,4|8,3:3|3:3,0:0:0:0:
481,236,52174,2,0,L|405:245,1,75,4|0,3:1|0:0,0:0:0:0:
325,227,52561,1,8,3:1:0:0:
325,227,52658,1,0,3:0:0:0:
325,227,52755,2,0,L|329:179,2,37.5,8|0|8,3:1|3:0|3:1,0:0:0:0:
258,276,53142,6,0,P|207:286|136:206,1,150,4|8,3:3|0:3,0:0:0:0:
105,149,53722,1,4,3:2:0:0:
167,94,53916,2,0,L|271:114,1,75,2|4,3:2|0:0,0:0:0:0:
307,156,54303,1,8,0:3:0:0:
371,105,54496,6,0,L|359:21,1,75,6|0,3:2|0:0,0:0:0:0:
465,68,54884,1,6,3:2:0:0:
465,68,55077,2,0,L|441:236,1,150,8|0,0:3|3:0,0:0:0:0:
370,255,55658,1,4,3:2:0:0:
422,318,55851,2,0,L|506:302,1,75,8|4,0:3|0:0,0:0:0:0:
370,255,56238,6,0,P|318:247|206:247,1,150,4|8,3:0|0:3,0:0:0:0:
145,280,56819,1,4,3:2:0:0:
93,215,57013,2,0,L|105:135,1,75,0|4,3:0|0:0,0:0:0:0:
102,58,57400,1,8,0:3:0:0:
181,78,57593,6,0,P|255:84|323:53,1,150,6|6,3:2|3:2,0:0:0:0:
361,166,58174,2,0,P|287:160|219:191,1,150,8|0,0:3|3:1,0:0:0:0:
213,200,58658,1,0,1:0:0:0:
208,210,58755,2,0,L|224:314,1,75,4|8,0:0|0:3,0:0:0:0:
142,324,59142,1,4,1:2:0:0:
142,324,59238,1,0,1:0:0:0:
142,324,59335,6,0,L|119:175,1,150,4|8,3:3|0:3,0:0:0:0:
57,120,59916,1,4,3:2:0:0:
114,61,60109,2,0,P|154:77|186:81,1,75,0|4,3:0|0:0,0:0:0:0:
257,39,60496,1,8,0:3:0:0:
302,108,60690,6,0,L|286:260,1,150,4|4,3:3|3:2,0:0:0:0:
345,315,61271,1,8,0:3:0:0:
424,293,61464,2,0,L|440:141,1,150,4|4,3:1|3:2,0:0:0:0:
389,77,62045,2,0,P|349:89|309:85,1,75,8|4,0:3|0:0,0:0:0:0:
259,173,62432,6,0,P|295:181|326:201,1,75,4|4,3:3|0:0,0:0:0:0:
259,255,62819,1,8,0:3:0:0:
178,220,63013,2,0,P|161:142|156:65,1,150,4|4,3:1|3:2,0:0:0:0:
78,26,63593,2,0,L|58:114,1,75,8|4,0:3|0:0,0:0:0:0:
155,72,63980,6,0,P|227:51|301:51,1,150,4|8,3:3|3:3,0:0:0:0:
351,116,64561,1,4,3:2:0:0:
390,43,64755,1,8,0:3:0:0:
449,110,64948,2,0,L|423:271,1,150,12|4,3:1|0:0,0:0:0:0:
425,258,65432,1,0,1:0:0:0:
425,258,65529,5,8,0:1:0:0:
343,250,65722,2,0,L|337:209,2,37.5,8|8|8,0:1|0:1|0:1,0:0:0:0:
289,312,66109,2,0,P|253:336|149:284,1,150,4|8,0:1|0:1,0:0:0:0:
149,292,66593,1,0,1:1:0:0:
138,279,66690,2,0,L|94:287,2,37.5,0|0|0,1:1|3:0|3:0,0:0:0:0:
180,202,67077,6,0,P|176:147|164:94,1,109.500003007507,4|2,3:3|0:0,0:0:0:0:
82,102,67658,2,0,P|85:156|97:209,1,109.500003007507,4|4,0:0|0:0,0:0:0:0:
141,278,68238,2,0,P|168:280|194:286,1,54.7500015037537,2|4,0:0|0:0,0:0:0:0:
273,313,68626,6,0,P|326:311|370:279,1,109.500003007507,0|2,0:0|0:0,0:0:0:0:
395,200,69206,2,0,P|341:201|297:233,1,109.500003007507,4|4,0:0|3:2,0:0:0:0:
222,197,69787,1,2,0:0:0:0:
222,197,69980,1,4,3:2:0:0:
133,157,70174,6,0,L|148:265,1,109.500003007507,0|2,0:0|0:0,0:0:0:0:
77,308,70755,2,0,L|61:199,1,109.500003007507,4|4,0:0|0:0,0:0:0:0:
30,123,71335,1,2,0:0:0:0:
30,123,71529,1,4,0:0:0:0:
97,76,71722,6,0,P|152:77|200:53,1,109.500003007507,0|2,0:0|0:0,0:0:0:0:
272,91,72303,2,0,P|326:90|374:114,1,109.500003007507,4|4,0:0|3:2,0:0:0:0:
434,171,72884,2,0,P|428:197|425:224,1,54.7500015037537,2|4,0:0|3:2,0:0:0:0:
349,305,73271,6,0,P|343:250|331:197,1,109.500003007507,0|2,0:0|0:0,0:0:0:0:
249,208,73851,2,0,P|254:262|266:315,1,109.500003007507,4|4,3:2|0:0,0:0:0:0:
192,352,74432,1,2,0:0:0:0:
192,352,74626,1,4,0:0:0:0:
135,292,74819,6,0,P|80:297|26:307,1,109.500003007507,0|2,3:2|0:0,0:0:0:0:
8,221,75400,2,0,P|62:215|116:205,1,109.500003007507,4|4,0:0|3:2,0:0:0:0:
171,144,75980,1,2,0:0:0:0:
171,144,76174,1,4,3:2:0:0:
252,155,76367,6,0,P|270:207|279:261,1,109.500003007507,4|2,0:1|0:0,0:0:0:0:
354,318,76948,2,0,P|362:264|380:212,1,109.500003007507,4|4,3:2|0:0,0:0:0:0:
446,163,77529,1,2,0:0:0:0:
399,95,77722,1,4,0:0:0:0:
334,143,77916,6,0,P|306:145|279:148,1,54.7500015037537,4|4,3:1|0:0,0:0:0:0:
188,232,78303,2,0,P|216:230|243:227,1,54.7500015037537,2|0,0:0|0:0,0:0:0:0:
315,330,78690,1,8,0:1:0:0:
364,257,78884,1,8,0:3:0:0:
409,331,79077,1,8,0:3:0:0:
457,250,79271,6,0,P|472:212|436:112,1,134.999995880127,4|0,3:0|0:0,0:0:0:0:
374,92,79851,2,0,P|342:104|308:104,1,67.4999979400635,12|0,0:1|0:0,0:0:0:0:
236,66,80239,1,0,0:0:0:0:
236,66,80335,1,0,3:0:0:0:
236,66,80432,2,0,L|247:23,2,33.7499989700318,0|0|8,3:0|3:0|3:1,0:0:0:0:
142,108,80819,6,0,L|166:252,1,134.999995880127,4|0,3:3|0:0,0:0:0:0:
148,320,81400,2,0,P|188:324|244:264,1,101.249996910095,8|0,0:1|3:0,0:0:0:0:
244,276,81787,2,0,L|309:293,1,67.4999979400635,2|0,3:2|0:0,0:0:0:0:
379,253,82174,1,8,0:1:0:0:
318,199,82367,6,0,P|292:138|315:76,1,134.999995880127,2|0,3:2|0:0,0:0:0:0:
383,34,82948,2,0,L|459:50,1,67.4999979400635,8|0,3:1|3:0,0:0:0:0:
449,47,83238,1,0,3:0:0:0:
449,47,83335,1,0,3:0:0:0:
469,128,83529,2,0,L|402:141,1,67.4999979400635,8|8,0:1|0:1,0:0:0:0:
318,199,83916,6,0,P|292:138|315:76,1,134.999995880127,2|0,3:2|0:0,0:0:0:0:
246,32,84496,2,0,P|207:63|157:68,1,101.249996910095,8|0,0:1|3:0,0:0:0:0:
142,64,84884,2,0,P|154:108|146:148,1,67.4999979400635,0|0,3:0|3:0,0:0:0:0:
82,172,85271,1,8,0:1:0:0:
122,241,85464,6,0,L|278:213,1,134.999995880127,4|4,3:3|0:0,0:0:0:0:
332,241,86045,2,0,L|316:321,1,67.4999979400635,8|6,3:1|0:0,0:0:0:0:
386,352,86432,1,0,0:0:0:0:
465,334,86626,1,4,0:0:0:0:
481,254,86819,1,8,3:1:0:0:
434,187,87013,6,0,L|301:210,1,134.999995880127,4|4,3:1|0:0,0:0:0:0:
230,170,87593,2,0,L|214:94,1,67.4999979400635,8|6,3:1|0:0,0:0:0:0:
158,46,87980,1,0,3:0:0:0:
77,55,88173,1,4,3:2:0:0:
31,122,88367,2,0,L|44:188,1,67.4999979400635,8|4,3:1|0:0,0:0:0:0:
110,245,88755,6,0,P|154:195|219:186,2,134.999995880127,4|8|0,3:3|3:1|3:0,0:0:0:0:
199,274,89722,1,4,3:2:0:0:
299,253,89916,2,0,L|307:173,1,67.4999979400635,8|4,3:1|0:0,0:0:0:0:
364,96,90303,6,0,P|320:46|255:37,1,134.999995880127,2|8,3:2|3:1,0:0:0:0:
182,73,90884,1,4,0:0:0:0:
204,157,91077,2,0,L|256:157,2,33.7499989700318,0|8|8,0:0|0:1|0:1,0:0:0:0:
119,182,91464,1,8,0:1:0:0:
89,98,91658,1,8,0:1:0:0:
204,157,91851,6,0,P|208:190|205:224,1,67.4999979400635,12|0,0:3|0:0,0:0:0:0:
304,268,92238,2,0,P|308:234|319:202,1,67.4999979400635,8|4,0:1|3:2,0:0:0:0:
398,152,92626,2,0,L|470:180,1,67.4999979400635,8|4,0:1|3:2,0:0:0:0:
471,269,93013,2,0,L|399:297,1,67.4999979400635,8|4,0:1|3:2,0:0:0:0:
304,268,93400,6,0,P|268:256|232:208,1,67.4999979400635,12|0,0:1|0:0,0:0:0:0:
161,200,93787,2,0,L|149:240,3,33.7499989700318,0|0|0|0,1:0|1:0|1:0|1:0,0:0:0:0:
129,248,94174,2,0,L|127:289,3,33.7499989700318,8|8|8|0,3:1|3:1|3:1|3:0,0:0:0:0:
110,302,94561,2,0,P|117:340|133:376,1,67.4999979400635,8|8,3:1|3:1,0:0:0:0:
218,367,94948,6,0,P|276:320|349:308,1,150,4|8,3:3|0:3,0:0:0:0:
430,294,95529,1,4,3:2:0:0:
494,243,95722,2,0,P|498:205|499:168,1,75,2|4,3:2|0:0,0:0:0:0:
443,106,96109,1,8,0:3:0:0:
360,115,96303,6,0,P|288:95|214:96,1,150,6|6,3:2|3:2,0:0:0:0:
197,191,96884,2,0,P|269:211|344:211,1,150,8|0,0:3|3:0,0:0:0:0:
394,276,97464,1,4,3:2:0:0:
314,299,97658,2,0,P|320:335|327:372,1,75,8|4,0:3|0:0,0:0:0:0:
238,362,98045,6,0,P|225:288|210:214,1,150,4|8,3:3|0:3,0:0:0:0:
204,132,98626,1,4,3:2:0:0:
122,144,98819,2,0,P|84:138|47:132,1,75,2|4,3:2|0:0,0:0:0:0:
35,213,99206,1,8,0:3:0:0:
107,253,99400,6,0,P|181:241|255:230,1,150,6|6,3:2|3:2,0:0:0:0:
330,263,99980,2,0,P|334:225|339:188,1,75,8|4,0:3|0:0,0:0:0:0:
416,145,100367,2,0,L|431:106,2,37.5,0|0|4,3:0|1:0|0:0,0:0:0:0:
338,106,100755,2,0,P|301:101|264:95,1,75,8|4,0:3|1:2,0:0:0:0:
255,102,101045,1,0,1:2:0:0:
247,110,101142,6,0,P|172:118|98:130,1,150,4|8,3:3|0:3,0:0:0:0:
18,109,101722,1,4,3:2:0:0:
22,191,101916,2,0,P|37:265|45:339,1,150,2|8,3:2|0:3,0:0:0:0:
123,362,102496,6,0,P|131:287|146:214,1,150,4|4,3:3|3:2,0:0:0:0:
202,153,103077,1,8,0:3:0:0:
276,188,103271,2,0,P|350:191|404:143,1,150,4|4,3:3|0:0,0:0:0:0:
474,185,103851,2,0,P|464:222|461:259,1,75,8|4,0:3|0:0,0:0:0:0:
384,306,104238,6,0,P|370:270|352:237,1,75,4|4,3:3|0:0,0:0:0:0:
301,172,104626,1,8,0:3:0:0:
256,241,104819,2,0,P|181:241|107:256,1,150,4|4,3:1|3:2,0:0:0:0:
28,233,105400,1,8,0:3:0:0:
46,313,105593,1,4,0:0:0:0:
107,255,105787,6,0,P|114:180|103:106,1,150,4|8,3:3|0:3,0:0:0:0:
192,92,106367,2,0,P|191:129|198:166,1,75,4|0,3:1|0:0,0:0:0:0:
292,196,106755,1,8,3:1:0:0:
292,196,106851,1,0,3:0:0:0:
292,196,106948,2,0,P|297:213|300:232,2,37.5,8|0|8,3:1|3:0|3:1,0:0:0:0:
335,125,107335,6,0,P|407:139|440:211,1,150,4|8,3:3|0:3,0:0:0:0:
381,261,107916,1,4,3:2:0:0:
300,232,108109,2,0,P|262:235|225:240,1,75,2|4,3:2|0:0,0:0:0:0:
151,203,108496,1,8,0:3:0:0:
196,132,108690,6,0,P|192:94|187:57,1,75,6|0,3:2|0:0,0:0:0:0:
94,39,109077,1,6,3:2:0:0:
94,39,109271,2,0,P|101:113|110:188,1,150,8|0,0:3|3:0,0:0:0:0:
169,244,109851,1,4,3:2:0:0:
95,282,110045,2,0,P|57:279|20:273,1,75,8|4,0:3|0:0,0:0:0:0:
162,340,110432,6,0,P|236:347|310:359,1,150,4|8,3:3|0:3,0:0:0:0:
393,360,111013,1,4,3:2:0:0:
460,313,111206,2,0,P|461:275|459:238,1,75,2|4,3:2|0:0,0:0:0:0:
459,155,111593,1,8,0:3:0:0:
377,167,111787,6,0,P|302:164|227:156,1,150,6|6,3:2|3:2,0:0:0:0:
224,248,112367,2,0,P|298:251|373:259,1,150,8|0,0:3|3:1,0:0:0:0:
384,264,112851,1,0,1:0:0:0:
392,272,112948,2,0,P|399:308|405:345,1,75,4|8,0:0|0:3,0:0:0:0:
487,293,113335,1,4,1:2:0:0:
487,293,113432,1,0,1:0:0:0:
487,293,113529,6,0,P|472:219|460:145,1,150,4|8,3:3|0:3,0:0:0:0:
463,63,114109,1,4,3:2:0:0:
386,93,114303,2,0,P|348:89|311:86,1,75,2|4,3:2|0:0,0:0:0:0:
240,43,114690,1,8,0:3:0:0:
189,108,114884,6,0,P|200:182|212:256,1,150,4|4,3:3|3:2,0:0:0:0:
147,326,115464,1,8,0:3:0:0:
59,290,115658,2,0,P|47:215|35:141,1,150,4|4,3:1|3:2,0:0:0:0:
89,79,116238,2,0,P|125:86|162:85,1,75,8|4,3:3|0:0,0:0:0:0:
241,113,116626,6,0,P|227:147|221:184,1,75,4|4,3:3|0:0,0:0:0:0:
266,253,117013,1,8,0:3:0:0:
347,244,117206,2,0,P|370:194|372:138,1,112.5,4|0,3:1|1:0,0:0:0:0:
359,120,117593,2,0,L|433:109,2,75,8|8|0,0:1|0:3|1:1,0:0:0:0:
257,63,118174,6,0,L|267:137,1,75,4|4,3:3|0:0,0:0:0:0:
181,183,118561,2,0,L|170:257,1,75,8|4,0:3|0:0,0:0:0:0:
145,343,118948,1,0,3:0:0:0:
57,320,119142,1,4,3:2:0:0:
76,232,119335,1,8,0:3:0:0:
170,257,119529,1,4,3:2:0:0:
76,232,119722,6,0,L|65:157,1,75,4|0,3:3|0:0,0:0:0:0:
130,95,120109,1,4,3:2:0:0:
265,147,120303,2,0,L|191:162,1,75,8|0,0:3|3:0,0:0:0:0:
198,253,120690,2,0,L|272:267,1,75,4|4,0:3|3:2,0:0:0:0:
354,302,121077,1,8,0:3:0:0:
354,302,121174,1,4,0:3:0:0:
354,301,121271,6,0,P|358:263|366:227,1,75,0|8,3:0|0:3,0:0:0:0:
375,144,121658,1,4,3:2:0:0:
444,187,121851,2,0,P|462:183|480:180,2,37.5,8|4|0,0:3|0:3|3:0,0:0:0:0:
365,227,122238,2,0,P|323:235|282:242,1,75,0|4,0:0|3:2,0:0:0:0:
231,298,122626,1,8,0:3:0:0:
163,251,122819,6,0,P|159:213|151:177,1,75,0|8,3:0|0:3,0:0:0:0:
109,105,123206,1,4,3:2:0:0:
180,63,123400,1,8,0:3:0:0:
222,133,123593,1,0,3:0:0:0:
151,177,123787,2,0,L|76:190,1,75,4|4,0:3|3:0,0:0:0:0:
29,257,124174,1,8,0:3:0:0:
29,257,124271,1,4,0:3:0:0:
29,257,124367,6,0,P|37:293|41:341,1,75,8|8,0:1|0:1,0:0:0:0:
124,358,124755,2,0,P|127:320|135:284,1,75,8|8,0:1|0:1,0:0:0:0:
207,244,125142,2,0,L|244:240,3,37.5,8|8|8|8,3:1|3:1|3:1|3:1,0:0:0:0:
267,260,125529,2,0,L|304:256,3,37.5,8|8|8|8,3:1|3:1|3:1|3:1,0:0:0:0:
327,275,125916,1,4,3:3:0:0:
256,192,126013,12,4,127271,3:1:0:0:
88,252,132109,6,0,L|80:328,1,75,4|4,3:3|0:0,0:0:0:0:
155,360,132496,2,0,L|162:285,1,75,8|4,0:3|0:0,0:0:0:0:
229,236,132884,2,0,P|285:282|292:354,1,150,0|8,3:0|0:3,0:0:0:0:
393,329,133464,6,0,P|367:260|397:194,1,150,4|4,3:3|0:0,0:0:0:0:
452,132,134045,1,8,0:3:0:0:
400,68,134238,2,0,L|224:92,1,150,4|4,0:1|0:0,0:0:0:0:
177,125,134819,2,0,L|97:101,1,75,8|4,0:3|0:0,0:0:0:0:
38,152,135206,6,0,P|50:212|126:252,2,150,4|12|0,3:1|0:3|3:0,0:0:0:0:
24,70,136174,1,4,0:0:0:0:
101,98,136367,1,8,0:3:0:0:
179,124,136561,6,0,L|347:96,1,150,4|4,3:1|3:2,0:0:0:0:
400,152,137142,1,8,0:3:0:0:
360,230,137335,2,0,L|192:258,1,150,4|4,3:1|3:2,0:0:0:0:
138,217,137916,2,0,P|110:185|94:137,1,75,8|4,3:1|0:0,0:0:0:0:
22,186,138303,6,0,P|7:252|20:318,1,134.999995880127,4|2,3:3|0:0,0:0:0:0:
89,359,138884,1,4,0:0:0:0:
89,359,139077,2,0,P|153:342|219:355,1,134.999995880127,0|2,3:0|0:0,0:0:0:0:
286,308,139658,6,0,P|288:274|292:240,1,67.4999979400635,4|0,0:0|3:0,0:0:0:0:
319,164,140045,2,0,P|285:160|251:158,1,67.4999979400635,4|2,0:0|0:0,0:0:0:0:
173,180,140432,1,4,0:0:0:0:
173,180,140626,2,0,P|139:183|105:185,1,67.4999979400635,0|4,3:0|0:0,0:0:0:0:
35,143,141013,2,0,P|27:173|25:219,1,67.4999979400635,2|4,0:0|0:0,0:0:0:0:
77,270,141400,6,0,P|143:267|207:289,1,134.999995880127,0|2,3:0|0:0,0:0:0:0:
287,295,141980,1,4,0:0:0:0:
342,235,142174,2,0,P|345:169|323:105,1,134.999995880127,0|2,3:0|0:0,0:0:0:0:
254,60,142755,1,4,0:0:0:0:
246,140,142948,5,0,3:0:0:0:
246,140,143142,2,0,P|212:136|178:133,1,67.4999979400635,4|2,0:0|0:0,0:0:0:0:
111,87,143529,1,4,0:0:0:0:
111,87,143722,2,0,P|100:118|97:155,1,67.4999979400635,0|4,3:0|0:0,0:0:0:0:
150,213,144109,2,0,P|148:247|139:283,1,67.4999979400635,2|4,0:0|0:0,0:0:0:0:
81,336,144496,6,0,P|148:328|214:319,1,134.999995880127,0|2,3:0|0:0,0:0:0:0:
296,355,145077,2,0,P|296:322|299:288,1,67.4999979400635,4|0,0:0|3:0,0:0:0:0:
307,206,145464,1,4,0:0:0:0:
375,249,145658,1,2,0:0:0:0:
386,169,145851,6,0,P|390:128|388:89,1,67.4999979400635,0|0,0:0|3:0,0:0:0:0:
335,41,146238,1,4,0:0:0:0:
271,90,146432,1,2,0:0:0:0:
271,90,146626,2,0,P|237:87|203:84,1,67.4999979400635,4|0,0:0|3:0,0:0:0:0:
126,110,147013,1,0,0:0:0:0:
76,173,147206,2,0,P|80:206|84:240,1,67.4999979400635,2|0,0:0|0:0,0:0:0:0:
162,259,147593,6,0,P|166:226|170:192,1,67.4999979400635,0|4,3:0|0:0,0:0:0:0:
210,121,147980,1,2,0:0:0:0:
210,121,148174,1,4,0:0:0:0:
270,174,148367,2,0,P|335:174|383:129,1,134.999995880127,0|2,3:0|0:0,0:0:0:0:
449,175,148948,1,4,0:0:0:0:
409,256,149142,6,0,P|376:253|342:255,1,67.4999979400635,4|8,3:3|0:1,0:0:0:0:
342,256,149432,1,8,0:1:0:0:
342,256,149529,1,8,0:1:0:0:
276,315,149722,2,0,P|266:282|254:250,1,67.4999979400635,4|0,3:1|0:0,0:0:0:0:
177,224,150109,1,8,3:3:0:0:
177,224,150303,2,0,P|111:235|70:287,1,134.999995880127,8|4,0:3|3:3,0:0:0:0:
24,72,151077,6,0,L|107:54,1,67.4999979400635,8|4,0:1|0:0,0:0:0:0:
132,126,151464,2,0,L|66:140,1,67.4999979400635,0|0,3:0|0:0,0:0:0:0:
32,214,151851,1,8,0:1:0:0:
97,261,152045,6,0,P|162:249|203:197,1,134.999995880127,4|4,0:0|0:0,0:0:0:0:
245,127,152626,1,8,0:1:0:0:
325,127,152819,1,4,0:0:0:0:
359,200,153013,2,0,L|349:284,1,67.4999979400635,0|4,3:0|0:0,0:0:0:0:
249,298,153400,2,0,L|241:230,1,67.4999979400635,8|0,0:1|0:0,0:0:0:0:
233,222,153690,1,0,0:0:0:0:
225,214,153787,6,0,P|193:224|160:231,1,67.4999979400635,0|4,3:0|0:0,0:0:0:0:
152,142,154174,2,0,P|183:131|216:124,1,67.4999979400635,8|4,0:1|0:0,0:0:0:0:
297,135,154561,2,0,P|333:167|433:159,1,134.999995880127,0|8,3:0|0:1,0:0:0:0:
484,124,155142,1,4,0:0:0:0:
510,200,155335,6,0,L|502:283,1,67.4999979400635,4|0,3:3|0:0,0:0:0:0:
444,323,155722,1,8,0:1:0:0:
363,316,155916,2,0,L|350:181,1,134.999995880127,4|4,3:1|3:2,0:0:0:0:
292,124,156496,2,0,L|246:144,2,33.7499989700318,8|8|8,0:3|0:3|0:3,0:0:0:0:
372,94,156884,6,0,L|447:108,1,67.4999979400635,4|0,3:3|0:0,0:0:0:0:
503,57,157271,1,8,0:1:0:0:
441,5,157464,2,0,P|373:11|309:30,1,134.999995880127,4|4,0:0|0:0,0:0:0:0:
252,87,158045,2,0,L|176:71,1,67.4999979400635,8|2,0:1|0:0,0:0:0:0:
176,79,158335,1,2,0:0:0:0:
166,84,158432,6,0,P|177:115|184:148,1,67.4999979400635,0|4,3:0|0:0,0:0:0:0:
250,195,158819,2,0,P|281:183|314:176,1,67.4999979400635,8|4,0:1|0:0,0:0:0:0:
392,197,159206,1,0,3:0:0:0:
413,275,159400,1,4,0:0:0:0:
351,327,159593,2,0,P|317:320|286:308,1,67.4999979400635,8|4,0:1|0:0,0:0:0:0:
203,274,159980,5,4,3:3:0:0:
203,274,160367,2,0,L|195:358,1,67.4999979400635,8|4,0:1|0:0,0:0:0:0:
108,285,160755,2,0,L|116:201,1,67.4999979400635,0|4,3:0|0:0,0:0:0:0:
20,265,161142,2,0,L|12:349,1,67.4999979400635,8|4,0:1|0:0,0:0:0:0:
107,285,161529,6,0,P|171:262|238:257,1,134.999995880127,0|8,3:0|0:1,0:0:0:0:
311,288,162109,1,4,0:0:0:0:
359,222,162303,2,0,L|343:134,1,67.4999979400635,0|8,3:0|0:1,0:0:0:0:
355,146,162593,1,0,0:0:0:0:
363,136,162690,2,0,L|415:152,2,33.7499989700318,8|0|4,0:1|0:0|0:0,0:0:0:0:
296,84,163077,6,0,P|267:103|235:114,1,67.4999979400635,4|0,3:1|0:0,0:0:0:0:
112,149,163464,2,0,P|140:167|172:178,1,67.4999979400635,12|0,0:3|0:0,0:0:0:0:
300,205,163851,2,0,P|271:223|239:234,1,67.4999979400635,8|4,3:0|0:0,0:0:0:0:
115,269,164238,2,0,P|143:287|175:298,1,67.4999979400635,8|4,0:1|0:0,0:0:0:0:
300,205,164626,6,0,L|292:121,1,67.4999979400635,4|0,3:1|0:0,0:0:0:0:
196,100,165013,2,0,L|189:167,1,67.4999979400635,12|0,0:3|0:0,0:0:0:0:
21,134,165400,2,0,L|57:126,3,33.7499989700318,8|8|8|8,3:1|3:1|3:1|3:1,0:0:0:0:
77,133,165787,2,0,P|65:78|66:47,1,67.4999979400635,8|8,3:1|3:1,0:0:0:0:
147,9,166174,5,4,3:3:0:0:
256,192,166271,12,0,167335,0:0:0:0:
456,120,167722,6,0,P|401:116|346:112,1,109.500003007507,0|2,0:0|0:0,0:0:0:0:
452,208,168496,2,0,P|397:204|342:200,1,109.500003007507,0|2,0:0|0:0,0:0:0:0:
280,156,169077,1,0,0:0:0:0:
152,216,169464,6,0,P|171:267|172:321,1,109.500003007507,0|0,0:0|0:0,0:0:0:0:
108,360,170045,1,0,0:0:0:0:
252,312,170432,1,2,0:0:0:0:
152,216,170819,6,0,P|153:161|172:110,1,109.500003007507,0|2,0:0|0:0,0:0:0:0:
252,228,171593,2,0,P|253:173|272:122,1,109.500003007507,0|2,0:0|0:0,0:0:0:0:
340,88,172174,1,0,0:0:0:0:
448,156,172561,6,0,P|393:161|338:165,1,109.500003007507,0|0,0:0|0:0,0:0:0:0:
272,122,173142,1,0,0:0:0:0:
352,240,173529,1,2,0:0:0:0:
207,259,173916,6,0,B|180:212|120:208|120:208|88:264|124:314,1,219.000006015015,4|4,0:3|0:1,0:0:0:0:
216,360,175271,6,0,B|264:340|264:340|374:356,1,164.250004511261,4|0,3:3|0:0,0:0:0:0:
443,311,176045,2,0,P|455:263|435:207,1,109.500003007507,4|8,3:1|3:3,0:0:0:0:
375,151,176626,1,8,3:3:0:0:
348,228,176819,1,0,3:0:0:0:
348,228,176916,1,0,3:0:0:0:
348,228,177013,6,0,B|292:220|292:220|260:232|260:232|201:223,1,150,4|8,3:3|0:3,0:0:0:0:
125,254,177593,2,0,P|125:216|120:179,1,75,4|0,3:1|0:0,0:0:0:0:
62,120,177980,1,0,3:2:0:0:
141,95,178174,2,0,P|178:94|215:89,1,75,8|8,0:3|0:1,0:0:0:0:
229,83,178464,1,8,0:1:0:0:
241,75,178561,6,0,P|247:111|254:148,1,75,4|0,3:3|3:2,0:0:0:0:
349,166,178948,2,0,P|342:202|335:239,1,75,8|0,0:3|3:0,0:0:0:0:
247,278,179335,2,0,P|255:295|264:312,3,37.5,8|8|8|8,0:1|3:1|3:1|3:1,0:0:0:0:
288,324,179722,2,0,P|286:341|285:360,3,37.5,8|8|0|0,3:1|3:1|3:0|3:0,0:0:0:0:
256,384,180109,6,0,P|184:362|109:356,1,150,4|8,3:3|0:3,0:0:0:0:
48,300,180690,1,4,3:2:0:0:
83,225,180884,2,0,L|159:237,1,75,2|4,3:2|0:0,0:0:0:0:
236,258,181271,1,8,0:3:0:0:
303,210,181464,6,0,P|319:158|271:74,1,150,6|6,3:2|3:2,0:0:0:0:
206,32,182045,1,8,0:3:0:0:
204,114,182239,1,6,0:0:0:0:
130,77,182432,2,0,L|55:90,1,75,0|4,3:0|0:0,0:0:0:0:
66,179,182819,2,0,L|143:193,1,75,8|4,0:3|0:0,0:0:0:0:
213,229,183206,6,0,P|275:187|346:163,1,150,4|8,3:3|0:3,0:0:0:0:
407,218,183787,1,4,3:2:0:0:
395,299,183980,2,0,P|350:301|305:296,1,75,2|4,3:2|0:0,0:0:0:0:
240,321,184367,1,8,0:3:0:0:
258,240,184561,6,0,P|274:192|222:104,1,150,6|6,3:2|3:2,0:0:0:0:
170,51,185142,2,0,L|82:79,1,75,8|6,0:3|0:0,0:0:0:0:
22,106,185529,1,0,3:0:0:0:
19,188,185723,1,4,0:0:0:0:
97,214,185916,1,8,0:3:0:0:
150,151,186110,1,4,1:2:0:0:
150,151,186206,1,0,1:0:0:0:
150,151,186303,6,0,P|199:207|191:291,1,150,4|8,3:3|0:3,0:0:0:0:
168,356,186884,1,4,3:2:0:0:
249,347,187077,2,0,L|337:359,1,75,2|4,3:2|0:0,0:0:0:0:
405,346,187464,1,8,0:3:0:0:
391,264,187658,6,0,P|371:216|423:116,1,150,4|8,3:3|3:1,0:0:0:0:
457,65,188238,1,8,0:3:0:0:
383,26,188432,2,0,P|311:10|248:48,1,150,4|8,3:1|3:1,0:0:0:0:
208,119,189013,1,8,0:3:0:0:
163,50,189206,1,4,0:0:0:0:
208,119,189400,6,0,L|196:203,1,75,4|4,3:3|0:0,0:0:0:0:
145,257,189787,1,8,0:3:0:0:
62,260,189980,2,0,P|50:116|66:100,1,150,4|4,3:1|3:2,0:0:0:0:
115,74,190561,1,8,0:3:0:0:
124,156,190755,1,4,0:0:0:0:
115,74,190948,6,0,P|195:54|275:50,1,150,12|8,3:3|0:3,0:0:0:0:
270,57,191432,1,0,1:0:0:0:
278,65,191529,2,0,P|270:129|278:161,1,75,4|8,0:0|0:3,0:0:0:0:
341,182,191916,1,4,3:2:0:0:
388,114,192109,2,0,L|382:33,1,75,8|4,3:3|3:2,0:0:0:0:
476,83,192496,6,0,P|478:120|467:155,1,75,4|0,3:3|0:0,0:0:0:0:
413,222,192884,1,4,3:2:0:0:
333,293,193077,2,0,L|320:206,1,75,8|0,0:3|3:0,0:0:0:0:
282,146,193464,2,0,L|370:138,1,75,4|4,0:3|3:2,0:0:0:0:
438,127,193851,1,8,0:3:0:0:
438,127,193948,1,4,0:3:0:0:
438,127,194045,6,0,P|426:175|422:215,1,75,0|8,3:0|0:3,0:0:0:0:
446,279,194432,1,4,3:2:0:0:
366,304,194626,2,0,L|326:312,2,37.5,8|4|0,0:3|0:3|3:2,0:0:0:0:
341,224,195013,1,0,0:0:0:0:
270,182,195206,1,4,3:2:0:0:
211,240,195400,1,8,0:3:0:0:
135,206,195593,6,0,L|146:114,1,75,0|8,3:2|0:3,0:0:0:0:
143,131,195884,1,0,3:0:0:0:
143,131,195980,1,4,3:2:0:0:
214,82,196174,2,0,P|229:115|254:143,1,75,8|0,0:3|3:2,0:0:0:0:
337,148,196561,2,0,P|364:122|398:107,1,75,4|6,0:3|3:2,0:0:0:0:
475,136,196948,1,8,0:3:0:0:
475,136,197045,1,4,0:3:0:0:
475,136,197142,6,0,L|478:61,1,75,8|8,0:1|0:1,0:0:0:0:
412,11,197529,2,0,L|337:7,1,75,8|8,0:1|0:1,0:0:0:0:
271,57,197916,2,0,L|225:67,3,37.5,8|8|8|8,3:1|3:1|3:1|3:1,0:0:0:0:
205,87,198303,2,0,L|168:79,3,37.5,8|8|8|8,3:1|3:1|3:1|3:1,0:0:0:0:
149,60,198690,6,0,P|133:89|127:122,1,67.4999979400635,4|4,3:1|0:0,0:0:0:0:
170,190,199077,2,0,P|164:223|147:252,1,67.4999979400635,12|4,0:3|0:0,0:0:0:0:
92,312,199464,2,0,B|148:296|148:296|228:320,1,134.999995880127,0|8,3:0|0:3,0:0:0:0:
302,298,200045,6,0,P|311:231|321:164,1,134.999995880127,4|4,3:3|3:2,0:0:0:0:
371,100,200626,1,8,0:3:0:0:
299,62,200819,2,0,P|233:70|178:34,1,134.999995880127,4|4,3:1|3:2,0:0:0:0:
85,23,201400,2,0,P|97:54|101:87,1,67.4999979400635,8|4,0:3|0:0,0:0:0:0:
47,148,201787,6,0,P|51:181|63:212,1,67.4999979400635,4|4,3:1|0:0,0:0:0:0:
134,252,202174,2,0,P|173:241|206:237,1,67.4999979400635,12|0,0:3|0:0,0:0:0:0:
275,266,202561,1,0,3:0:0:0:
308,192,202755,1,4,3:2:0:0:
234,158,202948,1,8,0:3:0:0:
275,266,203142,6,0,P|345:272|402:227,1,134.999995880127,4|4,3:3|3:2,0:0:0:0:
435,164,203722,1,8,0:3:0:0:
370,114,203916,2,0,P|300:108|243:153,1,134.999995880127,4|4,3:1|3:2,0:0:0:0:
179,184,204496,2,0,P|173:167|168:152,2,33.7499989700318,8|0|4,0:3|0:0|0:0,0:0:0:0:
249,224,204884,6,0,P|244:258|239:291,1,67.4999979400635,4|4,3:1|0:0,0:0:0:0:
161,336,205271,2,0,P|156:302|151:269,1,67.4999979400635,12|4,0:3|0:0,0:0:0:0:
179,184,205658,1,0,3:0:0:0:
95,156,205852,1,0,0:0:0:0:
68,239,206045,1,8,0:3:0:0:
179,184,206238,6,0,P|176:116|162:50,1,134.999995880127,4|4,3:3|3:2,0:0:0:0:
242,14,206819,1,8,0:3:0:0:
323,47,207013,2,0,P|308:112|305:180,1,134.999995880127,4|4,3:3|3:2,0:0:0:0:
357,241,207593,2,0,P|326:254|295:269,1,67.4999979400635,8|8,0:3|0:1,0:0:0:0:
245,332,207980,6,0,P|198:312|152:290,1,101.249996910095,4|0,3:1|0:0,0:0:0:0:
136,284,208367,2,0,P|132:251|125:218,1,67.4999979400635,12|0,0:3|0:0,0:0:0:0:
94,137,208755,1,0,3:0:0:0:
177,109,208948,1,4,3:2:0:0:
207,191,209142,1,8,0:3:0:0:
94,137,209335,6,0,P|38:174|24:238,1,134.999995880127,4|4,3:3|3:2,0:0:0:0:
80,294,209916,1,8,0:3:0:0:
80,294,210109,2,0,P|112:286|146:287,1,67.4999979400635,4|2,3:1|0:0,0:0:0:0:
235,329,210496,1,8,3:3:0:0:
239,313,210593,1,0,3:0:0:0:
243,297,210690,1,2,1:3:0:0:
203,215,210884,5,4,3:3:0:0:
256,192,210980,12,0,217271,0:0:0:0:
