osu file format v14

[General]
AudioFilename: audio.mp3
AudioLeadIn: 0
PreviewTime: 53606
Countdown: 0
SampleSet: Soft
StackLeniency: 0.7
Mode: 3
LetterboxInBreaks: 0
SpecialStyle: 0
WidescreenStoryboard: 1

[Editor]
DistanceSpacing: 0.8
BeatDivisor: 4
GridSize: 16
TimelineZoom: 1.5

[Metadata]
Title:Torikago
TitleUnicode:トリカゴ
Artist:XX:me
ArtistUnicode:XX:me
Creator:- Ly0572 -
Version:Ibrahim x Ly0's XX
Source:ダーリン・イン・ザ・フランキス
Tags:Ibrahim Darling in the FranXX ED Ending 1 TV Size 鳥かご キス・ミー Kisu Mi Kiss Me DarliFra Furankusu Birdcage Zero Two Ichigo Miku Kokoro Ikuno Haruka Tomatsu Kana Ichinose Nanami Yamashita Saori Hayami Katsuhiko Sugiyama
BeatmapID:1552249
BeatmapSetID:727784

[Difficulty]
HPDrainRate:8
CircleSize:4
OverallDifficulty:8
ApproachRate:5
SliderMultiplier:1.4
SliderTickRate:1

[Events]
//Background and Video events
0,0,"TRKGbg3.jpg",0,0
Video,500,"DITFvid_ (2).avi"
//Break Periods
//Storyboard Layer 0 (Background)
//Storyboard Layer 1 (Fail)
//Storyboard Layer 2 (Pass)
//Storyboard Layer 3 (Foreground)
//Storyboard Sound Samples

[TimingPoints]
1639,387.096774193548,4,2,1,80,1,0
54284,-100,4,2,1,95,0,1
77509,-100,4,2,1,80,0,0

[HitObjects]
64,192,1058,5,0,0:0:0:70:LR_Tom_Hit.wav
320,192,1058,1,0,0:0:0:0:
64,192,1251,1,0,0:0:0:70:LR_Tom_Hit.wav
448,192,1251,1,0,0:0:0:0:
192,192,1639,1,4,0:0:0:0:
448,192,1639,128,8,2026:0:0:0:0:
64,192,1639,128,2,2413:0:0:0:0:
320,192,1832,128,0,2219:0:0:0:0:
192,192,2026,128,0,2413:0:0:0:0:
448,192,2219,128,0,2413:0:0:0:0:
320,192,2413,128,14,2993:0:0:0:0:
192,192,2800,128,0,2993:0:0:0:0:
64,192,2993,128,4,3768:0:0:0:0:
448,192,2993,128,10,3768:0:0:0:0:
320,192,3380,128,0,3574:0:0:0:0:
192,192,3574,128,0,3768:0:0:0:0:
320,192,3768,128,14,4155:0:0:0:0:
64,192,4155,1,0,0:0:0:70:LR_Tom_Hit.wav
192,192,4155,1,0,0:0:0:0:
448,192,4251,1,0,0:0:0:70:LR_Tom_Hit.wav
320,192,4348,1,0,0:0:0:70:LR_Tom_Hit.wav
64,192,4348,1,0,0:0:0:0:
192,192,4445,1,0,0:0:0:70:LR_Tom_Hit.wav
448,192,4542,1,0,0:0:0:70:LR_Tom_Hit.wav
320,192,4542,1,0,0:0:0:0:
448,192,4735,1,8,0:0:0:0:
192,192,4735,128,4,5509:0:0:0:0:
320,192,4735,128,2,5122:0:0:0:0:
64,192,4929,128,0,5316:0:0:0:0:
448,192,5122,128,0,5509:0:0:0:0:
320,192,5316,128,0,5509:0:0:0:0:
64,192,5509,128,14,6090:0:0:0:0:
448,192,5897,128,0,6090:0:0:0:0:
192,192,6090,1,8,0:0:0:0:
320,192,6090,128,6,6864:0:0:0:0:
64,192,6477,128,0,6864:0:0:0:0:
192,192,6671,128,0,6864:0:0:0:0:
448,192,6864,128,14,7251:0:0:0:0:
320,192,7251,1,8,0:0:0:0:
192,192,7251,1,0,0:0:0:0:
64,192,7251,1,0,0:0:0:0:
64,192,7445,1,8,0:0:0:0:
192,192,7445,1,0,0:0:0:0:
448,192,7445,1,0,0:0:0:0:
448,192,7638,1,0,0:0:0:0:
320,192,7638,1,8,0:0:0:0:
192,192,7735,1,8,0:0:0:0:
320,192,7832,1,4,0:0:0:0:
448,192,7832,1,2,0:0:0:0:
64,192,7832,128,8,8219:0:0:0:0:
192,192,8026,128,0,8413:0:0:0:0:
320,192,8219,128,8,8606:0:0:0:0:
448,192,8219,128,0,8606:0:0:0:0:
64,192,8413,128,0,8800:0:0:0:0:
192,192,8606,128,2,8993:0:0:0:0:
448,192,8800,1,2,0:0:0:0:
448,192,8993,1,8,0:0:0:0:
64,192,8993,1,0,0:0:0:0:
320,192,8993,128,0,9187:0:0:0:0:
64,192,9187,128,4,9574:0:0:0:0:
192,192,9187,1,2,0:0:0:0:
448,192,9187,128,0,9574:0:0:0:0:
320,192,9574,128,2,9768:0:0:0:0:
192,192,9574,1,0,0:0:0:0:
64,192,9768,1,8,0:0:0:0:
192,192,9768,128,0,9961:0:0:0:0:
448,192,9768,1,0,0:0:0:0:
64,192,9961,128,4,10348:0:0:0:0:
320,192,9961,1,2,0:0:0:0:
448,192,9961,128,0,10348:0:0:0:0:
320,192,10348,128,2,10735:0:0:0:0:
192,192,10348,1,0,0:0:0:0:
192,192,10542,128,8,10929:0:0:0:0:
64,192,10542,128,0,10929:0:0:0:0:
448,192,10735,128,2,10929:0:0:0:0:
320,192,10929,128,6,11703:0:0:0:0:
64,192,11316,1,8,0:0:0:0:
192,192,11316,1,4,0:0:0:0:
448,192,11316,1,0,0:0:0:0:
64,192,11703,1,2,0:0:0:0:
192,192,11703,128,0,12090:0:0:0:0:
448,192,11897,1,2,0:0:0:0:
320,192,12090,1,8,0:0:0:0:
448,192,12090,1,0,0:0:0:0:
64,192,12090,128,0,12284:0:0:0:0:
320,192,12284,128,4,12671:0:0:0:0:
192,192,12284,1,2,0:0:0:0:
448,192,12284,1,0,0:0:0:0:
64,192,12671,1,0,0:0:0:0:
192,192,12671,128,2,12864:0:0:0:0:
64,192,12864,1,8,0:0:0:0:
320,192,12864,1,0,0:0:0:0:
448,192,12864,1,0,0:0:0:0:
320,192,13058,1,2,0:0:0:0:
448,192,13058,128,0,14026:0:0:0:0:
64,192,13445,1,8,0:0:0:0:
192,192,13445,1,0,0:0:0:0:
192,192,13638,1,2,0:0:0:0:
320,192,13638,1,0,0:0:0:0:
64,192,13832,1,2,0:0:0:0:
320,192,13832,1,0,0:0:0:0:
320,192,14026,1,4,0:0:0:0:
192,192,14026,1,2,0:0:0:0:
64,192,14026,128,0,14413:0:0:0:0:
448,192,14413,1,0,0:0:0:0:
192,192,14413,1,0,0:0:0:0:
320,192,14606,128,0,15574:0:0:0:0:
64,192,14606,1,0,0:0:0:0:
192,192,14800,1,0,0:0:0:0:
448,192,14800,1,0,0:0:0:0:
64,192,14993,1,0,0:0:0:0:
192,192,15187,1,0,0:0:0:0:
448,192,15187,1,0,0:0:0:0:
64,192,15380,1,0,0:0:0:0:
192,192,15477,1,0,0:0:0:0:
64,192,15574,1,0,0:0:0:0:
448,192,15574,128,0,15961:0:0:0:0:
192,192,15768,1,0,0:0:0:0:
64,192,15961,1,0,0:0:0:0:
320,192,15961,1,0,0:0:0:0:
320,192,16155,128,0,17122:0:0:0:0:
448,192,16155,1,0,0:0:0:0:
192,192,16348,1,0,0:0:0:0:
64,192,16348,1,0,0:0:0:0:
448,192,16542,1,2,0:0:0:0:
448,192,16735,1,0,0:0:0:0:
64,192,16735,1,0,0:0:0:0:
64,192,16929,1,2,0:0:0:0:
192,192,16929,1,0,0:0:0:0:
192,192,17122,128,2,17509:0:0:0:0:
448,192,17122,1,0,0:0:0:0:
64,192,17316,1,0,0:0:0:0:
448,192,17509,1,0,0:0:0:0:
64,192,17509,1,0,0:0:0:0:
320,192,17606,1,0,0:0:0:0:
64,192,17703,128,0,18671:0:0:0:0:
192,192,17703,1,0,0:0:0:0:
320,192,17897,1,0,0:0:0:0:
448,192,17897,1,0,0:0:0:0:
192,192,18090,1,0,0:0:0:0:
320,192,18284,1,0,0:0:0:0:
448,192,18284,1,0,0:0:0:0:
192,192,18477,1,0,0:0:0:0:
320,192,18671,128,2,19058:0:0:0:0:
448,192,18671,1,0,0:0:0:0:
192,192,18864,1,0,0:0:0:0:
64,192,19058,128,0,19251:0:0:0:0:
448,192,19058,1,0,0:0:0:0:
448,192,19251,128,0,19638:0:0:0:0:
192,192,19251,1,0,0:0:0:0:
320,192,19445,1,0,0:0:0:0:
64,192,19445,1,0,0:0:0:0:
64,192,19638,128,2,19832:0:0:0:0:
192,192,19638,1,0,0:0:0:0:
320,192,19832,128,0,20219:0:0:0:0:
448,192,19832,1,0,0:0:0:0:
64,192,20026,1,2,0:0:0:0:
448,192,20026,1,0,0:0:0:0:
192,192,20219,128,2,20606:0:0:0:0:
64,192,20219,1,0,0:0:0:0:
320,192,20413,1,0,0:0:0:0:
448,192,20606,1,0,0:0:0:0:
64,192,20606,1,0,0:0:0:0:
320,192,20800,128,0,21768:0:0:0:0:
192,192,20800,1,0,0:0:0:0:
448,192,20993,1,0,0:0:0:0:
64,192,20993,1,0,0:0:0:0:
192,192,21187,1,0,0:0:0:0:
448,192,21380,1,0,0:0:0:0:
64,192,21380,1,0,0:0:0:0:
192,192,21574,1,0,0:0:0:0:
448,192,21671,1,0,0:0:0:0:
64,192,21768,128,2,22155:0:0:0:0:
192,192,21768,1,0,0:0:0:0:
320,192,21961,1,0,0:0:0:0:
192,192,22155,1,0,0:0:0:0:
448,192,22155,1,0,0:0:0:0:
448,192,22348,128,0,23316:0:0:0:0:
320,192,22348,1,0,0:0:0:0:
192,192,22542,1,0,0:0:0:0:
64,192,22542,1,0,0:0:0:0:
320,192,22735,1,2,0:0:0:0:
64,192,22735,1,0,0:0:0:0:
192,192,22929,1,0,0:0:0:0:
64,192,22929,1,0,0:0:0:0:
320,192,23122,1,2,0:0:0:0:
192,192,23122,1,0,0:0:0:0:
320,192,23316,1,2,0:0:0:0:
64,192,23316,128,0,23703:0:0:0:0:
192,192,23509,1,0,0:0:0:0:
448,192,23703,1,0,0:0:0:0:
192,192,23703,1,0,0:0:0:0:
320,192,23800,1,0,0:0:0:0:
448,192,23897,128,2,24864:0:0:0:0:
64,192,23897,1,0,0:0:0:0:
192,192,24090,1,0,0:0:0:0:
320,192,24090,1,0,0:0:0:0:
64,192,24284,1,0,0:0:0:0:
192,192,24477,1,0,0:0:0:0:
320,192,24477,1,0,0:0:0:0:
64,192,24671,1,0,0:0:0:0:
64,192,24864,128,4,25445:0:0:0:0:
320,192,24864,1,8,0:0:0:0:
192,192,24864,1,0,0:0:0:0:
448,192,25058,128,0,25445:0:0:0:0:
320,192,25251,128,0,25445:0:0:0:0:
192,192,25445,128,0,25832:0:0:0:70:LR_Tom_Hit.wav
64,192,25832,128,8,26413:0:0:0:0:
448,192,25832,1,0,0:0:0:0:
320,192,25832,1,0,0:0:0:0:
320,192,26026,1,8,0:0:0:0:
192,192,26026,1,0,0:0:0:0:
448,192,26219,1,8,0:0:0:0:
192,192,26219,1,0,0:0:0:0:
448,192,26413,128,2,27961:0:0:0:0:
320,192,26413,1,4,0:0:0:0:
192,192,26413,1,0,0:0:0:0:
64,192,26800,1,0,0:0:0:0:
192,192,26800,1,8,0:0:0:0:
320,192,26993,128,2,27380:0:0:0:0:
64,192,27187,1,0,0:0:0:0:
192,192,27380,1,2,0:0:0:0:
64,192,27380,1,0,0:0:0:0:
320,192,27574,1,8,0:0:0:0:
192,192,27574,1,0,0:0:0:0:
320,192,27768,1,0,0:0:0:0:
192,192,27961,128,2,29509:0:0:0:0:
64,192,27961,1,0,0:0:0:0:
320,192,28155,1,0,0:0:0:0:
448,192,28348,1,8,0:0:0:0:
320,192,28348,1,0,0:0:0:0:
64,192,28542,128,2,28929:0:0:0:0:
448,192,28735,1,0,0:0:0:0:
320,192,28929,1,2,0:0:0:0:
448,192,28929,1,0,0:0:0:0:
320,192,29122,1,8,0:0:0:0:
64,192,29122,1,0,0:0:0:0:
448,192,29316,1,2,0:0:0:0:
64,192,29316,1,0,0:0:0:0:
320,192,29509,128,2,31058:0:0:0:0:
448,192,29509,1,0,0:0:0:0:
64,192,29703,1,0,0:0:0:0:
448,192,29897,1,8,0:0:0:0:
192,192,29897,1,0,0:0:0:0:
64,192,30090,128,2,30477:0:0:0:0:
448,192,30284,1,0,0:0:0:0:
192,192,30477,1,2,0:0:0:0:
448,192,30477,1,0,0:0:0:0:
192,192,30671,1,8,0:0:0:0:
64,192,30671,1,0,0:0:0:0:
64,192,30864,1,0,0:0:0:0:
192,192,31058,1,2,0:0:0:0:
448,192,31058,128,0,31445:0:0:0:0:
192,192,31251,1,0,0:0:0:0:
64,192,31445,1,8,0:0:0:0:
320,192,31445,128,0,31638:0:0:0:0:
192,192,31638,128,2,32026:0:0:0:0:
64,192,31638,1,0,0:0:0:0:
448,192,31832,1,0,0:0:0:0:
64,192,32026,128,2,32219:0:0:0:0:
448,192,32026,1,0,0:0:0:0:
448,192,32219,128,8,32606:0:0:0:0:
320,192,32219,1,0,0:0:0:0:
64,192,32413,1,2,0:0:0:0:
320,192,32413,1,0,0:0:0:0:
64,192,32606,128,0,34155:0:0:0:0:
192,192,32606,1,2,0:0:0:0:
192,192,32800,1,0,0:0:0:0:
320,192,32993,1,8,0:0:0:0:
448,192,32993,1,0,0:0:0:0:
192,192,33187,128,2,33574:0:0:0:0:
448,192,33380,1,0,0:0:0:0:
320,192,33574,1,2,0:0:0:0:
448,192,33574,1,0,0:0:0:0:
320,192,33768,1,8,0:0:0:0:
192,192,33768,1,0,0:0:0:0:
192,192,33961,1,0,0:0:0:0:
448,192,34155,1,2,0:0:0:0:
320,192,34155,128,0,34735:0:0:0:0:
192,192,34348,1,0,0:0:0:0:
64,192,34542,1,8,0:0:0:0:
448,192,34542,1,0,0:0:0:0:
192,192,34735,128,2,35703:0:0:0:0:
64,192,34735,1,0,0:0:0:0:
448,192,34929,1,0,0:0:0:0:
448,192,35122,1,2,0:0:0:0:
320,192,35122,1,0,0:0:0:0:
64,192,35316,1,8,0:0:0:0:
320,192,35316,1,0,0:0:0:0:
64,192,35509,1,2,0:0:0:0:
448,192,35509,1,0,0:0:0:0:
320,192,35703,1,2,0:0:0:0:
448,192,35703,128,4,36284:0:0:0:0:
64,192,35703,1,0,0:0:0:0:
320,192,36090,1,8,0:0:0:0:
64,192,36090,1,0,0:0:0:0:
320,192,36284,128,2,37251:0:0:0:0:
192,192,36284,1,4,0:0:0:0:
64,192,36284,1,0,0:0:0:0:
192,192,36671,1,2,0:0:0:0:
448,192,36671,1,0,0:0:0:0:
448,192,36864,128,8,37058:0:0:0:0:
64,192,36864,1,0,0:0:0:0:
64,192,37058,128,2,37251:0:0:0:0:
448,192,37251,1,2,0:0:0:0:
192,192,37251,128,4,37348:0:0:0:0:
320,192,37445,128,0,37542:0:0:0:0:
64,192,37638,128,0,37735:0:0:0:0:
448,192,37832,128,0,37929:0:0:0:0:
64,192,38219,1,2,0:0:0:0:
192,192,38219,1,0,0:0:0:0:
448,192,38413,1,2,0:0:0:0:
320,192,38413,1,0,0:0:0:0:
64,192,38606,1,4,0:0:0:0:
448,192,38606,1,0,0:0:0:0:
192,192,38606,128,8,38993:0:0:0:0:
448,192,38993,1,2,0:0:0:0:
320,192,38993,1,0,0:0:0:0:
320,192,39187,1,8,0:0:0:0:
64,192,39187,1,0,0:0:0:0:
448,192,39187,128,4,39574:0:0:0:0:
192,192,39574,1,2,0:0:0:0:
64,192,39574,1,0,0:0:0:0:
320,192,39671,1,0,0:0:0:70:LR_Tom_Hit.wav
448,192,39768,1,0,0:0:0:70:LR_Tom_Hit.wav
64,192,39768,1,0,0:0:0:0:
192,192,39864,1,0,0:0:0:70:LR_Tom_Hit.wav
64,192,39961,1,8,0:0:0:0:
448,192,39961,1,0,0:0:0:0:
320,192,39961,1,0,0:0:0:0:
64,192,40155,1,4,0:0:0:0:
192,192,40155,1,0,0:0:0:0:
320,192,40155,128,2,40542:0:0:0:0:
448,192,40542,1,2,0:0:0:0:
64,192,40542,1,0,0:0:0:0:
320,192,40735,1,8,0:0:0:0:
192,192,40735,1,0,0:0:0:0:
448,192,40735,1,0,0:0:0:0:
64,192,40929,1,0,0:0:0:70:LR_Tom_Hit.wav
192,192,41026,1,0,0:0:0:70:LR_Tom_Hit.wav
320,192,41122,1,2,0:0:0:0:
448,192,41122,1,0,0:0:0:0:
320,192,41316,1,2,0:0:0:0:
64,192,41316,1,0,0:0:0:0:
64,192,41509,1,8,0:0:0:0:
192,192,41509,1,0,0:0:0:0:
448,192,41509,1,0,0:0:0:0:
320,192,41703,1,0,0:0:0:0:
64,192,41703,128,2,42090:0:0:0:0:
192,192,42090,1,2,0:0:0:0:
320,192,42090,1,0,0:0:0:0:
448,192,42284,1,8,0:0:0:0:
320,192,42284,1,0,0:0:0:0:
64,192,42284,1,0,0:0:0:0:
192,192,42477,1,0,0:0:0:70:LR_Tom_Hit.wav
320,192,42574,1,0,0:0:0:70:LR_Tom_Hit.wav
448,192,42671,1,2,0:0:0:0:
64,192,42671,1,0,0:0:0:0:
192,192,42864,1,2,0:0:0:0:
320,192,42864,1,0,0:0:0:0:
64,192,43058,1,8,0:0:0:0:
320,192,43058,1,0,0:0:0:0:
448,192,43058,1,0,0:0:0:0:
64,192,43251,1,0,0:0:0:0:
192,192,43251,128,2,43638:0:0:0:0:
448,192,43638,1,2,0:0:0:0:
320,192,43638,1,0,0:0:0:0:
448,192,43832,1,8,0:0:0:0:
192,192,43832,1,0,0:0:0:0:
64,192,43832,1,0,0:0:0:0:
320,192,44026,1,0,0:0:0:70:LR_Tom_Hit.wav
192,192,44122,1,0,0:0:0:70:LR_Tom_Hit.wav
64,192,44219,1,2,0:0:0:0:
448,192,44219,1,0,0:0:0:0:
320,192,44413,1,2,0:0:0:0:
192,192,44413,1,0,0:0:0:0:
448,192,44606,1,8,0:0:0:0:
192,192,44606,1,0,0:0:0:0:
64,192,44606,1,0,0:0:0:0:
64,192,44800,1,2,0:0:0:0:
448,192,44800,1,0,0:0:0:0:
320,192,44800,128,4,45187:0:0:0:0:
192,192,45187,1,2,0:0:0:0:
64,192,45187,1,0,0:0:0:0:
64,192,45380,1,8,0:0:0:0:
320,192,45380,1,0,0:0:0:0:
448,192,45380,1,0,0:0:0:0:
192,192,45574,1,0,0:0:0:0:
320,192,45768,1,2,0:0:0:0:
448,192,45768,1,0,0:0:0:0:
192,192,45961,1,2,0:0:0:0:
64,192,45961,1,0,0:0:0:0:
448,192,46155,1,8,0:0:0:0:
320,192,46155,1,0,0:0:0:0:
64,192,46155,1,0,0:0:0:0:
64,192,46348,1,4,0:0:0:0:
192,192,46348,1,2,0:0:0:0:
448,192,46348,128,0,46735:0:0:0:0:
320,192,46735,1,2,0:0:0:0:
192,192,46735,1,0,0:0:0:0:
448,192,46929,1,8,0:0:0:0:
192,192,46929,1,0,0:0:0:0:
64,192,46929,1,0,0:0:0:0:
320,192,47122,1,0,0:0:0:0:
64,192,47316,1,2,0:0:0:0:
192,192,47316,1,0,0:0:0:0:
320,192,47509,1,2,0:0:0:0:
448,192,47509,1,0,0:0:0:0:
64,192,47703,1,8,0:0:0:0:
192,192,47703,1,0,0:0:0:0:
448,192,47703,1,0,0:0:0:0:
320,192,47897,1,0,0:0:0:0:
448,192,48090,1,4,0:0:0:0:
192,192,48090,1,2,0:0:0:0:
64,192,48090,128,0,48477:0:0:0:0:
448,192,48477,1,8,0:0:0:0:
192,192,48477,1,0,0:0:0:0:
320,192,48477,1,0,0:0:0:0:
448,192,48864,1,2,0:0:0:0:
320,192,48864,1,0,0:0:0:0:
320,192,49058,1,2,0:0:0:0:
448,192,49058,1,0,0:0:0:0:
64,192,49251,1,8,0:0:0:0:
192,192,49251,1,0,0:0:0:0:
448,192,49251,1,0,0:0:0:0:
320,192,49445,1,0,0:0:0:0:
64,192,49638,1,2,0:0:0:0:
448,192,49638,1,0,0:0:0:0:
192,192,49832,1,0,0:0:0:0:
448,192,50026,1,8,0:0:0:0:
64,192,50026,1,0,0:0:0:0:
192,192,50026,1,0,0:0:0:0:
320,192,50219,1,0,0:0:0:0:
192,192,50413,1,2,0:0:0:0:
64,192,50413,1,0,0:0:0:0:
320,192,50509,1,8,0:0:0:0:
448,192,50509,1,0,0:0:0:0:
64,192,50606,1,2,0:0:0:0:
192,192,50606,1,0,0:0:0:0:
448,192,50800,1,8,0:0:0:0:
320,192,50800,1,0,0:0:0:0:
64,192,50800,1,0,0:0:0:0:
192,192,50993,1,2,0:0:0:0:
64,192,51187,1,4,0:0:0:0:
448,192,51187,1,8,0:0:0:0:
192,192,51187,1,0,0:0:0:0:
320,192,51380,1,2,0:0:0:0:
192,192,51574,1,8,0:0:0:0:
448,192,51574,1,0,0:0:0:0:
320,192,51574,1,0,0:0:0:0:
64,192,51768,1,2,0:0:0:0:
64,192,51961,1,8,0:0:0:0:
192,192,51961,1,0,0:0:0:0:
448,192,51961,1,0,0:0:0:0:
320,192,52155,1,2,0:0:0:0:
448,192,52348,1,8,0:0:0:0:
320,192,52348,1,0,0:0:0:0:
64,192,52348,1,0,0:0:0:0:
192,192,52542,1,2,0:0:0:0:
192,192,52735,1,8,0:0:0:0:
64,192,52735,1,0,0:0:0:0:
448,192,52735,128,4,53122:0:0:0:0:
320,192,53122,1,0,0:0:0:0:
64,192,53122,1,8,0:0:0:0:
192,192,53219,1,8,0:0:0:0:
320,192,53316,1,8,0:0:0:0:
448,192,53413,1,8,0:0:0:0:
192,192,53509,1,8,0:0:0:0:
64,192,53509,1,0,0:0:0:0:
320,192,53606,1,8,0:0:0:0:
448,192,53606,1,0,0:0:0:0:
192,192,53703,1,8,0:0:0:0:
64,192,53703,1,0,0:0:0:0:
320,192,53800,1,8,0:0:0:0:
448,192,53800,1,0,0:0:0:0:
192,192,53897,1,8,0:0:0:0:
64,192,53897,1,0,0:0:0:0:
448,192,53993,1,0,0:0:0:70:LR_Tom_Hit.wav
320,192,54090,1,0,0:0:0:70:LR_Tom_Hit.wav
192,192,54187,1,0,0:0:0:70:LR_Tom_Hit.wav
320,192,54284,1,4,0:0:0:0:
448,192,54284,1,2,0:0:0:0:
64,192,54284,128,0,55058:0:0:0:0:
192,192,54671,1,8,0:0:0:0:
320,192,54671,1,0,0:0:0:0:
448,192,54864,1,0,0:0:0:0:
320,192,54864,1,2,0:0:0:0:
448,192,55058,128,2,55638:0:0:0:0:
192,192,55058,1,0,0:0:0:0:
64,192,55445,1,8,0:0:0:0:
320,192,55445,1,0,0:0:0:0:
192,192,55638,128,2,56026:0:0:0:0:
320,192,55638,1,0,0:0:0:0:
64,192,56026,1,2,0:0:0:0:
448,192,56026,1,0,0:0:0:0:
320,192,56219,1,8,0:0:0:0:
192,192,56219,1,0,0:0:0:0:
64,192,56219,1,0,0:0:0:0:
448,192,56413,128,0,56993:0:0:0:0:
320,192,56413,1,0,0:0:0:0:
192,192,56606,1,2,0:0:0:0:
64,192,56606,1,0,0:0:0:0:
320,192,56800,1,2,0:0:0:0:
192,192,56800,1,0,0:0:0:0:
64,192,56993,128,8,57380:0:0:0:0:
320,192,56993,1,0,0:0:0:0:
192,192,56993,1,0,0:0:0:0:
448,192,57187,1,0,0:0:0:0:
320,192,57380,128,4,58155:0:0:0:0:
448,192,57380,1,2,0:0:0:0:
192,192,57380,1,0,0:0:0:0:
64,192,57768,1,8,0:0:0:0:
448,192,57768,1,0,0:0:0:0:
192,192,57961,1,2,0:0:0:0:
448,192,57961,1,0,0:0:0:0:
192,192,58155,1,2,0:0:0:0:
64,192,58155,128,0,58542:0:0:0:0:
448,192,58542,1,8,0:0:0:0:
320,192,58542,1,0,0:0:0:0:
192,192,58542,1,0,0:0:0:0:
448,192,58735,128,2,59122:0:0:0:0:
64,192,58735,1,0,0:0:0:0:
320,192,59122,128,2,59509:0:0:0:0:
192,192,59122,1,0,0:0:0:0:
64,192,59316,1,8,0:0:0:0:
448,192,59316,1,0,0:0:0:0:
64,192,59509,128,0,59897:0:0:0:0:
192,192,59509,1,0,0:0:0:0:
448,192,59703,1,2,0:0:0:0:
320,192,59800,1,8,0:0:0:0:
192,192,59800,1,0,0:0:0:0:
448,192,59897,1,2,0:0:0:0:
320,192,60090,1,8,0:0:0:0:
448,192,60090,1,0,0:0:0:0:
64,192,60090,1,0,0:0:0:0:
64,192,60284,1,8,0:0:0:0:
192,192,60284,1,0,0:0:0:0:
320,192,60380,1,8,0:0:0:0:
192,192,60477,1,4,0:0:0:0:
64,192,60477,1,2,0:0:0:0:
448,192,60477,128,0,61251:0:0:0:0:
320,192,60864,1,8,0:0:0:0:
64,192,60864,1,0,0:0:0:0:
192,192,61058,1,2,0:0:0:0:
64,192,61058,1,0,0:0:0:0:
320,192,61251,128,2,61638:0:0:0:0:
192,192,61251,1,0,0:0:0:0:
64,192,61638,1,8,0:0:0:0:
448,192,61638,1,0,0:0:0:0:
192,192,61832,128,4,62219:0:0:0:0:
320,192,61832,1,2,0:0:0:0:
448,192,61832,1,0,0:0:0:0:
64,192,62219,1,2,0:0:0:0:
320,192,62219,1,0,0:0:0:0:
320,192,62413,1,8,0:0:0:0:
448,192,62413,1,0,0:0:0:0:
448,192,62606,128,2,62993:0:0:0:0:
64,192,62606,1,0,0:0:0:0:
192,192,62606,1,4,0:0:0:0:
320,192,62993,1,2,0:0:0:0:
192,192,62993,1,0,0:0:0:0:
64,192,63187,1,8,0:0:0:0:
192,192,63187,1,0,0:0:0:0:
448,192,63187,1,0,0:0:0:0:
320,192,63380,1,0,0:0:0:0:
448,192,63380,1,0,0:0:0:0:
320,192,63574,1,2,0:0:0:0:
64,192,63574,1,4,0:0:0:0:
192,192,63574,128,0,63961:0:0:0:0:
320,192,63961,1,8,0:0:0:0:
448,192,63961,1,0,0:0:0:0:
192,192,64155,1,4,0:0:0:0:
448,192,64155,1,2,0:0:0:0:
64,192,64155,128,0,64542:0:0:0:0:
192,192,64542,1,2,0:0:0:0:
320,192,64542,1,0,0:0:0:0:
448,192,64735,1,8,0:0:0:0:
320,192,64735,1,0,0:0:0:0:
64,192,64735,1,0,0:0:0:0:
192,192,64929,1,0,0:0:0:0:
64,192,64929,1,0,0:0:0:0:
192,192,65122,1,2,0:0:0:0:
448,192,65122,128,0,65509:0:0:0:0:
320,192,65122,1,4,0:0:0:0:
320,192,65509,1,8,0:0:0:0:
64,192,65509,1,0,0:0:0:0:
192,192,65606,1,0,0:0:0:70:LR_Tom_Hit.wav
448,192,65703,1,4,0:0:0:0:
320,192,65703,1,8,0:0:0:0:
64,192,65703,1,0,0:0:0:0:
192,192,65993,1,8,0:0:0:0:
64,192,65993,1,0,0:0:0:0:
320,192,66090,1,2,0:0:0:0:
448,192,66090,1,0,0:0:0:0:
192,192,66187,1,0,0:0:0:0:
64,192,66187,1,0,0:0:0:70:LR_Tom_Hit.wav
448,192,66284,1,8,0:0:0:0:
320,192,66284,1,0,0:0:0:0:
64,192,66380,1,0,0:0:0:70:LR_Tom_Hit.wav
192,192,66477,1,2,0:0:0:0:
320,192,66574,1,0,0:0:0:70:LR_Tom_Hit.wav
448,192,66671,128,4,67445:0:0:0:0:
64,192,66671,1,2,0:0:0:0:
192,192,66671,1,0,0:0:0:0:
64,192,67058,1,8,0:0:0:0:
320,192,67058,1,0,0:0:0:0:
320,192,67251,1,2,0:0:0:0:
192,192,67251,1,0,0:0:0:0:
192,192,67445,1,2,0:0:0:0:
64,192,67445,128,0,68026:0:0:0:0:
320,192,67832,1,8,0:0:0:0:
448,192,67832,1,0,0:0:0:0:
192,192,68026,1,2,0:0:0:0:
320,192,68026,128,0,68413:0:0:0:0:
64,192,68413,1,2,0:0:0:0:
448,192,68413,1,0,0:0:0:0:
448,192,68606,1,8,0:0:0:0:
320,192,68606,1,0,0:0:0:0:
192,192,68606,1,0,0:0:0:0:
192,192,68800,1,0,0:0:0:0:
64,192,68800,128,0,69380:0:0:0:0:
448,192,68993,1,2,0:0:0:0:
320,192,68993,1,0,0:0:0:0:
320,192,69187,1,2,0:0:0:0:
192,192,69187,1,0,0:0:0:0:
320,192,69380,1,8,0:0:0:0:
192,192,69380,1,0,0:0:0:0:
448,192,69380,128,0,69768:0:0:0:0:
64,192,69574,1,0,0:0:0:0:
320,192,69768,1,4,0:0:0:0:
64,192,69768,1,2,0:0:0:0:
192,192,69768,128,0,70542:0:0:0:0:
64,192,70155,1,8,0:0:0:0:
320,192,70155,1,0,0:0:0:0:
448,192,70348,1,2,0:0:0:0:
320,192,70348,1,0,0:0:0:0:
448,192,70542,1,0,0:0:0:0:
64,192,70542,128,2,70929:0:0:0:0:
320,192,70929,1,8,0:0:0:0:
192,192,70929,1,0,0:0:0:0:
448,192,70929,1,0,0:0:0:0:
64,192,71122,1,2,0:0:0:0:
192,192,71122,128,4,71509:0:0:0:0:
448,192,71122,1,0,0:0:0:0:
448,192,71509,1,2,0:0:0:0:
320,192,71509,128,0,71897:0:0:0:0:
64,192,71703,1,8,0:0:0:0:
192,192,71703,1,0,0:0:0:0:
64,192,71897,1,0,0:0:0:0:
448,192,71897,128,0,72284:0:0:0:0:
192,192,72090,1,2,0:0:0:0:
320,192,72187,1,8,0:0:0:0:
192,192,72284,1,2,0:0:0:0:
64,192,72284,1,0,0:0:0:0:
64,192,72477,1,8,0:0:0:0:
192,192,72477,1,0,0:0:0:0:
320,192,72477,1,0,0:0:0:0:
320,192,72671,1,8,0:0:0:0:
448,192,72671,1,0,0:0:0:0:
192,192,72768,1,8,0:0:0:0:
64,192,72864,128,4,73638:0:0:0:0:
448,192,72864,1,2,0:0:0:0:
320,192,72864,1,0,0:0:0:0:
448,192,73251,1,8,0:0:0:0:
192,192,73251,1,0,0:0:0:0:
448,192,73445,1,2,0:0:0:0:
320,192,73445,1,0,0:0:0:0:
320,192,73638,1,2,0:0:0:0:
192,192,73638,128,0,74026:0:0:0:0:
64,192,74026,1,8,0:0:0:0:
448,192,74026,1,0,0:0:0:0:
64,192,74219,1,4,0:0:0:0:
192,192,74219,1,2,0:0:0:0:
320,192,74219,128,0,74606:0:0:0:0:
192,192,74606,1,2,0:0:0:0:
448,192,74606,1,0,0:0:0:0:
64,192,74800,1,8,0:0:0:0:
320,192,74800,1,0,0:0:0:0:
448,192,74993,1,4,0:0:0:0:
64,192,74993,128,2,75380:0:0:0:0:
192,192,74993,1,0,0:0:0:0:
320,192,75380,1,2,0:0:0:0:
192,192,75380,1,0,0:0:0:0:
64,192,75574,1,2,0:0:0:0:
320,192,75574,1,0,0:0:0:0:
448,192,75574,1,0,0:0:0:0:
192,192,75768,1,0,0:0:0:0:
448,192,75961,1,4,0:0:0:0:
64,192,75961,1,8,0:0:0:0:
320,192,75961,128,0,76155:0:0:0:0:
192,192,76155,128,0,76348:0:0:0:0:
64,192,76348,128,8,76542:0:0:0:0:
448,192,76348,1,0,0:0:0:0:
320,192,76348,1,0,0:0:0:0:
448,192,76542,128,4,76929:0:0:0:0:
320,192,76542,1,2,0:0:0:0:
192,192,76542,1,0,0:0:0:0:
192,192,76929,1,8,0:0:0:0:
320,192,76929,1,0,0:0:0:0:
64,192,77026,1,0,0:0:0:70:LR_Tom_Hit.wav
448,192,77122,1,2,0:0:0:0:
320,192,77122,1,0,0:0:0:0:
192,192,77219,1,2,0:0:0:0:
64,192,77316,1,0,0:0:0:0:
320,192,77316,1,2,0:0:0:0:
64,192,77509,128,4,77897:0:0:0:0:
448,192,77509,1,8,0:0:0:0:
192,192,77509,1,0,0:0:0:0:
448,192,77897,1,8,0:0:0:0:
192,192,77897,1,0,0:0:0:0:
320,192,77993,1,0,0:0:0:0:
64,192,78090,1,4,0:0:0:0:
192,192,78090,1,2,0:0:0:0:
448,192,78090,1,0,0:0:0:0:
64,192,78380,1,0,0:0:0:0:
320,192,78380,1,8,0:0:0:0:
192,192,78477,1,0,0:0:0:70:LR_Tom_Hit.wav
448,192,78477,1,0,0:0:0:0:
320,192,78574,1,0,0:0:0:70:LR_Tom_Hit.wav
64,192,78574,1,0,0:0:0:0:
192,192,78671,1,2,0:0:0:0:
320,192,78768,1,0,0:0:0:70:LR_Tom_Hit.wav
448,192,78768,1,0,0:0:0:0:
192,192,78864,1,2,0:0:0:0:
64,192,78864,1,0,0:0:0:0:
64,192,79058,1,4,0:0:0:0:
320,192,79058,1,8,0:0:0:0:
448,192,79058,1,0,0:0:0:0:
192,192,79251,1,0,0:0:0:70:LR_Tom_Hit.wav
320,192,79445,1,2,0:0:0:0:
448,192,79445,1,0,0:0:0:0:
320,192,79638,1,0,0:0:0:70:LR_Tom_Hit.wav
448,192,79638,128,0,79832:0:0:0:0:
192,192,79735,1,0,0:0:0:70:LR_Tom_Hit.wav
64,192,79832,1,0,0:0:0:70:LR_Tom_Hit.wav
320,192,79832,1,0,0:0:0:0:
64,192,80026,128,2,80219:0:0:0:0:
192,192,80026,1,0,0:0:0:0:
448,192,80219,1,8,0:0:0:0:
320,192,80219,1,0,0:0:0:0:
192,192,80413,1,0,0:0:0:70:LR_Tom_Hit.wav
448,192,80413,128,0,80800:0:0:0:0:
320,192,80509,1,0,0:0:0:70:LR_Tom_Hit.wav
192,192,80606,1,0,0:0:0:70:LR_Tom_Hit.wav
64,192,80606,1,0,0:0:0:0:
64,192,80800,128,2,80993:0:0:0:0:
320,192,80800,1,0,0:0:0:0:
448,192,80993,1,2,0:0:0:0:
192,192,80993,128,0,81187:0:0:0:0:
64,192,81187,1,0,0:0:0:70:LR_Tom_Hit.wav
320,192,81187,128,0,81574:0:0:0:0:
448,192,81284,1,0,0:0:0:70:LR_Tom_Hit.wav
64,192,81380,1,0,0:0:0:70:LR_Tom_Hit.wav
192,192,81380,1,0,0:0:0:0:
448,192,81574,1,2,0:0:0:0:
64,192,81574,128,0,81768:0:0:0:0:
192,192,81768,128,2,81961:0:0:0:0:
320,192,81768,1,0,0:0:0:0:
64,192,81961,1,0,0:0:0:70:LR_Tom_Hit.wav
448,192,81961,1,0,0:0:0:0:
320,192,82058,1,0,0:0:0:70:LR_Tom_Hit.wav
64,192,82155,1,0,0:0:0:70:LR_Tom_Hit.wav
192,192,82155,128,0,82542:0:0:0:0:
320,192,82348,1,2,0:0:0:0:
448,192,82348,1,0,0:0:0:0:
64,192,82542,128,2,82735:0:0:0:0:
448,192,82542,1,0,0:0:0:0:
320,192,82735,128,2,82929:0:0:0:0:
192,192,82735,1,0,0:0:0:0:
64,192,82929,1,2,0:0:0:0:
448,192,82929,1,0,0:0:0:0:
192,192,83122,1,0,0:0:0:70:LR_Tom_Hit.wav
448,192,83122,128,0,83509:0:0:0:0:
320,192,83219,1,0,0:0:0:70:LR_Tom_Hit.wav
192,192,83316,1,0,0:0:0:70:LR_Tom_Hit.wav
64,192,83316,1,0,0:0:0:0:
192,192,83509,1,2,0:0:0:0:
64,192,83509,1,0,0:0:0:0:
320,192,83606,1,0,0:0:0:0:
448,192,83703,1,8,0:0:0:0:
192,192,83703,1,0,0:0:0:0:
64,192,83703,1,0,0:0:0:0:
320,192,83897,1,8,0:0:0:0:
64,192,83897,1,0,0:0:0:0:
448,192,83897,1,0,0:0:0:0:
64,192,84090,1,8,0:0:0:0:
192,192,84090,1,0,0:0:0:0:
320,192,84090,1,0,0:0:0:0:
448,192,84284,1,8,0:0:0:0:
320,192,84284,1,0,0:0:0:0:
192,192,84284,1,0,0:0:0:0:
64,192,84477,1,8,0:0:0:0:
192,192,84477,1,0,0:0:0:0:
320,192,84574,1,8,0:0:0:0:
448,192,84574,1,0,0:0:0:0:
192,192,84671,1,8,0:0:0:0:
64,192,84671,1,0,0:0:0:0:
448,192,84768,1,8,0:0:0:0:
320,192,84768,1,0,0:0:0:0:
64,192,84864,1,8,0:0:0:0:
192,192,84864,1,2,0:0:0:0:
320,192,84961,1,2,0:0:0:0:
64,192,85058,1,2,0:0:0:0:
448,192,85058,1,0,0:0:0:0:
320,192,85155,1,2,0:0:0:0:
192,192,85251,1,8,0:0:0:0:
64,192,85251,128,4,85638:0:0:0:0:
448,192,85251,128,0,86026:0:0:0:0:
192,192,85445,128,0,85832:0:0:0:0:
320,192,85638,128,8,86026:0:0:0:0:
64,192,85832,128,0,86026:0:0:0:0:
192,192,86026,128,2,86606:0:0:0:0:
448,192,86219,1,2,0:0:0:0:
320,192,86219,1,0,0:0:0:0:
320,192,86413,128,8,86606:0:0:0:0:
64,192,86413,1,0,0:0:0:0:
448,192,86606,128,2,87380:0:0:0:0:
64,192,86606,128,0,87380:0:0:0:0:
192,192,86993,128,2,87187:0:0:0:0:
320,192,87187,128,8,87380:0:0:0:0:
192,192,87380,128,6,87768:0:0:0:0:
448,192,87768,128,2,87961:0:0:0:0:
64,192,87768,1,0,0:0:0:0:
320,192,87961,1,8,0:0:0:0:
64,192,87961,128,0,88155:0:0:0:0:
192,192,87961,1,0,0:0:0:0:
320,192,88155,1,0,0:0:0:0:
448,192,88155,128,0,88348:0:0:0:0:
64,192,88348,1,4,0:0:0:0:
320,192,88348,128,2,89122:0:0:0:0:
192,192,88348,128,0,88735:0:0:0:0:
448,192,88542,128,0,88929:0:0:0:0:
64,192,88735,128,8,89122:0:0:0:0:
192,192,88929,128,0,89122:0:0:0:0:
448,192,89122,128,2,89703:0:0:0:0:
192,192,89316,1,2,0:0:0:0:
64,192,89316,1,0,0:0:0:0:
64,192,89509,128,8,89703:0:0:0:0:
320,192,89509,1,0,0:0:0:0:
192,192,89703,128,4,90477:0:0:0:0:
320,192,89703,128,2,90477:0:0:0:0:
448,192,90090,128,2,90284:0:0:0:0:
64,192,90284,128,8,90477:0:0:0:0:
448,192,90477,128,6,90864:0:0:0:0:
192,192,90864,1,2,0:0:0:0:
64,192,90864,1,0,0:0:0:0:
448,192,91058,1,8,0:0:0:0:
320,192,91058,1,0,0:0:0:0:
192,192,91155,1,8,0:0:0:0:
64,192,91155,1,0,0:0:0:0:
448,192,91251,1,8,0:0:0:0:
320,192,91251,1,0,0:0:0:0:
64,192,91445,1,4,0:0:0:0:
448,192,91445,128,2,91832:0:0:0:0:
192,192,91445,1,0,0:0:0:0:
320,192,91638,128,0,92026:0:0:0:0:
192,192,91832,128,8,92219:0:0:0:0:
64,192,91832,128,0,92219:0:0:0:0:
448,192,92026,128,0,92413:0:0:0:0:
320,192,92219,128,2,92606:0:0:0:0:
64,192,92413,1,2,0:0:0:0:
64,192,92606,1,8,0:0:0:0:
448,192,92606,1,0,0:0:0:0:
192,192,92606,128,0,92800:0:0:0:0:
448,192,92800,128,2,93187:0:0:0:0:
320,192,92800,1,4,0:0:0:0:
64,192,92800,128,0,93187:0:0:0:0:
192,192,93187,128,2,93380:0:0:0:0:
320,192,93187,1,0,0:0:0:0:
448,192,93380,1,8,0:0:0:0:
320,192,93380,128,0,93574:0:0:0:0:
64,192,93380,1,0,0:0:0:0:
448,192,93574,128,2,93961:0:0:0:0:
192,192,93574,1,4,0:0:0:0:
64,192,93574,128,0,93961:0:0:0:0:
192,192,93961,128,2,94348:0:0:0:0:
320,192,93961,1,0,0:0:0:0:
320,192,94155,128,8,94542:0:0:0:0:
448,192,94155,128,0,94542:0:0:0:0:
64,192,94348,128,2,94542:0:0:0:0:
192,192,94542,128,6,95316:0:0:0:0:
448,192,94929,1,8,0:0:0:0:
64,192,94929,1,0,0:0:0:0:
320,192,94929,1,4,0:0:0:0:
64,192,95316,1,2,0:0:0:0:
320,192,95316,128,0,95703:0:0:0:0:
448,192,95509,1,2,0:0:0:0:
192,192,95703,1,8,0:0:0:0:
64,192,95703,1,0,0:0:0:0:
448,192,95703,128,0,95897:0:0:0:0:
192,192,95897,128,2,96284:0:0:0:0:
320,192,95897,1,4,0:0:0:0:
64,192,95897,1,0,0:0:0:0:
448,192,96284,1,2,0:0:0:0:
320,192,96284,128,0,96477:0:0:0:0:
64,192,96477,1,8,0:0:0:0:
192,192,96477,1,0,0:0:0:0:
320,192,96671,1,2,0:0:0:0:
192,192,96671,128,4,96864:0:0:0:0:
448,192,96671,1,0,0:0:0:0:
448,192,97058,1,2,0:0:0:0:
64,192,97058,128,0,97251:0:0:0:0:
192,192,97251,1,8,0:0:0:0:
320,192,97251,1,0,0:0:0:0:
448,192,97445,128,2,102671:0:0:0:0:
64,192,97445,128,4,102671:0:0:0:0:
192,192,97445,128,0,102671:0:0:0:0:
