osu file format v14

[General]
AudioFilename: audio.mp3
AudioLeadIn: 0
PreviewTime: 53606
Countdown: 0
SampleSet: Soft
StackLeniency: 0.7
Mode: 3
LetterboxInBreaks: 0
SpecialStyle: 0
WidescreenStoryboard: 0

[Editor]
DistanceSpacing: 0.8
BeatDivisor: 4
GridSize: 16
TimelineZoom: 1.4

[Metadata]
Title:Torikago
TitleUnicode:トリカゴ
Artist:XX:me
ArtistUnicode:XX:me
Creator:- Ly0572 -
Version:HD
Source:ダーリン・イン・ザ・フランキス
Tags:Ibrahim Darling in the FranXX ED Ending 1 TV Size 鳥かご キス・ミー Kisu Mi Kiss Me DarliFra Furankusu Birdcage Zero Two Ichigo Miku Kokoro Ikuno Haruka Tomatsu Kana Ichinose Nanami Yamashita Saori Hayami Katsuhiko Sugiyama
BeatmapID:1536659
BeatmapSetID:727784

[Difficulty]
HPDrainRate:7.5
CircleSize:4
OverallDifficulty:7.5
ApproachRate:5
SliderMultiplier:1.4
SliderTickRate:1

[Events]
//Background and Video events
0,0,"DITFBG.jpg",0,0
Video,500,"DITFvid_ (2).avi"
//Break Periods
//Storyboard Layer 0 (Background)
//Storyboard Layer 1 (Fail)
//Storyboard Layer 2 (Pass)
//Storyboard Layer 3 (Foreground)
//Storyboard Sound Samples

[TimingPoints]
1639,387.096774193548,4,2,1,80,1,0
54284,-100,4,2,1,95,0,1
77509,-100,4,2,1,80,0,0

[HitObjects]
320,192,1058,5,0,0:0:0:70:LR_Tom_Hit.wav
448,192,1058,1,0,0:0:0:0:
192,192,1251,1,0,0:0:0:70:LR_Tom_Hit.wav
64,192,1251,1,0,0:0:0:0:
448,192,1639,1,4,0:0:0:0:
320,192,1639,1,8,0:0:0:0:
64,192,1639,1,2,0:0:0:0:
192,192,1832,1,0,0:0:0:0:
320,192,2026,1,0,0:0:0:0:
448,192,2219,1,0,0:0:0:0:
192,192,2413,1,4,0:0:0:0:
64,192,2413,1,2,0:0:0:0:
320,192,2413,1,8,0:0:0:0:
64,192,2800,1,0,0:0:0:0:
448,192,2993,1,4,0:0:0:0:
320,192,2993,1,8,0:0:0:0:
192,192,2993,1,2,0:0:0:0:
64,192,3380,1,0,0:0:0:0:
192,192,3574,1,0,0:0:0:0:
64,192,3768,1,2,0:0:0:0:
320,192,3768,1,4,0:0:0:0:
448,192,3768,1,8,0:0:0:0:
448,192,4155,1,0,0:0:0:70:LR_Tom_Hit.wav
320,192,4251,1,0,0:0:0:70:LR_Tom_Hit.wav
64,192,4348,1,0,0:0:0:70:LR_Tom_Hit.wav
192,192,4445,1,0,0:0:0:70:LR_Tom_Hit.wav
320,192,4542,1,0,0:0:0:70:LR_Tom_Hit.wav
64,192,4735,1,8,0:0:0:0:
448,192,4735,1,4,0:0:0:0:
192,192,4735,1,2,0:0:0:0:
320,192,4929,1,0,0:0:0:0:
192,192,5122,1,0,0:0:0:0:
64,192,5316,1,0,0:0:0:0:
192,192,5509,1,2,0:0:0:0:
320,192,5509,1,4,0:0:0:0:
448,192,5509,1,8,0:0:0:0:
448,192,5897,1,0,0:0:0:0:
192,192,6090,1,8,0:0:0:0:
320,192,6090,1,4,0:0:0:0:
64,192,6090,1,2,0:0:0:0:
448,192,6477,1,0,0:0:0:0:
320,192,6671,1,0,0:0:0:0:
192,192,6864,1,2,0:0:0:0:
64,192,6864,1,4,0:0:0:0:
448,192,6864,1,8,0:0:0:0:
448,192,7251,1,8,0:0:0:0:
320,192,7251,1,0,0:0:0:0:
192,192,7445,1,8,0:0:0:0:
64,192,7445,1,0,0:0:0:0:
448,192,7638,1,8,0:0:0:0:
320,192,7735,1,8,0:0:0:0:
192,192,7832,1,4,0:0:0:0:
64,192,7832,128,2,8026:0:0:0:0:
448,192,7832,1,8,0:0:0:0:
320,192,8026,128,0,8219:0:0:0:0:
64,192,8219,1,8,0:0:0:0:
192,192,8219,128,0,8413:0:0:0:0:
448,192,8413,128,0,8606:0:0:0:0:
320,192,8606,128,2,8993:0:0:0:0:
192,192,8800,1,2,0:0:0:0:
64,192,8993,1,8,0:0:0:0:
448,192,8993,1,0,0:0:0:0:
192,192,9187,1,4,0:0:0:0:
64,192,9187,128,2,9574:0:0:0:0:
448,192,9187,1,0,0:0:0:0:
448,192,9574,1,2,0:0:0:0:
192,192,9768,1,8,0:0:0:0:
320,192,9768,1,0,0:0:0:0:
192,192,9961,1,4,0:0:0:0:
448,192,9961,128,2,10348:0:0:0:0:
64,192,9961,1,0,0:0:0:0:
64,192,10348,1,2,0:0:0:0:
320,192,10542,1,8,0:0:0:0:
192,192,10542,1,0,0:0:0:0:
448,192,10735,1,2,0:0:0:0:
320,192,10929,1,2,0:0:0:0:
192,192,10929,1,0,0:0:0:0:
64,192,10929,128,4,11316:0:0:0:0:
448,192,11316,1,8,0:0:0:0:
320,192,11316,1,4,0:0:0:0:
192,192,11703,1,2,0:0:0:0:
320,192,11897,1,2,0:0:0:0:
64,192,12090,1,8,0:0:0:0:
448,192,12090,1,0,0:0:0:0:
192,192,12284,1,4,0:0:0:0:
320,192,12284,128,2,12671:0:0:0:0:
64,192,12284,1,0,0:0:0:0:
448,192,12671,1,2,0:0:0:0:
192,192,12864,1,8,0:0:0:0:
64,192,12864,1,0,0:0:0:0:
320,192,13058,128,2,13445:0:0:0:0:
448,192,13058,1,0,0:0:0:0:
64,192,13445,1,8,0:0:0:0:
192,192,13445,1,0,0:0:0:0:
320,192,13638,1,2,0:0:0:0:
448,192,13638,1,0,0:0:0:0:
64,192,13832,1,2,0:0:0:0:
192,192,13832,1,0,0:0:0:0:
64,192,14026,128,4,14413:0:0:0:0:
320,192,14026,1,2,0:0:0:0:
448,192,14026,1,0,0:0:0:0:
192,192,14413,1,0,0:0:0:0:
64,192,14606,128,0,15187:0:0:0:0:
192,192,14800,1,0,0:0:0:0:
192,192,15187,1,0,0:0:0:0:
448,192,15574,128,0,15961:0:0:0:0:
320,192,15961,1,0,0:0:0:0:
448,192,16155,128,0,16735:0:0:0:0:
320,192,16348,1,0,0:0:0:0:
192,192,16542,1,2,0:0:0:0:
64,192,16542,1,0,0:0:0:0:
320,192,16735,1,0,0:0:0:0:
192,192,16929,1,2,0:0:0:0:
64,192,16929,1,0,0:0:0:0:
320,192,17122,128,2,17509:0:0:0:0:
448,192,17122,1,0,0:0:0:0:
448,192,17509,1,0,0:0:0:0:
320,192,17703,128,0,18284:0:0:0:0:
448,192,17897,1,0,0:0:0:0:
448,192,18284,1,0,0:0:0:0:
192,192,18671,128,2,19058:0:0:0:0:
64,192,18671,1,0,0:0:0:0:
64,192,19058,1,0,0:0:0:0:
192,192,19251,128,0,19832:0:0:0:0:
64,192,19445,1,0,0:0:0:0:
320,192,19638,1,2,0:0:0:0:
448,192,19638,1,0,0:0:0:0:
64,192,19832,1,0,0:0:0:0:
448,192,20026,1,2,0:0:0:0:
320,192,20026,1,0,0:0:0:0:
192,192,20219,1,2,0:0:0:0:
64,192,20219,128,0,20606:0:0:0:0:
192,192,20606,1,0,0:0:0:0:
64,192,20800,128,0,21380:0:0:0:0:
192,192,20993,1,0,0:0:0:0:
192,192,21380,1,0,0:0:0:0:
448,192,21768,128,2,22155:0:0:0:0:
320,192,21768,1,0,0:0:0:0:
320,192,22155,1,0,0:0:0:0:
448,192,22348,128,0,22735:0:0:0:0:
320,192,22542,1,0,0:0:0:0:
192,192,22735,1,2,0:0:0:0:
64,192,22735,1,0,0:0:0:0:
320,192,22929,1,0,0:0:0:0:
448,192,22929,1,0,0:0:0:0:
192,192,23122,1,2,0:0:0:0:
64,192,23122,1,0,0:0:0:0:
320,192,23316,1,2,0:0:0:0:
448,192,23316,1,0,0:0:0:0:
192,192,23703,1,0,0:0:0:0:
320,192,23897,128,2,24477:0:0:0:0:
448,192,23897,1,0,0:0:0:0:
64,192,24090,1,0,0:0:0:0:
448,192,24284,1,0,0:0:0:0:
192,192,24477,1,0,0:0:0:0:
64,192,24864,1,4,0:0:0:0:
448,192,24864,128,8,25058:0:0:0:0:
192,192,24864,1,0,0:0:0:0:
320,192,25058,128,0,25251:0:0:0:0:
192,192,25251,128,0,25445:0:0:0:0:
448,192,25445,1,0,0:0:0:70:LR_Tom_Hit.wav
64,192,25445,128,0,25832:0:0:0:0:
448,192,25832,1,8,0:0:0:0:
320,192,25832,1,0,0:0:0:0:
192,192,26026,1,8,0:0:0:0:
64,192,26026,1,0,0:0:0:0:
320,192,26219,1,8,0:0:0:0:
448,192,26219,1,0,0:0:0:0:
64,192,26413,1,2,0:0:0:0:
320,192,26413,128,4,26800:0:0:0:0:
192,192,26413,1,0,0:0:0:0:
448,192,26800,1,8,0:0:0:0:
64,192,26800,1,0,0:0:0:0:
192,192,26993,128,2,27380:0:0:0:0:
320,192,26993,1,0,0:0:0:0:
320,192,27380,1,2,0:0:0:0:
64,192,27574,1,8,0:0:0:0:
448,192,27574,1,0,0:0:0:0:
192,192,27961,128,2,28348:0:0:0:0:
320,192,27961,1,0,0:0:0:0:
64,192,28348,1,8,0:0:0:0:
448,192,28348,1,0,0:0:0:0:
320,192,28542,128,2,28929:0:0:0:0:
192,192,28542,1,0,0:0:0:0:
192,192,28929,1,2,0:0:0:0:
448,192,29122,1,8,0:0:0:0:
64,192,29122,1,0,0:0:0:0:
320,192,29316,1,2,0:0:0:0:
192,192,29509,128,2,29897:0:0:0:0:
320,192,29509,1,0,0:0:0:0:
448,192,29897,1,8,0:0:0:0:
64,192,29897,1,0,0:0:0:0:
448,192,30090,128,2,30477:0:0:0:0:
320,192,30090,1,0,0:0:0:0:
320,192,30477,1,2,0:0:0:0:
192,192,30671,1,8,0:0:0:0:
64,192,30671,1,0,0:0:0:0:
320,192,31058,128,2,31445:0:0:0:0:
192,192,31058,1,0,0:0:0:0:
448,192,31445,1,8,0:0:0:0:
64,192,31445,1,0,0:0:0:0:
64,192,31638,128,2,32026:0:0:0:0:
192,192,31638,1,0,0:0:0:0:
192,192,32026,1,2,0:0:0:0:
448,192,32219,1,8,0:0:0:0:
320,192,32219,1,0,0:0:0:0:
192,192,32413,1,2,0:0:0:0:
448,192,32606,128,2,32993:0:0:0:0:
192,192,32606,1,0,0:0:0:0:
64,192,32993,1,8,0:0:0:0:
320,192,32993,1,0,0:0:0:0:
320,192,33187,128,2,33574:0:0:0:0:
192,192,33187,1,0,0:0:0:0:
192,192,33574,1,2,0:0:0:0:
64,192,33768,1,8,0:0:0:0:
448,192,33768,1,0,0:0:0:0:
64,192,34155,128,2,34542:0:0:0:0:
320,192,34155,1,0,0:0:0:0:
192,192,34542,1,8,0:0:0:0:
448,192,34542,1,0,0:0:0:0:
192,192,34735,128,2,35122:0:0:0:0:
320,192,34735,1,0,0:0:0:0:
320,192,35122,1,2,0:0:0:0:
64,192,35316,1,8,0:0:0:0:
448,192,35316,1,0,0:0:0:0:
320,192,35509,1,2,0:0:0:0:
448,192,35703,1,2,0:0:0:0:
320,192,35703,128,4,36090:0:0:0:0:
64,192,35703,1,0,0:0:0:0:
192,192,36090,1,8,0:0:0:0:
64,192,36090,1,0,0:0:0:0:
320,192,36284,1,2,0:0:0:0:
192,192,36284,128,4,36671:0:0:0:0:
448,192,36284,1,0,0:0:0:0:
64,192,36671,1,2,0:0:0:0:
320,192,36864,1,8,0:0:0:0:
448,192,36864,1,0,0:0:0:0:
192,192,37058,1,2,0:0:0:0:
64,192,37251,1,2,0:0:0:0:
320,192,37251,1,4,0:0:0:0:
448,192,37251,128,0,37445:0:0:0:0:
192,192,37445,128,0,37638:0:0:0:0:
320,192,37638,128,0,37832:0:0:0:0:
64,192,37832,128,0,38026:0:0:0:0:
448,192,38219,1,2,0:0:0:0:
448,192,38413,1,2,0:0:0:0:
64,192,38606,1,4,0:0:0:0:
192,192,38606,1,8,0:0:0:0:
320,192,38606,1,0,0:0:0:0:
448,192,38993,1,2,0:0:0:0:
192,192,39187,1,8,0:0:0:0:
320,192,39187,1,4,0:0:0:0:
64,192,39187,1,0,0:0:0:0:
448,192,39574,1,2,0:0:0:0:
320,192,39671,1,0,0:0:0:70:LR_Tom_Hit.wav
64,192,39768,1,0,0:0:0:70:LR_Tom_Hit.wav
192,192,39864,1,0,0:0:0:70:LR_Tom_Hit.wav
320,192,39961,1,8,0:0:0:0:
448,192,39961,1,0,0:0:0:0:
448,192,40155,1,4,0:0:0:0:
192,192,40155,1,2,0:0:0:0:
64,192,40155,1,0,0:0:0:0:
64,192,40542,1,2,0:0:0:0:
192,192,40735,1,8,0:0:0:0:
320,192,40735,1,0,0:0:0:0:
448,192,40929,1,0,0:0:0:70:LR_Tom_Hit.wav
320,192,41026,1,0,0:0:0:70:LR_Tom_Hit.wav
192,192,41122,1,2,0:0:0:0:
64,192,41122,1,0,0:0:0:0:
448,192,41316,1,2,0:0:0:0:
64,192,41509,1,8,0:0:0:0:
320,192,41509,1,0,0:0:0:0:
192,192,41703,1,2,0:0:0:0:
320,192,42090,1,2,0:0:0:0:
448,192,42284,1,8,0:0:0:0:
192,192,42284,1,0,0:0:0:0:
64,192,42477,1,0,0:0:0:70:LR_Tom_Hit.wav
192,192,42574,1,0,0:0:0:70:LR_Tom_Hit.wav
320,192,42671,1,2,0:0:0:0:
448,192,42671,1,0,0:0:0:0:
64,192,42864,1,2,0:0:0:0:
448,192,43058,1,8,0:0:0:0:
192,192,43058,1,0,0:0:0:0:
320,192,43251,1,2,0:0:0:0:
192,192,43638,1,2,0:0:0:0:
320,192,43832,1,8,0:0:0:0:
64,192,43832,1,0,0:0:0:0:
448,192,44026,1,0,0:0:0:70:LR_Tom_Hit.wav
320,192,44122,1,0,0:0:0:70:LR_Tom_Hit.wav
192,192,44219,1,2,0:0:0:0:
64,192,44219,1,0,0:0:0:0:
320,192,44413,1,2,0:0:0:0:
448,192,44606,1,8,0:0:0:0:
192,192,44606,1,0,0:0:0:0:
64,192,44800,1,2,0:0:0:0:
320,192,44800,1,4,0:0:0:0:
448,192,44800,1,0,0:0:0:0:
192,192,45187,1,2,0:0:0:0:
448,192,45380,1,8,0:0:0:0:
64,192,45380,1,0,0:0:0:0:
320,192,45768,1,2,0:0:0:0:
320,192,45961,1,2,0:0:0:0:
64,192,46155,1,8,0:0:0:0:
192,192,46155,1,0,0:0:0:0:
320,192,46348,1,4,0:0:0:0:
448,192,46348,1,2,0:0:0:0:
64,192,46348,1,0,0:0:0:0:
192,192,46735,1,2,0:0:0:0:
448,192,46929,1,8,0:0:0:0:
320,192,46929,1,0,0:0:0:0:
192,192,47316,1,2,0:0:0:0:
192,192,47509,1,2,0:0:0:0:
448,192,47703,1,8,0:0:0:0:
64,192,47703,1,0,0:0:0:0:
320,192,47897,1,0,0:0:0:0:
448,192,48090,1,4,0:0:0:0:
64,192,48090,1,2,0:0:0:0:
192,192,48090,1,0,0:0:0:0:
320,192,48477,1,8,0:0:0:0:
192,192,48477,1,0,0:0:0:0:
64,192,48864,1,2,0:0:0:0:
64,192,49058,1,2,0:0:0:0:
320,192,49251,1,8,0:0:0:0:
448,192,49251,1,0,0:0:0:0:
192,192,49638,1,2,0:0:0:0:
64,192,50026,1,8,0:0:0:0:
448,192,50026,1,0,0:0:0:0:
192,192,50413,1,2,0:0:0:0:
320,192,50509,1,8,0:0:0:0:
448,192,50509,1,0,0:0:0:0:
64,192,50606,1,2,0:0:0:0:
448,192,50800,1,8,0:0:0:0:
192,192,50800,1,0,0:0:0:0:
320,192,50993,1,2,0:0:0:0:
192,192,51187,1,4,0:0:0:0:
64,192,51187,1,8,0:0:0:0:
448,192,51187,1,0,0:0:0:0:
320,192,51380,1,2,0:0:0:0:
192,192,51574,1,8,0:0:0:0:
448,192,51574,1,0,0:0:0:0:
64,192,51768,1,2,0:0:0:0:
448,192,51961,1,8,0:0:0:0:
320,192,51961,1,0,0:0:0:0:
192,192,52155,1,2,0:0:0:0:
448,192,52348,1,8,0:0:0:0:
64,192,52348,1,0,0:0:0:0:
320,192,52542,1,2,0:0:0:0:
192,192,52735,1,8,0:0:0:0:
64,192,52735,1,4,0:0:0:0:
448,192,52735,128,0,53122:0:0:0:0:
64,192,53122,1,8,0:0:0:0:
64,192,53316,1,8,0:0:0:0:
320,192,53316,1,0,0:0:0:0:
448,192,53509,1,8,0:0:0:0:
448,192,53703,1,8,0:0:0:0:
192,192,53703,1,0,0:0:0:0:
64,192,53897,1,8,0:0:0:0:
192,192,53993,1,0,0:0:0:70:LR_Tom_Hit.wav
320,192,54090,1,0,0:0:0:70:LR_Tom_Hit.wav
448,192,54187,1,0,0:0:0:70:LR_Tom_Hit.wav
64,192,54284,128,4,54671:0:0:0:0:
320,192,54284,1,2,0:0:0:0:
192,192,54284,1,0,0:0:0:0:
320,192,54671,1,8,0:0:0:0:
192,192,54671,1,0,0:0:0:0:
448,192,54864,1,2,0:0:0:0:
448,192,55058,128,2,55445:0:0:0:0:
320,192,55058,1,0,0:0:0:0:
64,192,55445,1,8,0:0:0:0:
192,192,55445,1,0,0:0:0:0:
320,192,55638,128,2,56026:0:0:0:0:
448,192,55638,1,0,0:0:0:0:
192,192,56026,128,2,56413:0:0:0:0:
448,192,56219,1,8,0:0:0:0:
64,192,56219,1,0,0:0:0:0:
320,192,56413,1,0,0:0:0:0:
192,192,56606,1,2,0:0:0:0:
64,192,56606,1,0,0:0:0:0:
448,192,56800,1,2,0:0:0:0:
320,192,56993,1,8,0:0:0:0:
64,192,56993,1,0,0:0:0:0:
192,192,57187,1,0,0:0:0:0:
320,192,57380,1,4,0:0:0:0:
64,192,57380,1,2,0:0:0:0:
448,192,57380,128,0,57768:0:0:0:0:
192,192,57768,1,8,0:0:0:0:
320,192,57768,1,0,0:0:0:0:
64,192,57961,1,2,0:0:0:0:
64,192,58155,128,2,58542:0:0:0:0:
192,192,58155,1,0,0:0:0:0:
320,192,58542,1,8,0:0:0:0:
448,192,58542,1,0,0:0:0:0:
192,192,58735,128,2,59122:0:0:0:0:
64,192,58735,1,0,0:0:0:0:
320,192,59122,128,2,59509:0:0:0:0:
64,192,59316,1,8,0:0:0:0:
448,192,59316,1,0,0:0:0:0:
192,192,59509,1,0,0:0:0:0:
448,192,59703,1,2,0:0:0:0:
192,192,59800,1,8,0:0:0:0:
64,192,59800,1,0,0:0:0:0:
320,192,59897,1,2,0:0:0:0:
64,192,60090,1,8,0:0:0:0:
192,192,60090,1,0,0:0:0:0:
320,192,60284,1,8,0:0:0:0:
448,192,60284,1,0,0:0:0:0:
192,192,60380,1,8,0:0:0:0:
448,192,60477,1,4,0:0:0:0:
64,192,60477,1,2,0:0:0:0:
320,192,60477,128,0,60864:0:0:0:0:
448,192,60864,1,8,0:0:0:0:
64,192,60864,1,0,0:0:0:0:
192,192,61058,1,2,0:0:0:0:
320,192,61251,1,2,0:0:0:0:
192,192,61251,128,0,61638:0:0:0:0:
64,192,61638,1,8,0:0:0:0:
448,192,61638,1,0,0:0:0:0:
192,192,61832,1,4,0:0:0:0:
320,192,61832,1,2,0:0:0:0:
64,192,61832,1,0,0:0:0:0:
448,192,62219,1,2,0:0:0:0:
64,192,62413,1,8,0:0:0:0:
320,192,62413,1,0,0:0:0:0:
192,192,62606,1,2,0:0:0:0:
448,192,62606,1,4,0:0:0:0:
320,192,62993,1,2,0:0:0:0:
64,192,63187,1,8,0:0:0:0:
448,192,63187,1,0,0:0:0:0:
192,192,63380,1,0,0:0:0:0:
320,192,63574,1,2,0:0:0:0:
64,192,63574,1,4,0:0:0:0:
448,192,63574,1,0,0:0:0:0:
192,192,63961,1,8,0:0:0:0:
320,192,63961,1,0,0:0:0:0:
64,192,64155,1,4,0:0:0:0:
448,192,64155,1,2,0:0:0:0:
320,192,64155,1,0,0:0:0:0:
192,192,64542,1,2,0:0:0:0:
64,192,64735,1,8,0:0:0:0:
448,192,64735,1,0,0:0:0:0:
320,192,64929,1,0,0:0:0:0:
192,192,65122,1,2,0:0:0:0:
64,192,65122,1,4,0:0:0:0:
448,192,65122,1,0,0:0:0:0:
448,192,65509,1,8,0:0:0:0:
320,192,65509,1,0,0:0:0:0:
192,192,65606,1,0,0:0:0:70:LR_Tom_Hit.wav
448,192,65703,1,4,0:0:0:0:
64,192,65703,1,8,0:0:0:0:
320,192,65703,1,0,0:0:0:0:
192,192,65993,1,8,0:0:0:0:
320,192,65993,1,0,0:0:0:0:
448,192,66090,1,2,0:0:0:0:
64,192,66187,1,0,0:0:0:70:LR_Tom_Hit.wav
192,192,66284,1,8,0:0:0:0:
320,192,66284,1,0,0:0:0:0:
448,192,66380,1,0,0:0:0:70:LR_Tom_Hit.wav
64,192,66477,1,2,0:0:0:0:
192,192,66574,1,0,0:0:0:70:LR_Tom_Hit.wav
448,192,66671,128,4,67058:0:0:0:0:
64,192,66671,1,2,0:0:0:0:
320,192,66671,1,0,0:0:0:0:
320,192,67058,1,8,0:0:0:0:
192,192,67058,1,0,0:0:0:0:
64,192,67251,1,2,0:0:0:0:
64,192,67445,128,2,67832:0:0:0:0:
192,192,67445,1,0,0:0:0:0:
448,192,67832,1,8,0:0:0:0:
320,192,67832,1,0,0:0:0:0:
192,192,68026,128,2,68413:0:0:0:0:
64,192,68026,1,0,0:0:0:0:
320,192,68413,128,2,68800:0:0:0:0:
64,192,68606,1,8,0:0:0:0:
448,192,68606,1,0,0:0:0:0:
192,192,68800,1,0,0:0:0:0:
64,192,68993,1,2,0:0:0:0:
192,192,69187,1,2,0:0:0:0:
320,192,69380,1,8,0:0:0:0:
448,192,69380,1,0,0:0:0:0:
192,192,69574,1,0,0:0:0:0:
320,192,69768,1,4,0:0:0:0:
448,192,69768,1,2,0:0:0:0:
64,192,69768,128,0,70155:0:0:0:0:
320,192,70155,1,8,0:0:0:0:
192,192,70155,1,0,0:0:0:0:
448,192,70348,1,2,0:0:0:0:
448,192,70542,128,2,70929:0:0:0:0:
320,192,70542,1,0,0:0:0:0:
192,192,70929,1,8,0:0:0:0:
64,192,70929,1,0,0:0:0:0:
320,192,71122,128,2,71509:0:0:0:0:
448,192,71122,1,4,0:0:0:0:
64,192,71122,1,0,0:0:0:0:
192,192,71509,128,2,71897:0:0:0:0:
448,192,71703,1,8,0:0:0:0:
64,192,71703,1,0,0:0:0:0:
320,192,71897,1,0,0:0:0:0:
64,192,72090,1,2,0:0:0:0:
448,192,72187,1,8,0:0:0:0:
320,192,72187,1,0,0:0:0:0:
192,192,72284,1,2,0:0:0:0:
320,192,72477,1,8,0:0:0:0:
448,192,72477,1,0,0:0:0:0:
64,192,72671,1,8,0:0:0:0:
192,192,72671,1,0,0:0:0:0:
320,192,72768,1,8,0:0:0:0:
448,192,72864,1,4,0:0:0:0:
64,192,72864,1,2,0:0:0:0:
192,192,72864,128,0,73251:0:0:0:0:
448,192,73251,1,8,0:0:0:0:
64,192,73251,1,0,0:0:0:0:
320,192,73445,1,2,0:0:0:0:
320,192,73638,128,2,74026:0:0:0:0:
192,192,73638,1,0,0:0:0:0:
64,192,74026,1,8,0:0:0:0:
448,192,74026,1,0,0:0:0:0:
448,192,74219,1,4,0:0:0:0:
320,192,74219,1,2,0:0:0:0:
192,192,74219,1,0,0:0:0:0:
64,192,74606,1,2,0:0:0:0:
320,192,74800,1,8,0:0:0:0:
192,192,74800,1,0,0:0:0:0:
192,192,74993,128,4,75380:0:0:0:0:
448,192,74993,1,2,0:0:0:0:
64,192,74993,1,0,0:0:0:0:
448,192,75380,1,2,0:0:0:0:
320,192,75574,1,2,0:0:0:0:
448,192,75574,1,0,0:0:0:0:
192,192,75768,1,0,0:0:0:0:
448,192,75961,1,4,0:0:0:0:
64,192,75961,1,8,0:0:0:0:
320,192,75961,1,0,0:0:0:0:
192,192,76348,1,8,0:0:0:0:
64,192,76348,1,0,0:0:0:0:
320,192,76542,1,4,0:0:0:0:
448,192,76542,1,2,0:0:0:0:
64,192,76542,1,0,0:0:0:0:
64,192,76929,1,8,0:0:0:0:
192,192,76929,1,0,0:0:0:0:
320,192,77026,1,0,0:0:0:70:LR_Tom_Hit.wav
448,192,77122,1,2,0:0:0:0:
192,192,77122,1,0,0:0:0:0:
320,192,77316,1,2,0:0:0:0:
64,192,77509,1,4,0:0:0:0:
448,192,77509,1,8,0:0:0:0:
192,192,77509,1,0,0:0:0:0:
320,192,77897,1,8,0:0:0:0:
192,192,77897,1,0,0:0:0:0:
320,192,78090,1,4,0:0:0:0:
64,192,78090,1,2,0:0:0:0:
448,192,78090,1,0,0:0:0:0:
64,192,78380,1,8,0:0:0:0:
192,192,78380,1,0,0:0:0:0:
320,192,78477,1,0,0:0:0:70:LR_Tom_Hit.wav
448,192,78574,1,0,0:0:0:70:LR_Tom_Hit.wav
64,192,78671,1,2,0:0:0:0:
192,192,78768,1,0,0:0:0:70:LR_Tom_Hit.wav
320,192,78864,1,2,0:0:0:0:
448,192,79058,1,4,0:0:0:0:
64,192,79058,1,8,0:0:0:0:
192,192,79058,1,0,0:0:0:0:
320,192,79251,1,0,0:0:0:70:LR_Tom_Hit.wav
192,192,79445,1,2,0:0:0:0:
448,192,79445,1,0,0:0:0:0:
64,192,79638,1,0,0:0:0:70:LR_Tom_Hit.wav
192,192,79735,1,0,0:0:0:70:LR_Tom_Hit.wav
320,192,79832,1,0,0:0:0:70:LR_Tom_Hit.wav
448,192,79832,1,0,0:0:0:0:
192,192,80026,1,2,0:0:0:0:
320,192,80219,1,8,0:0:0:0:
64,192,80219,1,0,0:0:0:0:
448,192,80413,1,0,0:0:0:70:LR_Tom_Hit.wav
320,192,80509,1,0,0:0:0:70:LR_Tom_Hit.wav
64,192,80606,1,0,0:0:0:70:LR_Tom_Hit.wav
192,192,80606,1,0,0:0:0:0:
320,192,80800,1,2,0:0:0:0:
192,192,80993,1,2,0:0:0:0:
448,192,80993,1,0,0:0:0:0:
320,192,81187,1,0,0:0:0:70:LR_Tom_Hit.wav
192,192,81284,1,0,0:0:0:70:LR_Tom_Hit.wav
448,192,81380,1,0,0:0:0:70:LR_Tom_Hit.wav
64,192,81380,1,0,0:0:0:0:
192,192,81574,1,2,0:0:0:0:
320,192,81768,1,2,0:0:0:0:
64,192,81768,1,0,0:0:0:0:
192,192,81961,1,0,0:0:0:70:LR_Tom_Hit.wav
320,192,82058,1,0,0:0:0:70:LR_Tom_Hit.wav
64,192,82155,1,0,0:0:0:70:LR_Tom_Hit.wav
448,192,82155,1,0,0:0:0:0:
320,192,82348,1,2,0:0:0:0:
448,192,82542,1,2,0:0:0:0:
192,192,82542,1,0,0:0:0:0:
64,192,82735,1,2,0:0:0:0:
320,192,82929,1,2,0:0:0:0:
192,192,82929,1,0,0:0:0:0:
448,192,83122,1,0,0:0:0:70:LR_Tom_Hit.wav
64,192,83122,1,0,0:0:0:0:
320,192,83219,1,0,0:0:0:70:LR_Tom_Hit.wav
192,192,83316,1,0,0:0:0:70:LR_Tom_Hit.wav
64,192,83509,1,2,0:0:0:0:
192,192,83606,1,0,0:0:0:0:
448,192,83703,1,8,0:0:0:0:
320,192,83703,1,0,0:0:0:0:
448,192,83897,1,8,0:0:0:0:
64,192,83897,1,0,0:0:0:0:
320,192,84090,1,8,0:0:0:0:
192,192,84090,1,0,0:0:0:0:
192,192,84284,1,8,0:0:0:0:
64,192,84284,1,0,0:0:0:0:
448,192,84477,1,8,0:0:0:0:
320,192,84477,1,0,0:0:0:0:
192,192,84574,1,8,0:0:0:0:
448,192,84671,1,8,0:0:0:0:
64,192,84671,1,0,0:0:0:0:
320,192,84768,1,8,0:0:0:0:
64,192,84864,1,8,0:0:0:0:
192,192,84864,1,2,0:0:0:0:
448,192,84961,1,2,0:0:0:0:
192,192,85058,1,2,0:0:0:0:
320,192,85155,1,2,0:0:0:0:
448,192,85251,1,8,0:0:0:0:
64,192,85251,1,4,0:0:0:0:
192,192,85251,128,0,85445:0:0:0:0:
320,192,85445,128,0,85638:0:0:0:0:
448,192,85638,1,8,0:0:0:0:
64,192,85638,128,0,85832:0:0:0:0:
192,192,85832,128,0,86026:0:0:0:0:
320,192,86026,128,2,86413:0:0:0:0:
64,192,86219,1,2,0:0:0:0:
192,192,86413,128,8,86606:0:0:0:0:
448,192,86413,1,0,0:0:0:0:
64,192,86606,128,2,86993:0:0:0:0:
320,192,86606,1,0,0:0:0:0:
448,192,86606,1,0,0:0:0:0:
448,192,86993,128,2,87187:0:0:0:0:
320,192,87187,128,8,87380:0:0:0:0:
192,192,87187,1,0,0:0:0:0:
192,192,87380,128,4,87768:0:0:0:0:
64,192,87380,1,2,0:0:0:0:
448,192,87380,1,0,0:0:0:0:
448,192,87768,128,2,87961:0:0:0:0:
320,192,87961,128,8,88155:0:0:0:0:
64,192,87961,1,0,0:0:0:0:
192,192,88155,128,0,88348:0:0:0:0:
64,192,88348,1,4,0:0:0:0:
320,192,88348,1,2,0:0:0:0:
448,192,88348,128,0,88542:0:0:0:0:
192,192,88542,128,0,88735:0:0:0:0:
64,192,88735,1,8,0:0:0:0:
448,192,88735,128,0,88929:0:0:0:0:
320,192,88929,128,0,89122:0:0:0:0:
192,192,89122,128,2,89509:0:0:0:0:
448,192,89316,1,2,0:0:0:0:
320,192,89509,128,8,89703:0:0:0:0:
64,192,89509,1,0,0:0:0:0:
448,192,89703,128,4,90090:0:0:0:0:
192,192,89703,1,2,0:0:0:0:
64,192,89703,1,0,0:0:0:0:
64,192,90090,128,2,90284:0:0:0:0:
320,192,90284,128,8,90477:0:0:0:0:
192,192,90284,1,0,0:0:0:0:
448,192,90477,1,2,0:0:0:0:
192,192,90477,128,4,90864:0:0:0:0:
64,192,90477,1,0,0:0:0:0:
320,192,90864,128,2,91058:0:0:0:0:
64,192,91058,1,8,0:0:0:0:
192,192,91058,1,0,0:0:0:0:
320,192,91155,1,8,0:0:0:0:
448,192,91155,1,0,0:0:0:0:
192,192,91251,1,8,0:0:0:0:
64,192,91251,1,0,0:0:0:0:
192,192,91445,128,4,91638:0:0:0:0:
64,192,91445,1,2,0:0:0:0:
448,192,91445,1,0,0:0:0:0:
320,192,91638,128,0,91832:0:0:0:0:
64,192,91832,128,8,92026:0:0:0:0:
448,192,91832,1,0,0:0:0:0:
192,192,92026,128,0,92219:0:0:0:0:
320,192,92219,128,2,92606:0:0:0:0:
64,192,92413,1,2,0:0:0:0:
448,192,92606,1,8,0:0:0:0:
192,192,92606,128,0,92800:0:0:0:0:
448,192,92800,1,2,0:0:0:0:
320,192,92800,1,4,0:0:0:0:
64,192,92800,128,0,93187:0:0:0:0:
448,192,93187,128,2,93380:0:0:0:0:
192,192,93380,1,8,0:0:0:0:
320,192,93380,128,0,93574:0:0:0:0:
448,192,93574,1,2,0:0:0:0:
64,192,93574,1,4,0:0:0:0:
192,192,93574,128,0,93961:0:0:0:0:
448,192,93961,128,2,94155:0:0:0:0:
320,192,94155,128,8,94348:0:0:0:0:
64,192,94155,1,0,0:0:0:0:
192,192,94348,128,2,94542:0:0:0:0:
64,192,94542,128,4,95316:0:0:0:0:
448,192,94542,1,0,0:0:0:0:
320,192,94542,1,2,0:0:0:0:
320,192,94929,1,8,0:0:0:0:
448,192,94929,1,4,0:0:0:0:
192,192,95316,1,2,0:0:0:0:
448,192,95316,128,0,95703:0:0:0:0:
192,192,95509,1,2,0:0:0:0:
64,192,95703,128,8,95897:0:0:0:0:
320,192,95703,1,0,0:0:0:0:
192,192,95897,128,2,96284:0:0:0:0:
448,192,95897,1,4,0:0:0:0:
320,192,95897,1,0,0:0:0:0:
64,192,96284,128,2,96477:0:0:0:0:
320,192,96477,1,8,0:0:0:0:
448,192,96477,1,0,0:0:0:0:
448,192,96671,1,2,0:0:0:0:
64,192,96671,1,4,0:0:0:0:
192,192,96671,128,0,96864:0:0:0:0:
320,192,97058,128,2,97251:0:0:0:0:
64,192,97251,1,8,0:0:0:0:
448,192,97251,1,0,0:0:0:0:
192,192,97445,1,2,0:0:0:0:
320,192,97445,128,4,102671:0:0:0:0:
448,192,97445,128,0,102671:0:0:0:0:
