osu file format v14

[General]
AudioFilename: audio.mp3
AudioLeadIn: 0
PreviewTime: 57251
Countdown: 1
SampleSet: Soft
StackLeniency: 0.7
Mode: 0
LetterboxInBreaks: 0
WidescreenStoryboard: 0

[Editor]
DistanceSpacing: 1.5
BeatDivisor: 8
GridSize: 4
TimelineZoom: 1

[Metadata]
Title:Hitori
TitleUnicode:Hitori
Artist:XX:me
ArtistUnicode:XX:me
Creator:Symphoniez
Version:The beast and the prince
Source:Darling in the Franxx
Tags:Darling in the franxx Hitori
BeatmapID:1980668
BeatmapSetID:948371

[Difficulty]
HPDrainRate:8
CircleSize:4
OverallDifficulty:8
ApproachRate:9
SliderMultiplier:1.4
SliderTickRate:1

[Events]
//Background and Video events
0,0,"913300.jpg",0,0
//Break Periods
2,145651,148451
2,152850,153651
//Storyboard Layer 0 (Background)
//Storyboard Layer 1 (Fail)
//Storyboard Layer 2 (Pass)
//Storyboard Layer 3 (Foreground)
//Storyboard Sound Samples

[TimingPoints]
16651,800,4,2,1,30,1,0
16651,-100,4,2,1,30,0,0
43651,-76.9230769230769,4,2,1,30,0,0
54851,-66.6666666666667,4,2,1,30,0,0
57251,-133.333333333333,4,2,1,30,0,0
58051,-55.5555555555556,4,2,1,30,0,1
76851,-50,4,2,1,30,0,1
83451,-100,4,2,1,30,0,1
85451,-100,4,2,1,30,0,0
87051,-50,4,2,1,30,0,0
112451,-133.333333333333,4,2,1,30,0,0
116251,-285.714285714286,4,2,1,30,0,0
117251,-50,4,2,1,30,0,0
123651,-100,4,2,1,30,0,0
129251,-66.6666666666667,4,2,1,30,0,0
129651,-50,4,2,1,30,0,0
136451,-100,4,2,1,30,0,0
142051,-66.6666666666667,4,2,1,30,0,0
142451,-50,4,2,1,30,0,0
149051,-133.333333333333,4,2,1,30,0,0

[Colours]
Combo1 : 238,181,230
Combo2 : 242,219,238

[HitObjects]
85,114,16651,6,0,P|135:93|180:93,1,70
169,142,17451,2,0,P|116:166|96:167,1,70,4|0,0:0|0:0,0:0:0:0:
433,51,18251,6,0,P|386:54|361:65,1,70
371,104,19051,2,0,P|423:109|455:90,1,70,4|0,0:0|0:0,0:0:0:0:
85,114,19851,6,0,P|135:93|180:93,1,70
169,142,20651,2,0,P|116:166|96:167,1,70,4|0,0:0|0:0,0:0:0:0:
250,132,21451,5,6,0:0:0:0:
302,47,21851,1,0,0:0:0:0:
359,121,22251,1,6,0:0:0:0:
423,47,22651,1,2,0:0:0:0:
333,190,23051,1,6,0:0:0:0:
308,232,23251,1,0,0:0:0:0:
308,232,23451,6,0,P|276:266|241:277,1,70
223,223,24251,2,0,P|253:193|283:177,1,70,4|0,0:0|0:0,0:0:0:0:
356,138,25051,6,0,P|363:101|351:65,1,70,4|0,0:0|0:0,0:0:0:0:
300,75,25851,2,0,P|305:127|315:157,1,70
202,120,26651,5,0,0:0:0:0:
148,32,27051,1,0,0:0:0:0:
100,124,27451,1,4,0:0:0:0:
47,36,27851,1,0,0:0:0:0:
48,82,28051,1,0,0:0:0:0:
53,172,28251,6,0,P|90:198|114:208,1,70,4|0,0:0|0:0,0:0:0:0:
153,217,29051,5,0,0:0:0:0:
456,32,29451,1,0,0:0:0:0:
480,48,29651,2,0,P|480:92|472:124,1,70
448,140,30251,5,4,0:0:0:0:
352,152,30451,1,0,0:0:0:0:
80,80,31051,5,0,0:0:0:0:
188,112,31251,1,0,0:0:0:0:
312,248,31851,5,4,0:0:0:0:
240,320,32051,1,0,0:0:0:0:
72,244,32651,5,0,0:0:0:0:
160,168,32851,1,0,0:0:0:0:
456,32,33451,5,4,0:0:0:0:
456,56,33651,2,0,P|440:100|396:140,1,105
320,52,34651,5,0,0:0:0:0:
164,84,35051,5,4,0:0:0:0:
72,232,35451,5,0,0:0:0:0:
28,201,35851,5,0,0:0:0:0:
79,165,36051,1,0,0:0:0:0:
138,117,36251,2,0,P|177:102|220:98,1,70,4|0,0:0|0:0,0:0:0:0:
188,156,37051,6,0,P|230:157|275:144,1,70,4|0,0:0|0:0,0:0:0:0:
265,110,37851,2,0,P|307:103|350:106,1,70
417,128,38651,1,0,0:0:0:0:
339,192,39051,5,4,0:0:0:0:
282,268,39451,2,0,P|235:281|199:286,1,70,4|0,0:0|0:0,0:0:0:0:
151,282,40251,2,0,P|107:260|81:240,1,70,4|0,0:0|0:0,0:0:0:0:
148,227,42051,5,0,0:0:0:0:
218,146,42251,2,0,P|266:157|311:147,1,70,4|0,0:0|0:0,0:0:0:0:
291,89,43051,2,0,P|239:65|218:58,1,70
27,100,43851,6,0,P|21:150|32:176,1,45.4999979171754,4|0,0:0|0:0,0:0:0:0:
88,158,44251,2,0,P|72:202|52:213,1,45.4999979171754
45,265,44651,1,0,0:0:0:0:
442,45,45051,5,0,0:0:0:0:
389,105,45251,1,0,0:0:0:0:
451,180,45451,2,0,P|444:218|430:237,1,45.4999979171754,4|0,0:0|0:0,0:0:0:0:
384,267,45851,2,0,P|362:267|330:252,1,45.4999979171754
291,211,46251,1,0,0:0:0:0:
81,71,46651,5,0,0:0:0:0:
172,88,46851,1,0,0:0:0:0:
232,124,47451,6,0,P|281:144|277:183,1,90.9999958343508
212,267,48251,6,0,P|172:296|111:312,1,90.9999958343508,4|0,0:0|0:0,0:0:0:0:
116,218,49051,5,2,0:0:0:0:
115,93,49451,1,2,0:0:0:0:
243,33,49851,1,0,0:0:0:0:
340,103,50051,6,0,P|334:159|323:189,1,45.4999979171754
277,140,50651,6,0,P|277:187|304:228,1,90.9999958343508
348,202,51451,2,0,P|333:146|309:109,1,90.9999958343508,4|0,0:0|0:0,0:0:0:0:
151,78,52251,2,0,P|97:113|85:143,1,90.9999958343508
149,147,53051,2,0,P|188:191|224:203,1,90.9999958343508,4|0,0:0|0:0,0:0:0:0:
178,97,53851,2,0,P|231:86|257:52,1,90.9999958343508
297,36,54651,5,6,0:0:0:0:
92,119,55051,6,0,P|166:99|191:99,1,52.5000020027161
174,163,55451,2,0,P|229:157|264:146,1,52.5000020027161,0|0,0:0|0:0,0:0:0:0:
416,133,55851,2,0,P|420:198|409:218,1,52.5000020027161,0|0,0:0|0:0,0:0:0:0:
339,186,56251,2,0,P|301:227|294:240,1,52.5000020027161
258,248,56651,5,14,0:0:0:0:
91,95,57451,6,0,P|153:80|157:82,1,52.5000020027161
102,134,58251,6,4,P|105:189|146:220,1,62.9999980773926,12|4,0:0|0:0,0:0:0:0:
154,140,58651,2,4,P|226:145|238:141,1,62.9999980773926
126,117,59051,1,8,0:0:0:0:
431,108,59451,6,4,P|377:160|366:157,1,62.9999980773926,4|12,0:0|0:0,0:0:0:0:
420,104,59851,2,4,P|362:97|351:86,1,62.9999980773926,12|12,0:0|0:0,0:0:0:0:
421,97,60251,2,4,P|392:52|403:22,1,62.9999980773926,4|12,0:0|0:0,0:0:0:0:
323,44,60651,1,12,0:0:0:0:
264,126,60851,1,2,0:0:0:0:
198,212,61051,1,6,0:0:0:0:
135,283,61251,1,4,0:0:0:0:
135,283,61451,6,4,B|127:275|113:203|119:181,1,62.9999980773926
135,283,61851,2,4,P|183:238|200:240,1,62.9999980773926,0|4,0:0|0:0,0:0:0:0:
248,210,62251,1,8,0:0:0:0:
194,143,62651,6,0,L|170:79,2,62.9999980773926,4|12|0,0:0|0:0|0:0,0:0:0:0:
303,113,63251,2,0,L|366:135,2,62.9999980773926,4|12|8,0:0|0:0|0:0,0:0:0:0:
251,168,63851,1,14,0:0:0:0:
175,236,64051,1,12,0:0:0:0:
100,173,64251,1,10,0:0:0:0:
39,237,64451,1,12,0:0:0:0:
168,54,64651,6,4,P|254:33|310:37,1,125.999996154785,12|12,0:0|0:0,0:0:0:0:
297,111,65251,2,4,P|245:165|227:175,1,62.9999980773926,4|12,0:0|0:0,0:0:0:0:
134,169,65851,5,4,0:0:0:0:
81,284,66051,1,0,0:0:0:0:
181,329,66251,2,0,P|286:328|329:315,1,125.999996154785,12|8,0:0|0:0,0:0:0:0:
318,250,66851,2,0,P|311:197|286:161,1,62.9999980773926,12|0,0:0|0:0,0:0:0:0:
106,321,67451,5,4,0:0:0:0:
165,276,67651,1,0,0:0:0:0:
222,229,67851,2,0,P|269:168|235:122,1,125.999996154785,4|0,0:0|0:0,0:0:0:0:
194,127,68651,2,0,P|155:190|198:228,1,125.999996154785,12|0,0:0|0:0,0:0:0:0:
214,176,69251,2,12,L|278:126,2,62.9999980773926
158,206,69851,5,10,0:0:0:0:
104,258,70051,1,8,0:0:0:0:
135,334,70251,1,8,0:0:0:0:
196,289,70451,1,8,0:0:0:0:
239,284,70651,2,8,P|318:274|338:263,1,62.9999980773926
350,244,71051,6,0,P|382:180|384:116,1,125.999996154785,14|0,0:0|0:0,0:0:0:0:
337,108,71651,1,4,0:0:0:0:
258,53,71851,2,0,P|186:73|161:105,1,62.9999980773926,12|0,0:0|0:0,0:0:0:0:
136,96,72251,1,0,0:0:0:0:
79,158,72451,1,4,0:0:0:0:
229,142,72651,2,0,P|311:127|346:134,1,62.9999980773926,12|8,0:0|0:0,0:0:0:0:
278,190,73051,2,8,P|343:185|351:179,1,62.9999980773926,8|12,0:0|0:0,0:0:0:0:
338,187,73451,5,10,0:0:0:0:
409,255,73651,1,8,0:0:0:0:
340,310,73851,1,8,0:0:0:0:
269,248,74051,1,8,0:0:0:0:
338,187,74251,2,0,P|319:113|311:103,1,62.9999980773926,12|0,0:0|0:0,0:0:0:0:
285,175,74651,2,0,P|220:144|213:144,1,62.9999980773926,4|0,0:0|0:0,0:0:0:0:
149,138,75051,5,12,0:0:0:0:
49,299,75451,2,4,P|135:303|191:295,1,125.999996154785,12|4,0:0|0:0,0:0:0:0:
226,291,76251,2,4,P|293:259|350:222,1,125.999996154785
394,103,77051,5,0,0:0:0:0:
303,38,77251,1,4,0:0:0:0:
221,43,77451,2,0,P|145:54|66:80,1,140,12|0,0:0|0:0,0:0:0:0:
86,137,78051,2,0,P|189:172|211:172,1,70,14|0,0:0|0:0,0:0:0:0:
394,281,78651,5,0,0:0:0:0:
303,346,78851,1,0,0:0:0:0:
217,342,79051,2,0,P|141:331|61:303,1,140,12|0,0:0|0:0,0:0:0:0:
78,249,79651,2,0,P|181:214|203:214,1,70,14|0,0:0|0:0,0:0:0:0:
204,190,80251,5,0,0:0:0:0:
256,192,80451,1,4,0:0:0:0:
256,192,80651,12,14,81451,0:0:0:0:
381,234,82251,6,0,P|336:175|315:149,1,70,8|0,0:0|0:0,0:0:0:0:
310,148,82651,2,0,L|258:91,1,70,8|0,0:0|0:0,0:0:0:0:
147,74,83051,1,6,0:0:0:0:
43,171,83251,1,0,0:0:0:0:
155,241,83451,1,4,0:0:0:0:
146,99,83651,1,4,0:0:0:0:
61,172,83851,6,4,P|71:211|111:239,1,70,12|12,0:0|0:0,0:0:0:0:
193,245,84451,2,12,L|254:246,1,35,12|12,0:0|0:0,0:0:0:0:
301,246,84851,2,12,L|349:228,1,35
390,148,85251,5,12,0:0:0:0:
200,17,85451,1,12,0:0:0:0:
156,199,85651,1,12,0:0:0:0:
346,149,85851,1,12,0:0:0:0:
224,56,86051,1,12,0:0:0:0:
160,184,86251,1,14,0:0:0:0:
137,274,86651,6,0,L|188:271,1,35,6|0,0:0|0:0,0:0:0:0:
256,267,87051,2,0,P|338:241|405:200,1,140,12|8,0:0|0:0,0:0:0:0:
357,81,87651,1,0,0:0:0:0:
324,73,87851,1,12,0:0:0:0:
247,60,88051,2,8,P|201:79|156:104,1,70,12|8,0:0|0:0,0:0:0:0:
140,194,88651,5,12,0:0:0:0:
86,134,88851,1,12,0:0:0:0:
44,200,89051,1,12,0:0:0:0:
86,134,89251,1,12,0:0:0:0:
140,194,89451,2,8,L|239:190,1,70,10|8,0:0|0:0,0:0:0:0:
271,185,89851,2,8,L|345:182,1,70
450,167,90251,6,4,P|377:65|336:37,1,140,12|0,0:0|0:0,0:0:0:0:
186,345,90851,6,4,P|99:274|64:204,1,140,12|4,0:0|0:0,0:0:0:0:
72,215,91451,2,0,P|52:88|49:49,1,140,12|0,0:0|0:0,0:0:0:0:
136,84,92051,1,8,0:0:0:0:
342,69,92451,1,12,0:0:0:0:
251,209,92651,2,0,P|181:273|146:313,1,140,12|0,0:0|0:0,0:0:0:0:
198,338,93251,6,0,P|274:327|296:338,1,70,12|4,0:0|0:0,0:0:0:0:
331,312,93651,1,0,0:0:0:0:
362,228,93851,1,12,0:0:0:0:
424,300,94051,1,4,0:0:0:0:
362,228,94251,2,4,P|409:166|410:162,1,70,12|12,0:0|0:0,0:0:0:0:
423,103,94651,2,4,P|374:40|358:31,1,70,12|4,0:0|0:0,0:0:0:0:
272,46,95051,2,4,P|171:81|155:90,1,70,12|4,0:0|0:0,0:0:0:0:
121,88,95451,2,4,P|88:178|93:236,1,140,12|4,0:0|0:0,0:0:0:0:
73,291,96251,6,0,P|156:295|192:288,2,70,4|4|8,0:0|0:0|0:0,0:0:0:0:
73,291,96851,2,12,P|117:271|150:223,1,70
282,113,97251,2,0,P|234:183|227:186,2,70,4|4|8,0:0|0:0|0:0,0:0:0:0:
282,113,97851,2,12,P|218:147|206:150,1,70
127,131,98251,1,12,0:0:0:0:
49,89,98451,1,12,0:0:0:0:
43,202,98651,1,12,0:0:0:0:
43,202,98851,6,8,P|92:259|108:267,1,70
469,202,99251,6,8,P|420:259|404:267,1,70
392,266,99651,1,4,0:0:0:0:
317,30,99851,2,0,P|211:27|143:47,1,140,4|8,0:0|0:0,0:0:0:0:
133,64,100451,1,0,0:0:0:0:
170,105,100651,2,0,P|270:123|358:92,1,140,8|8,0:0|0:0,0:0:0:0:
364,114,101251,6,0,B|356:106|353:176|340:195,1,70,12|0,0:0|0:0,0:0:0:0:
364,114,101651,2,0,P|306:168|287:174,1,70,12|0,0:0|0:0,0:0:0:0:
245,184,102051,1,8,0:0:0:0:
184,140,102251,1,8,0:0:0:0:
245,184,102451,1,12,0:0:0:0:
184,140,102651,2,0,P|217:170|252:186,1,70,4|8,0:0|0:0,0:0:0:0:
195,354,103051,6,0,P|301:357|369:337,1,140,12|0,0:0|0:0,0:0:0:0:
379,320,103651,1,12,0:0:0:0:
342,279,103851,2,0,P|242:261|154:292,1,140,4|0,0:0|0:0,0:0:0:0:
148,270,104451,6,8,B|140:262|143:192|156:173,1,70,8|12,0:0|0:0,0:0:0:0:
148,270,104851,2,8,P|206:216|225:210,1,70,12|12,0:0|0:0,0:0:0:0:
267,200,105251,1,8,0:0:0:0:
328,244,105451,1,12,0:0:0:0:
267,200,105651,1,12,0:0:0:0:
328,244,105851,2,8,P|295:214|260:198,1,70,8|12,0:0|0:0,0:0:0:0:
214,179,106251,6,0,P|105:148|103:43,1,210,4|8,0:0|0:0,0:0:0:0:
147,41,107051,2,0,P|248:74|252:178,1,210,12|8,0:0|0:0,0:0:0:0:
238,192,107851,1,0,0:0:0:0:
288,239,108051,1,4,0:0:0:0:
342,279,108251,2,0,P|345:207|338:182,2,70,4|8|8,0:0|0:0|0:0,0:0:0:0:
306,280,108851,2,4,P|224:273|202:263,1,70,4|12,0:0|0:0,0:0:0:0:
189,278,109451,2,0,P|74:216|37:123,1,210,4|0,0:0|0:0,0:0:0:0:
60,113,110251,2,0,L|139:64,2,70,4|8|0,0:0|0:0|0:0,0:0:0:0:
159,117,110851,5,4,0:0:0:0:
213,167,111051,1,4,0:0:0:0:
273,213,111251,1,4,0:0:0:0:
213,167,111451,2,0,B|212:168|241:204|270:210,1,70
213,167,111851,2,0,B|214:165|262:120|271:105,1,70
213,167,112251,2,4,L|146:124,1,70
86,271,112651,6,12,P|71:227|69:208,1,52.5000020027161,12|14,0:0|0:0,0:0:0:0:
142,216,113451,2,8,P|155:177|156:161,1,52.5000020027161,8|10,0:0|0:0,0:0:0:0:
251,169,114251,1,8,0:0:0:0:
317,75,114651,1,8,0:0:0:0:
376,164,115051,1,8,0:0:0:0:
376,164,115451,2,8,P|398:117|398:116,1,52.5000020027161,14|8,0:0|0:0,0:0:0:0:
256,201,116651,6,14,L|255:172,1,24.4999992523194
158,56,117451,6,0,P|247:40|287:50,1,70,4|8,0:0|0:0,0:0:0:0:
177,320,117851,2,0,P|248:320|271:313,1,70,4|8,0:0|0:0,0:0:0:0:
279,234,118251,1,8,0:0:0:0:
258,81,118651,2,4,P|336:106|347:117,1,70
366,127,119051,2,0,P|386:206|385:224,2,70,4|8|0,0:0|0:0|0:0,0:0:0:0:
370,122,119651,2,4,P|327:184|311:190,1,70,12|4,0:0|0:0,0:0:0:0:
349,28,120251,5,12,0:0:0:0:
342,25,120451,1,12,0:0:0:0:
250,27,120651,2,0,P|203:88|203:103,1,70,12|4,0:0|0:0,0:0:0:0:
100,96,121051,2,0,P|135:176|150:184,1,70,12|4,0:0|0:0,0:0:0:0:
84,226,121451,1,6,0:0:0:0:
163,250,121851,2,0,P|285:232|291:231,1,70,8|4,0:0|0:0,0:0:0:0:
273,234,122251,2,0,L|347:215,1,70,8|4,0:0|0:0,0:0:0:0:
360,204,122651,1,8,0:0:0:0:
418,128,122851,1,8,0:0:0:0:
414,60,123051,2,0,P|336:27|309:26,2,70,8|4|4,0:0|0:0|0:0,0:0:0:0:
306,45,123651,5,4,0:0:0:0:
226,41,123851,2,0,P|142:84|104:115,1,140,12|12,0:0|0:0,0:0:0:0:
113,176,125051,5,4,0:0:0:0:
168,223,125251,1,4,0:0:0:0:
236,238,125451,2,4,P|351:197|396:172,1,140,12|12,0:0|0:0,0:0:0:0:
256,192,126651,5,8,0:0:0:0:
256,145,126851,1,8,0:0:0:0:
257,103,127051,2,0,L|254:27,1,70,12|0,0:0|0:0,0:0:0:0:
168,32,127851,2,0,L|106:63,1,70,4|8,0:0|0:0,0:0:0:0:
72,117,128451,2,0,L|67:162,2,35,0|8|0,0:0|0:0|0:0,0:0:0:0:
130,148,129051,2,4,L|161:177,1,35
202,200,129451,2,4,L|260:212,1,52.5000020027161,6|4,0:0|0:0,0:0:0:0:
305,205,129851,2,0,L|383:183,1,70,10|8,0:0|0:0,0:0:0:0:
380,73,130251,6,0,P|273:30|205:32,1,140,4|8,0:0|0:0,0:0:0:0:
165,48,130851,1,12,0:0:0:0:
106,107,131051,2,0,P|98:195|111:251,1,140,8|0,0:0|0:0,0:0:0:0:
184,258,131651,1,12,0:0:0:0:
251,193,131851,1,12,0:0:0:0:
307,257,132051,1,4,0:0:0:0:
373,259,132251,6,0,B|365:251|380:180|380:165,1,70,8|4,0:0|0:0,0:0:0:0:
373,259,132651,2,0,P|449:233|455:225,1,70,10|4,0:0|0:0,0:0:0:0:
471,210,133051,2,0,P|499:141|493:112,1,70,14|0,0:0|0:0,0:0:0:0:
186,24,133451,6,0,P|66:103|39:136,1,140,12|8,0:0|0:0,0:0:0:0:
94,156,134051,1,12,0:0:0:0:
155,190,134251,1,12,0:0:0:0:
102,227,134451,1,12,0:0:0:0:
188,255,134651,2,0,P|259:226|283:202,2,70,0|8|0,0:0|0:0|0:0,0:0:0:0:
274,152,135251,2,0,P|275:73|266:57,1,70,8|4,0:0|0:0,0:0:0:0:
129,135,135651,2,0,L|165:211,2,70,0|8|0,0:0|0:0|0:0,0:0:0:0:
115,102,136251,1,8,0:0:0:0:
98,60,136451,1,12,0:0:0:0:
402,138,136651,6,0,P|384:201|333:276,1,140,12|4,0:0|0:0,0:0:0:0:
291,153,137851,5,4,0:0:0:0:
291,153,138051,1,4,0:0:0:0:
110,138,138251,2,0,P|128:201|179:276,1,140,8|4,0:0|0:0,0:0:0:0:
256,191,139451,5,8,0:0:0:0:
255,157,139651,1,8,0:0:0:0:
256,192,139851,12,12,140651,0:0:0:0:
134,151,141451,6,4,P|141:93|144:87,1,35,12|4,0:0|0:0,0:0:0:0:
181,92,141851,2,4,L|242:94,1,35,12|4,0:0|0:0,0:0:0:0:
273,99,142251,2,4,L|317:136,1,52.5000020027161,12|4,0:0|0:0,0:0:0:0:
341,164,142651,2,4,P|346:244|339:260,1,70,12|4,0:0|0:0,0:0:0:0:
256,192,143051,12,12,145451,0:0:0:0:
87,94,149051,6,4,P|121:82|129:85,1,26.2500010013581,12|4,0:0|0:0,0:0:0:0:
161,86,149451,2,4,L|208:84,1,26.2500010013581,12|4,0:0|0:0,0:0:0:0:
245,94,149851,1,8,0:0:0:0:
327,126,150051,1,8,0:0:0:0:
391,197,150251,2,0,L|371:225,1,26.2500010013581,8|0,0:0|0:0,0:0:0:0:
47,256,150651,5,8,0:0:0:0:
112,162,150851,1,8,0:0:0:0:
182,258,151051,2,0,P|231:264|248:256,1,52.5000020027161,12|0,0:0|0:0,0:0:0:0:
281,243,151651,5,12,0:0:0:0:
331,180,151851,1,12,0:0:0:0:
374,98,152051,1,0,0:0:0:0:
333,32,152251,2,8,L|275:21,1,52.5000020027161
211,158,154251,6,4,P|200:198|211:227,1,52.5000020027161
301,158,155051,6,4,P|312:198|301:227,1,52.5000020027161
254,227,155651,1,6,0:0:0:0:
256,192,155851,12,2,158651,0:0:0:0:
