osu file format v14

[General]
AudioFilename: audio.mp3
AudioLeadIn: 0
PreviewTime: 44120
Countdown: 0
SampleSet: Drum
StackLeniency: 0.5
Mode: 0
LetterboxInBreaks: 0
EpilepsyWarning: 1
WidescreenStoryboard: 1

[Editor]
Bookmarks: 431,5673,7421,14411,28392,44120,58100,68586,75576,89557,105285,119265,129751,136741,148974,155964,162955,173440,180430,187421,197906,211887,218824
DistanceSpacing: 0.7
BeatDivisor: 4
GridSize: 4
TimelineZoom: 1.4

[Metadata]
Title:Escape
TitleUnicode:Escape
Artist:XX:me
ArtistUnicode:XX:me
Creator:Mixoss
Version:A Little History.
Source:ダーリン・イン・ザ・フランキス
Tags:02 016 zero two hiro darling in the franXX anime ditf code
BeatmapID:3613463
BeatmapSetID:1765283

[Difficulty]
HPDrainRate:6
CircleSize:4.8
OverallDifficulty:7
ApproachRate:9.4
SliderMultiplier:1.9
SliderTickRate:1

[Events]
//Background and Video events
0,0,"913296.jpg",0,0
//Break Periods
//Storyboard Layer 0 (Background)
//Storyboard Layer 1 (Fail)
//Storyboard Layer 2 (Pass)
//Storyboard Layer 3 (Foreground)
//Storyboard Layer 4 (Overlay)
//Storyboard Sound Samples

[TimingPoints]
431,291.26213592233,6,2,1,40,1,0
722,-100,6,2,1,40,0,0
867,-100,6,2,2,40,0,0
1304,-100,6,2,1,40,0,0
1741,-100,6,2,2,40,0,0
2178,-100,6,2,1,40,0,0
2615,-100,6,2,2,40,0,0
3052,-100,6,2,1,40,0,0
3489,-100,6,2,2,40,0,0
3926,-100,6,2,1,40,0,0
4363,-100,6,2,2,40,0,0
4799,-100,6,2,1,40,0,0
5236,-100,6,2,2,40,0,0
5673,-100,6,3,1,85,0,0
6110,-100,6,3,1,85,0,0
7421,-80,6,3,1,75,0,0
14411,-133.333333333333,6,3,2,75,0,0
16450,-200,6,3,2,75,0,0
17032,-133.333333333333,6,3,2,75,0,0
17906,-100,6,3,2,75,0,0
18343,-133.333333333333,6,3,2,75,0,0
21401,-100,6,3,2,75,0,0
22566,-133.333333333333,6,3,2,75,0,0
24897,-100,6,3,2,75,0,0
26062,-133.333333333333,6,3,2,75,0,0
26644,-133.333333333333,6,3,2,95,0,0
27809,-80,6,3,2,75,0,0
28392,-80,6,3,2,100,0,0
28974,-133.333333333333,6,3,2,100,0,0
33343,-100,6,3,2,100,0,0
34799,-80,6,3,2,100,0,0
35673,-133.333333333333,6,3,2,100,0,0
36256,-100,6,3,2,100,0,0
38877,-80,6,3,2,100,0,0
40625,-100,6,3,2,100,0,0
41207,-133.333333333333,6,3,2,100,0,0
42372,-100,6,3,2,100,0,0
44120,-80,6,3,2,100,0,1
44702,-133.333333333333,6,3,2,100,0,1
44994,-100,6,3,2,100,0,1
45867,-80,6,3,2,100,0,1
46741,-133.333333333333,6,3,2,100,0,1
47178,-100,6,3,2,100,0,1
49508,-133.333333333333,6,3,2,100,0,1
51110,-80,6,3,2,100,0,1
51984,-133.333333333333,6,3,2,100,0,1
52275,-100,6,3,2,100,0,1
52858,-80,6,3,2,100,0,1
53731,-133.333333333333,6,3,2,100,0,1
54605,-100,6,3,2,100,0,1
55479,-133.333333333333,6,3,2,100,0,1
55770,-100,6,3,2,100,0,1
56644,-133.333333333333,6,3,2,100,0,1
58100,-100,6,3,2,95,0,0
58974,-80,6,3,2,95,0,0
60576,-133.333333333333,6,3,2,95,0,0
61159,-100,6,3,2,95,0,0
61596,-133.333333333333,6,3,2,95,0,0
62469,-100,6,3,2,95,0,0
63052,-133.333333333333,6,3,2,95,0,0
65091,-100,6,3,2,95,0,0
65964,-133.333333333333,6,3,2,95,0,0
66256,-100,6,3,2,95,0,0
68586,-133.333333333333,6,3,1,75,0,0
68877,-80,6,3,1,75,0,0
75576,-133.333333333333,6,3,2,85,0,0
76159,-100,6,3,2,85,0,0
78489,-133.333333333333,6,3,2,85,0,0
81693,-100,6,3,2,85,0,0
82566,-133.333333333333,6,3,2,85,0,0
84314,-100,6,3,2,85,0,0
85479,-133.333333333333,6,3,2,85,0,0
88974,-80,6,3,2,85,0,0
90139,-133.333333333333,6,3,2,85,0,0
95091,-100,6,3,2,85,0,0
95964,-80,6,3,2,85,0,0
97130,-133.333333333333,6,3,2,85,0,0
98295,-100,6,3,2,85,0,0
99751,-100,6,3,2,85,0,0
100042,-100,6,3,2,85,0,0
103246,-133.333333333333,6,3,2,85,0,0
105285,-80,6,3,2,100,0,1
107032,-100,6,3,2,100,0,1
107906,-80,6,3,2,100,0,1
108780,-100,6,3,2,100,0,1
111984,-133.333333333333,6,3,2,100,0,1
113149,-100,6,3,2,100,0,1
114023,-133.333333333333,6,3,2,100,0,1
115479,-100,6,3,2,100,0,1
115770,-80,6,3,2,100,0,1
116644,-133.333333333333,6,3,2,100,0,1
118246,-100,6,3,2,100,0,1
119265,-100,6,3,2,95,0,0
120139,-133.333333333333,6,3,2,95,0,0
120722,-100,6,3,2,95,0,0
121887,-133.333333333333,6,3,2,95,0,0
122761,-100,6,3,2,95,0,0
123634,-80,6,3,2,95,0,0
125964,-133.333333333333,6,3,2,95,0,0
127130,-100,6,3,2,95,0,0
129751,-133.333333333333,6,2,3,55,0,0
130625,-200,6,2,3,55,0,0
135867,-133.333333333333,6,2,3,55,0,0
139363,-200,6,2,3,55,0,0
140236,-133.333333333333,6,2,3,55,0,0
141401,-200,6,2,3,55,0,0
142858,-133.333333333333,6,2,3,55,0,0
148974,-100,6,2,3,35,0,0
155964,-200,6,2,3,65,0,0
156838,-181.818181818182,6,2,3,65,0,0
158149,-133.333333333333,6,2,3,65,0,0
159460,-200,6,2,3,65,0,0
160916,-133.333333333333,6,3,2,95,0,0
161498,-100,6,3,2,95,0,0
161790,-80,6,3,2,95,0,0
162955,-100,6,3,2,95,0,0
163829,-80,6,3,2,95,0,0
164702,-100,6,3,2,95,0,0
165576,-80,6,3,2,95,0,0
166450,-100,6,3,2,95,0,0
167324,-80,6,3,2,95,0,0
167761,-133.333333333333,6,3,2,95,0,0
168489,-100,6,3,2,95,0,0
169363,-133.333333333333,6,3,2,95,0,0
173440,-80,6,3,2,100,0,0
173731,-66.6666666666667,6,3,2,100,0,0
174023,-80,6,3,2,100,0,0
174314,-100,6,3,2,100,0,0
175188,-80,6,3,2,100,0,0
176062,-66.6666666666667,6,3,2,100,0,0
176353,-80,6,3,2,100,0,0
176935,-100,6,3,2,100,0,0
177809,-133.333333333333,6,3,2,100,0,0
180430,-100,6,3,2,95,0,1
182178,-133.333333333333,6,3,2,95,0,1
183052,-100,6,3,2,95,0,1
184799,-133.333333333333,6,3,2,95,0,1
185819,-100,6,3,2,95,0,1
187421,-133.333333333333,6,3,2,85,0,0
188586,-100,6,3,2,85,0,0
190042,-133.333333333333,6,3,2,85,0,0
190479,-100,6,3,2,85,0,0
194411,-80,6,3,2,85,0,0
195285,-100,6,3,2,85,0,0
197906,-80,6,3,2,85,0,0
198780,-100,6,3,2,85,0,0
202275,-80,6,3,2,85,0,0
203295,-100,6,3,2,85,0,0
205770,-80,6,3,2,85,0,0
210430,-100,6,3,2,85,0,0
210722,-80,6,3,2,85,0,0
211887,375,4,3,2,95,1,0

[HitObjects]
48,41,431,5,2,0:0:0:0:
71,111,576,1,4,0:0:0:0:
143,138,722,2,0,P|191:211|188:232,3,95,8|2|4|8,0:0|0:0|0:0|0:0,0:0:0:0:
271,123,1304,1,2,0:0:0:0:
345,106,1450,1,4,0:0:0:0:
372,34,1596,2,0,P|421:122|391:156,3,95,8|2|4|8,0:0|0:0|0:0|0:0,0:0:0:0:
413,177,2178,5,2,0:0:0:0:
397,251,2324,1,4,0:0:0:0:
326,223,2469,2,0,L|319:325,3,95,8|2|4|8,0:0|0:0|0:0|0:0,0:0:0:0:
251,282,3052,1,2,0:0:0:0:
180,309,3197,1,4,0:0:0:0:
163,234,3343,2,0,P|113:330|141:360,3,95,8|2|4|8,0:0|0:0|0:0|0:0,0:0:0:0:
87,170,3926,5,2,0:0:0:0:
161,156,4071,1,4,0:0:0:0:
237,151,4217,2,0,L|149:211,3,95,8|2|4|8,0:0|0:0|0:0|0:0,0:0:0:0:
215,254,4799,1,2,0:0:0:0:
282,217,4945,1,4,0:0:0:0:
339,266,5091,2,0,P|347:184|336:166,3,95,8|2|4|8,0:0|0:0|0:0|0:0,0:0:0:0:
443,236,5673,5,8,0:0:0:0:
186,60,5819,1,2,0:0:0:0:
86,289,6110,5,8,0:0:0:0:
251,207,6256,1,8,0:0:0:0:
92,45,6401,1,8,0:0:0:0:
109,141,6547,1,10,0:0:0:0:
221,96,6693,1,8,0:0:0:0:
86,175,6838,1,8,0:0:0:0:
332,242,6984,1,8,0:0:0:0:
50,193,7130,1,8,0:0:0:0:
395,361,7275,1,8,0:0:0:0:
306,49,7421,6,0,P|224:83|237:153,1,118.75,2|0,0:0|0:0,0:0:0:0:
286,111,7712,2,0,P|296:139|379:152,1,118.75,4|0,0:0|0:0,0:0:0:0:
446,221,8003,2,0,L|317:267,1,118.75,4|0,0:0|0:0,0:0:0:0:
230,334,8295,2,0,P|234:242|74:163,2,237.5,8|0|2,0:0|0:0|0:0,0:0:0:0:
148,241,9023,1,0,0:0:0:0:
165,326,9168,6,0,L|7:304,1,118.75,2|0,0:0|0:0,0:0:0:0:
250,260,9460,2,0,P|245:326|290:359,1,118.75,4|0,0:0|0:0,0:0:0:0:
421,312,9751,2,0,P|338:279|280:321,1,118.75,4|0,0:0|0:0,0:0:0:0:
319,67,10042,2,0,P|350:148|518:178,2,237.5,8|0|0,0:0|0:0|0:0,0:0:0:0:
245,152,10770,1,0,0:0:0:0:
64,45,10916,6,0,L|39:190,1,118.75,2|0,0:0|0:0,0:0:0:0:
145,79,11207,2,0,L|120:224,1,118.75,4|0,0:0|0:0,0:0:0:0:
229,117,11498,2,0,L|204:262,1,118.75,4|0,0:0|0:0,0:0:0:0:
100,294,11790,2,0,P|231:314|339:226,2,237.5,8|0|0,0:0|0:0|0:0,0:0:0:0:
208,234,12518,1,0,0:0:0:0:
358,133,12664,6,0,P|283:135|253:188,1,118.75,2|0,0:0|0:0,0:0:0:0:
108,164,12955,2,0,P|184:148|208:75,1,118.75,4|0,0:0|0:0,0:0:0:0:
117,52,13246,2,0,B|24:40|24:40|48:52,1,118.75,4|0,0:0|0:0,0:0:0:0:
474,152,13537,5,8,0:0:0:0:
294,40,13683,1,8,0:0:0:0:
234,237,13829,1,0,0:0:0:0:
323,120,13974,1,0,0:0:0:0:
131,36,14120,1,0,0:0:0:0:
42,202,14265,1,0,0:0:0:0:
183,103,14411,6,0,P|165:172|218:237,1,142.500005435944,6|0,0:0|0:0,0:0:0:0:
347,254,14848,2,0,P|291:244|264:270,1,71.2500027179719
467,215,15139,1,0,0:0:0:0:
388,41,15285,2,0,P|366:73|313:74,1,71.2500027179719,8|0,0:0|0:0,0:0:0:0:
45,191,15576,2,0,L|127:198,1,71.2500027179719
67,262,15867,2,0,L|149:269,1,71.2500027179719,2|0,0:0|0:0,0:0:0:0:
88,333,16159,5,2,0:0:0:0:
305,206,16450,2,0,P|309:240|331:263,1,47.5
252,318,16741,1,0,0:0:0:0:
122,90,17032,2,0,P|162:68|165:32,1,71.2500027179719,8|0,0:0|0:0,0:0:0:0:
338,49,17324,2,0,L|344:119,1,71.2500027179719
409,71,17615,2,0,L|415:141,1,71.2500027179719
511,121,17906,6,0,P|464:119|412:243,1,190,2|0,0:0|0:0,0:0:0:0:
456,275,18343,2,0,P|392:269|379:292,1,71.2500027179719,2|0,0:0|0:0,0:0:0:0:
297,351,18634,1,0,0:0:0:0:
156,98,18780,2,0,L|149:181,1,71.2500027179719,8|0,0:0|0:0,0:0:0:0:
317,243,19071,2,0,L|235:205,1,71.2500027179719
335,333,19363,2,0,L|253:295,1,71.2500027179719,2|0,0:0|0:0,0:0:0:0:
199,270,19654,6,0,P|213:210|138:166,1,142.500005435944,2|0,0:0|0:0,0:0:0:0:
111,320,20091,2,0,L|124:232,1,71.2500027179719
143,86,20382,1,0,0:0:0:0:
416,78,20528,2,0,P|384:114|334:112,1,71.2500027179719,8|0,0:0|0:0,0:0:0:0:
452,190,20819,2,0,P|405:201|365:171,1,71.2500027179719
417,303,21110,2,0,P|373:285|357:237,1,71.2500027179719
266,110,21401,6,0,P|204:19|176:154,1,285,6|0,0:0|0:0,0:0:0:0:
130,172,21984,2,0,P|164:143|205:162,1,95
279,307,22275,2,0,B|218:352|218:352|248:352,1,95,8|0,0:0|0:0,0:0:0:0:
441,219,22566,2,0,L|355:185,1,71.2500027179719
428,137,22858,2,0,L|342:103,1,71.2500027179719,2|0,0:0|0:0,0:0:0:0:
348,27,23149,1,2,0:0:0:0:
193,81,23440,5,0,0:0:0:0:
164,153,23586,5,2,0:0:0:0:
36,184,23731,2,0,P|34:238|63:259,1,71.2500027179719,2|0,0:0|0:0,0:0:0:0:
279,345,24023,2,0,P|281:293|251:264,1,71.2500027179719,8|0,0:0|0:0,0:0:0:0:
418,91,24314,2,0,L|407:170,1,71.2500027179719
486,167,24605,2,0,L|475:246,1,71.2500027179719
390,245,24897,6,0,P|325:185|297:266,1,190,2|0,0:0|0:0,0:0:0:0:
123,284,25333,2,0,P|179:281|209:245,1,95,2|2,0:0|0:0,0:0:0:0:
245,162,25625,1,0,0:0:0:0:
328,39,25770,2,0,P|324:101|354:146,1,95,8|0,0:0|0:0,0:0:0:0:
196,111,26062,2,0,L|105:132,1,71.2500027179719
63,208,26353,2,0,L|133:192,1,71.2500027179719,2|0,0:0|0:0,0:0:0:0:
220,175,26644,5,8,0:0:0:0:
27,24,26790,1,2,0:0:0:0:
111,314,27081,5,2,0:0:0:0:
361,216,27227,1,2,0:0:0:0:
430,48,27518,5,8,0:0:0:0:
463,199,27664,1,8,0:0:0:0:
343,319,27809,2,0,P|412:301|483:331,1,118.75,4|0,0:0|0:0,0:0:0:0:
203,265,28100,2,0,P|129:252|71:299,1,118.75,2|0,0:0|0:0,0:0:0:0:
261,93,28392,5,4,0:0:0:0:
112,72,28683,5,0,0:0:0:0:
152,188,28829,1,0,0:0:0:0:
8,280,28974,6,0,P|72:248|132:292,1,142.500005435944,0|8,0:0|0:0,0:0:0:0:
340,336,29557,1,0,0:0:0:0:
352,232,29702,1,0,0:0:0:0:
440,296,29848,2,0,B|492:264|492:264|460:188,1,142.500005435944,2|2,0:0|0:0,0:0:0:0:
256,28,30430,1,0,0:0:0:0:
184,104,30576,1,0,0:0:0:0:
200,228,30722,2,0,P|248:256|340:212,1,142.500005435944,2|0,0:0|0:0,0:0:0:0:
484,96,31304,1,0,0:0:0:0:
352,132,31450,1,0,0:0:0:0:
216,248,31596,2,0,P|276:232|372:268,1,142.500005435944,0|2,0:0|0:0,0:0:0:0:
88,316,32178,5,0,0:0:0:0:
128,212,32324,1,0,0:0:0:0:
64,116,32469,2,0,P|136:112|204:68,1,142.500005435944,0|8,0:0|0:0,0:0:0:0:
288,272,33052,1,0,0:0:0:0:
336,168,33197,1,0,0:0:0:0:
504,96,33343,2,0,P|480:176|384:160,1,190,0|2,0:0|0:0,0:0:0:0:
188,264,33926,6,0,P|208:200|184:140,1,95
160,48,34217,1,0,0:0:0:0:
452,212,34508,6,0,P|384:224|368:268,1,95,8|0,0:0|0:0,0:0:0:0:
296,308,34799,2,0,B|348:212|348:212|320:80,2,237.5,12|0|4,0:0|0:0|0:0,0:0:0:0:
128,196,35673,2,0,P|72:216|36:208,1,71.2500027179719
220,104,35964,1,2,0:0:0:0:
264,272,36256,2,0,P|372:248|440:284,1,190,8|0,0:0|0:0,0:0:0:0:
480,192,36693,1,0,0:0:0:0:
404,96,36838,2,0,P|324:120|244:60,1,190,2|4,0:0|0:0,0:0:0:0:
256,216,37421,5,0,0:0:0:0:
116,288,37566,1,0,0:0:0:0:
0,192,37712,2,0,P|88:220|188:192,1,190,0|8,0:0|0:0,0:0:0:0:
392,132,38295,2,0,B|404:104|404:64|404:64|432:104,1,95
472,284,38586,1,2,0:0:0:0:
340,248,38877,6,0,P|220:220|88:264,1,237.5,4|0,0:0|0:0,0:0:0:0:
100,64,39314,1,0,0:0:0:0:
20,156,39460,2,0,P|152:160|264:56,1,237.5,2|8,0:0|0:0,0:0:0:0:
368,152,40042,2,0,L|356:288,1,118.75
288,84,40333,1,2,0:0:0:0:
112,148,40625,6,0,P|224:100|284:172,1,190,4|2,0:0|0:0,0:0:0:0:
276,324,41062,1,2,0:0:0:0:
464,232,41207,2,0,P|400:256|372:244,1,71.2500027179719,2|0,0:0|0:0,0:0:0:0:
208,196,41498,5,8,0:0:0:0:
112,148,41644,1,8,0:0:0:0:
80,152,41717,1,8,0:0:0:0:
48,144,41790,1,8,0:0:0:0:
156,52,41935,1,8,0:0:0:0:
296,128,42081,1,8,0:0:0:0:
288,280,42227,1,8,0:0:0:0:
120,332,42372,6,0,P|144:272|136:224,1,95,8|0,0:0|0:0,0:0:0:0:
96,104,42664,1,0,0:0:0:0:
296,316,42809,6,0,P|273:249|229:204,1,95,8|0,0:0|0:0,0:0:0:0:
96,104,43101,1,0,0:0:0:0:
372,144,43246,1,6,0:0:0:0:
167,35,43392,1,0,0:0:0:0:
154,313,43537,1,0,0:0:0:0:
405,220,43683,1,6,0:0:0:0:
232,16,43829,1,0,0:0:0:0:
218,281,43974,1,0,0:0:0:0:
176,276,44120,6,0,P|120:256|44:300,1,118.75,4|0,0:0|0:0,0:0:0:0:
284,212,44411,2,0,L|324:88,1,118.75
152,49,44702,2,0,P|176:88|170:126,1,71.2500027179719
264,256,44994,2,0,B|208:151|208:151|222:46,1,190,8|0,0:0|0:0,0:0:0:0:
350,118,45430,1,0,0:0:0:0:
435,166,45576,2,0,P|371:157|317:186,1,95,2|0,0:0|0:0,0:0:0:0:
136,264,45867,2,0,B|252:296|252:296|364:244,2,237.5
73,180,46596,1,0,0:0:0:0:
163,71,46741,6,0,B|153:105|153:105|161:167,1,71.2500027179719,8|0,0:0|0:0,0:0:0:0:
191,310,47032,1,0,0:0:0:0:
402,240,47178,2,0,P|333:225|276:248,1,95,8|0,0:0|0:0,0:0:0:0:
325,116,47469,1,0,0:0:0:0:
89,159,47615,6,0,P|30:146|-6:108,1,95
272,273,47906,2,0,P|331:286|367:324,1,95
127,79,48197,2,0,P|83:39|71:-11,1,95
229,270,48489,2,0,P|131:308|22:264,1,190,8|0,0:0|0:0,0:0:0:0:
211,172,48926,1,0,0:0:0:0:
309,68,49071,2,0,L|296:198,1,95
274,315,49363,1,2,0:0:0:0:
218,124,49508,1,8,0:0:0:0:
97,77,49654,6,0,P|115:126|142:148,1,71.2500027179719,8|0,0:0|0:0,0:0:0:0:
361,201,49945,1,8,0:0:0:0:
234,263,50091,1,8,0:0:0:0:
256,110,50236,1,2,0:0:0:0:
434,181,50382,1,8,0:0:0:0:
401,202,50455,1,8,0:0:0:0:
361,201,50528,1,8,0:0:0:0:
213,175,50673,5,8,0:0:0:0:
176,189,50746,1,8,0:0:0:0:
152,220,50819,2,0,P|130:253|128:279,1,35.625001358986,10|0,0:0|0:0,0:0:0:0:
96,158,50964,2,0,P|56:154|40:160,1,35.625001358986,2|0,0:0|0:0,0:0:0:0:
106,68,51110,6,0,P|163:71|214:8,1,118.75,6|0,0:0|0:0,0:0:0:0:
346,38,51401,2,0,L|212:73,1,118.75
432,133,51693,2,0,L|280:77,1,118.75
267,253,51984,2,0,B|282:197|282:197|260:208,1,71.2500027179719,8|0,0:0|0:0,0:0:0:0:
32,217,52275,2,0,P|176:189|225:224,1,190
323,309,52712,1,0,0:0:0:0:
433,229,52858,2,0,P|463:171|383:28,2,237.5,2|2|2,0:0|0:0|0:0,0:0:0:0:
326,77,53586,1,0,0:0:0:0:
303,167,53731,6,0,L|207:184,1,71.2500027179719,8|0,0:0|0:0,0:0:0:0:
47,123,54023,1,0,0:0:0:0:
103,256,54168,2,0,L|177:277,1,71.2500027179719,8|0,0:0|0:0,0:0:0:0:
307,308,54460,1,0,0:0:0:0:
178,66,54605,6,0,L|191:194,1,95
103,256,54897,2,0,B|28:284|28:284|44:292,1,95
182,302,55188,2,0,P|123:239|137:171,1,118.75
278,178,55479,6,0,B|333:201|333:201|328:188,1,71.2500027179719,8|0,0:0|0:0,0:0:0:0:
141,91,55770,2,0,P|256:122|321:60,1,190
438,85,56207,2,0,P|388:78|349:119,1,95,0|2,0:0|0:0,0:0:0:0:
408,176,56498,5,8,0:0:0:0:
150,217,56644,2,0,P|204:201|214:167,1,71.2500027179719,8|0,0:0|0:0,0:0:0:0:
281,42,56935,1,8,0:0:0:0:
314,276,57081,2,0,P|330:327|364:340,1,71.2500027179719,8|0,0:0|0:0,0:0:0:0:
295,175,57372,1,8,0:0:0:0:
270,144,57445,1,8,0:0:0:0:
233,129,57518,1,8,0:0:0:0:
71,75,57664,5,8,0:0:0:0:
88,109,57736,1,8,0:0:0:0:
122,127,57809,2,0,P|163:152|166:162,1,35.625001358986,10|0,0:0|0:0,0:0:0:0:
141,219,57955,2,0,P|179:234|193:232,1,35.625001358986,2|0,0:0|0:0,0:0:0:0:
292,294,58100,6,0,P|190:273|105:326,1,190,6|0,0:0|0:0,0:0:0:0:
53,194,58537,1,0,0:0:0:0:
160,136,58683,2,0,B|84:128|84:128|100:144,1,95
229,207,58974,2,0,P|272:168|276:94,1,118.75,8|0,0:0|0:0,0:0:0:0:
280,8,59265,2,0,P|245:54|248:113,1,118.75
360,172,59557,2,0,B|460:140|460:140|456:164,1,118.75
360,276,59848,2,0,B|484:227|484:227|508:104,2,237.5
168,240,60576,6,0,L|72:228,1,71.2500027179719,0|8,0:0|0:0,0:0:0:0:
0,84,60867,5,0,0:0:0:0:
176,112,61013,1,2,0:0:0:0:
320,220,61159,2,0,L|249:228,1,71.2500027179719,8|2,0:0|0:0,0:0:0:0:
504,200,61450,1,0,0:0:0:0:
264,188,61596,6,0,L|280:16,2,142.500005435944
352,80,62324,1,0,0:0:0:0:
236,200,62469,2,0,P|164:244|64:188,1,190,12|0,0:0|0:0,0:0:0:0:
244,256,62906,1,0,0:0:0:0:
435,256,63052,2,0,P|392:248|361:263,1,71.2500027179719
352,122,63343,1,2,0:0:0:0:
224,275,63489,1,8,0:0:0:0:
61,197,63634,6,0,P|104:148|137:147,1,71.2500027179719,8|0,0:0|0:0,0:0:0:0:
268,93,63926,1,8,0:0:0:0:
81,50,64071,2,0,P|106:79|145:82,1,71.2500027179719,8|0,0:0|0:0,0:0:0:0:
235,163,64363,5,8,0:0:0:0:
244,200,64435,1,8,0:0:0:0:
238,238,64508,1,8,0:0:0:0:
63,314,64654,1,8,0:0:0:0:
85,281,64727,1,8,0:0:0:0:
116,258,64799,2,0,P|141:236|146:211,1,35.625001358986,10|0,0:0|0:0,0:0:0:0:
108,168,64945,2,0,P|126:137|149:120,1,35.625001358986,2|0,0:0|0:0,0:0:0:0:
200,120,65091,6,0,B|245:106|245:106|281:29,1,95,6|0,0:0|0:0,0:0:0:0:
340,4,65382,2,0,B|330:50|330:50|383:118,1,95
448,228,65673,2,0,L|338:161,1,95
166,164,65964,2,0,L|256:175,1,71.2500027179719,8|0,0:0|0:0,0:0:0:0:
282,234,66256,2,0,P|218:208|85:279,1,190
175,283,66693,2,0,B|202:351|202:351|204:305,1,95,0|2,0:0|0:0,0:0:0:0:
173,132,66984,6,0,P|124:146|56:125,1,95,8|8,0:0|0:0,0:0:0:0:
327,309,67275,1,2,0:0:0:0:
425,152,67421,2,0,L|442:37,1,95,8|8,0:0|0:0,0:0:0:0:
278,24,67712,5,10,0:0:0:0:
187,229,67858,1,10,0:0:0:0:
7,72,68003,1,10,0:0:0:0:
248,254,68149,1,10,0:0:0:0:
80,52,68295,1,10,0:0:0:0:
9,344,68440,1,10,0:0:0:0:
89,130,68586,6,0,P|96:192|121:216,1,71.2500027179719,2|0,0:0|0:0,0:0:0:0:
299,188,68877,2,0,L|147:99,1,118.75,4|0,0:0|0:0,0:0:0:0:
197,319,69168,2,0,P|174:248|194:170,1,118.75,4|0,0:0|0:0,0:0:0:0:
411,117,69460,1,8,0:0:0:0:
474,288,69751,2,0,L|327:301,1,118.75,4|0,0:0|0:0,0:0:0:0:
298,361,70042,2,0,L|157:278,1,118.75,4|0,0:0|0:0,0:0:0:0:
69,228,70333,2,0,P|181:240|245:114,2,237.5,8|0|2,0:0|0:0|0:0,0:0:0:0:
135,118,71062,1,0,0:0:0:0:
272,78,71207,6,0,L|112:30,1,118.75,2|0,0:0|0:0,0:0:0:0:
369,146,71498,2,0,L|320:0,1,118.75,4|0,0:0|0:0,0:0:0:0:
406,271,71790,2,0,L|454:113,1,118.75,4|0,0:0|0:0,0:0:0:0:
112,235,72081,2,0,P|177:209|331:262,2,237.5,8|0|0,0:0|0:0|0:0,0:0:0:0:
192,117,72809,1,0,0:0:0:0:
254,264,72955,6,0,L|266:104,1,118.75,2|0,0:0|0:0,0:0:0:0:
330,327,73246,2,0,L|342:167,1,118.75,4|0,0:0|0:0,0:0:0:0:
414,368,73537,2,0,L|426:208,1,118.75,4|0,0:0|0:0,0:0:0:0:
453,99,73829,2,0,B|508:167|508:167|499:327,2,237.5,8|0|0,0:0|0:0|0:0,0:0:0:0:
410,183,74557,1,0,0:0:0:0:
278,265,74702,5,8,0:0:0:0:
81,182,74848,1,8,0:0:0:0:
189,17,74994,1,0,0:0:0:0:
328,210,75139,1,0,0:0:0:0:
259,32,75285,1,0,0:0:0:0:
161,282,75430,1,0,0:0:0:0:
92,118,75576,6,0,P|138:122|218:54,1,142.500005435944,4|0,0:0|0:0,0:0:0:0:
291,113,76013,1,0,0:0:0:0:
414,187,76159,2,0,L|294:208,1,95
153,285,76450,2,0,P|213:257|184:131,1,190,8|0,0:0|0:0,0:0:0:0:
271,220,76887,1,0,0:0:0:0:
254,295,77032,2,0,L|448:249,1,190,2|2,0:0|0:0,0:0:0:0:
193,135,77615,6,0,P|131:168|79:152,1,95
36,83,77906,2,0,L|150:106,1,95
359,47,78197,2,0,P|345:99|286:110,1,95,8|0,0:0|0:0,0:0:0:0:
423,161,78489,2,0,L|408:248,1,71.2500027179719
488,217,78780,2,0,L|473:304,1,71.2500027179719
365,305,79071,2,0,B|300:284|300:284|205:319,1,142.500005435944,2|0,0:0|0:0,0:0:0:0:
194,202,79508,1,2,0:0:0:0:
118,113,79654,2,0,L|108:202,1,71.2500027179719
260,49,79945,5,8,0:0:0:0:
351,209,80236,2,0,L|267:188,1,71.2500027179719
299,268,80527,2,0,L|215:247,1,71.2500027179719,2|0,0:0|0:0,0:0:0:0:
111,321,80819,2,0,P|130:271|51:207,1,142.500005435944,2|0,0:0|0:0,0:0:0:0:
152,130,81256,1,2,0:0:0:0:
279,44,81401,2,0,L|270:127,1,71.2500027179719
167,251,81693,6,0,P|237:257|276:227,1,95,8|0,0:0|0:0,0:0:0:0:
326,318,81984,2,0,P|359:268|351:211,1,95
447,171,82275,1,8,0:0:0:0:
338,74,82421,1,8,0:0:0:0:
188,135,82566,2,0,P|236:125|267:138,1,71.2500027179719,4|0,0:0|0:0,0:0:0:0:
134,224,82858,2,0,P|178:246|186:288,1,71.2500027179719
265,345,83149,2,0,P|310:357|344:338,1,71.2500027179719
300,118,83440,2,0,L|281:287,1,142.500005435944,8|0,0:0|0:0,0:0:0:0:
386,238,83877,1,0,0:0:0:0:
512,185,84023,6,0,P|460:163|425:173,1,71.2500027179719
354,60,84314,2,0,P|352:113|227:125,1,190,2|0,0:0|0:0,0:0:0:0:
158,56,84751,1,0,0:0:0:0:
77,107,84897,2,0,P|148:146|161:179,1,95
245,224,85188,2,0,P|195:255|140:236,1,95,8|0,0:0|0:0,0:0:0:0:
60,335,85479,2,0,L|72:246,1,71.2500027179719
139,302,85771,2,0,L|151:213,1,71.2500027179719
281,143,86062,6,0,P|208:162|119:134,1,142.500005435944,2|0,0:0|0:0,0:0:0:0:
86,72,86498,1,0,0:0:0:0:
67,171,86644,2,0,P|119:161|147:175,1,71.2500027179719,2|0,0:0|0:0,0:0:0:0:
153,253,86935,2,0,P|196:258|222:236,1,71.2500027179719,8|0,0:0|0:0,0:0:0:0:
321,237,87227,2,0,B|308:273|308:273|253:283,1,71.2500027179719
421,299,87518,2,0,P|372:321|325:319,1,71.2500027179719
427,153,87809,5,8,0:0:0:0:
156,276,87955,1,2,0:0:0:0:
280,177,88246,5,2,0:0:0:0:
9,54,88392,1,2,0:0:0:0:
294,290,88683,5,8,0:0:0:0:
404,217,88829,1,8,0:0:0:0:
348,87,88974,2,0,P|293:80|227:122,1,118.75
0,242,89265,2,0,P|71:231|132:151,1,118.75
84,27,89557,5,4,0:0:0:0:
189,148,89848,5,0,0:0:0:0:
253,218,89994,1,0,0:0:0:0:
216,305,90139,2,0,P|140:326|64:284,1,142.500005435944,0|8,0:0|0:0,0:0:0:0:
33,187,90722,5,0,0:0:0:0:
58,71,90867,1,0,0:0:0:0:
170,33,91013,2,0,P|239:36|286:86,1,142.500005435944,0|2,0:0|0:0,0:0:0:0:
272,246,91596,1,0,0:0:0:0:
306,127,91741,1,0,0:0:0:0:
425,72,91887,2,0,P|428:135|370:213,1,142.500005435944,0|8,0:0|0:0,0:0:0:0:
205,187,92469,1,0,0:0:0:0:
85,231,92615,1,0,0:0:0:0:
23,344,92761,2,0,P|102:357|167:294,1,142.500005435944,0|2,0:0|0:0,0:0:0:0:
281,85,93343,5,0,0:0:0:0:
392,135,93489,1,0,0:0:0:0:
450,237,93634,2,0,P|428:276|322:261,1,142.500005435944,0|8,0:0|0:0,0:0:0:0:
201,89,94217,1,0,0:0:0:0:
215,195,94363,1,0,0:0:0:0:
146,276,94508,2,0,P|76:303|3:267,1,142.500005435944,0|2,0:0|0:0,0:0:0:0:
158,139,95091,2,0,P|219:126|286:147,1,95
377,185,95382,1,8,0:0:0:0:
274,335,95673,6,0,P|285:259|258:215,1,95,8|0,0:0|0:0,0:0:0:0:
0,277,95964,2,0,P|58:246|230:289,2,237.5,4|2|4,0:0|0:0|0:0,0:0:0:0:
169,49,96838,1,0,0:0:0:0:
129,138,96984,1,0,0:0:0:0:
333,181,97130,2,0,P|287:166|179:191,1,142.500005435944,2|8,0:0|0:0,0:0:0:0:
127,354,97712,2,0,P|135:309|120:254,1,71.2500027179719
106,167,98003,1,2,0:0:0:0:
256,272,98295,6,0,L|454:239,1,190,4|0,0:0|0:0,0:0:0:0:
484,152,98731,1,0,0:0:0:0:
427,70,98877,2,0,P|417:139|291:131,1,190,2|8,0:0|0:0,0:0:0:0:
121,67,99460,1,0,0:0:0:0:
191,138,99605,1,0,0:0:0:0:
244,247,99751,2,0,P|307:278|427:261,1,190,4|6,0:0|0:0,0:0:0:0:
358,114,100333,1,0,0:0:0:0:
264,171,100479,1,0,0:0:0:0:
56,199,100625,2,0,P|120:208|193:333,1,190,0|8,0:0|0:0,0:0:0:0:
216,137,101207,6,0,P|220:192|185:242,1,95
179,34,101498,1,2,0:0:0:0:
499,118,101790,2,0,P|434:94|316:148,1,190,2|0,0:0|0:0,0:0:0:0:
258,218,102227,1,0,0:0:0:0:
151,258,102372,2,0,P|79:276|34:256,1,95
10,142,102664,1,8,0:0:0:0:
77,56,102809,5,8,0:0:0:0:
113,45,102882,1,8,0:0:0:0:
149,55,102955,1,8,0:0:0:0:
215,119,103100,1,8,0:0:0:0:
271,299,103246,2,0,P|260:251|277:203,1,71.2500027179719,8|0,0:0|0:0,0:0:0:0:
411,62,103537,5,2,0:0:0:0:
363,226,103683,1,0,0:0:0:0:
145,215,103829,1,0,0:0:0:0:
250,106,103974,1,8,0:0:0:0:
203,289,104120,1,0,0:0:0:0:
3,322,104265,1,0,0:0:0:0:
95,135,104411,5,8,0:0:0:0:
245,217,104557,1,8,0:0:0:0:
275,241,104630,1,8,0:0:0:0:
313,246,104702,1,8,0:0:0:0:
459,162,104848,1,8,0:0:0:0:
164,192,104994,1,8,0:0:0:0:
229,27,105139,5,0,0:0:0:0:
230,317,105285,2,0,P|178:360|119:328,1,118.75,0|0,0:3|0:3,0:3:0:0:
273,151,105576,2,0,L|407:82,1,118.75
133,253,105867,2,0,L|27:307,1,118.75
164,188,106159,6,0,B|127:78|127:78|-17:38,2,237.5,8|2|0,0:0|0:0|0:0,0:0:0:0:
257,101,106887,1,0,0:0:0:0:
374,169,107032,2,0,L|246:194,1,95
394,278,107324,2,0,L|267:246,1,95
303,354,107615,2,0,L|201:272,1,95
62,218,107906,6,0,P|151:226|177:86,1,237.5,8|0,0:0|0:0,0:0:0:0:
306,185,108343,2,0,L|264:330,1,118.75,8|0,0:0|0:0,0:0:0:0:
242,154,108634,1,0,0:0:0:0:
328,89,108780,2,0,P|387:50|394:13,1,95,4|0,0:0|0:0,0:0:0:0:
379,155,109071,2,0,P|448:144|470:114,1,95
380,240,109363,2,0,P|447:260|480:241,1,95
262,306,109654,6,0,P|283:247|175:200,2,190,8|0|0,0:0|0:0|0:0,0:0:0:0:
132,269,110382,1,0,0:0:0:0:
17,207,110528,1,0,0:0:0:0:
127,135,110673,2,0,P|182:165|220:146,1,95,8|8,0:0|0:0,0:0:0:0:
283,47,110964,1,0,0:0:0:0:
98,66,111110,2,0,L|-14:77,1,95,8|8,0:0|0:0,0:0:0:0:
256,130,111401,1,0,0:0:0:0:
255,277,111547,5,8,0:0:0:0:
280,290,111620,1,8,0:0:0:0:
293,315,111693,1,8,0:0:0:0:
416,298,111838,1,8,0:0:0:0:
389,288,111911,1,8,0:0:0:0:
366,270,111984,2,0,P|348:250|346:236,1,35.625001358986,10|0,0:0|0:0,0:0:0:0:
394,128,112130,2,0,P|410:163|407:177,1,35.625001358986,2|0,0:0|0:0,0:0:0:0:
300,169,112275,6,0,L|310:7,2,142.500005435944,2|0|0,0:0|0:0|0:0,0:0:0:0:
179,210,113003,1,0,0:0:0:0:
57,248,113149,2,0,P|139:232|227:313,1,190,8|0,0:0|0:0,0:0:0:0:
334,250,113586,5,0,0:0:0:0:
347,161,113731,2,0,P|317:216|258:209,1,95
189,140,114023,6,0,L|162:56,1,71.2500027179719
103,117,114314,2,0,L|76:33,1,71.2500027179719
20,99,114605,2,0,L|-7:15,1,71.2500027179719
58,251,114897,2,0,P|107:225|125:144,1,142.500005435944,8|0,0:0|0:0,0:0:0:0:
225,180,115333,1,8,0:0:0:0:
326,221,115479,2,0,P|286:242|228:248,1,95
152,283,115770,2,0,B|260:279|260:279|391:343,2,237.5,6|0|0,0:0|0:0|0:0,0:0:0:0:
391,235,116498,1,0,0:0:0:0:
466,94,116644,6,0,L|424:185,1,71.2500027179719,8|0,0:0|0:0,0:0:0:0:
356,96,116935,2,0,P|321:119|266:111,1,71.2500027179719
236,49,117227,2,0,P|220:87|170:112,1,71.2500027179719
46,144,117518,1,2,0:0:0:0:
253,243,117664,5,8,0:0:0:0:
31,297,117809,2,0,P|20:251|36:208,1,71.2500027179719,8|0,0:0|0:0,0:0:0:0:
176,57,118100,1,8,0:0:0:0:
293,349,118246,2,0,P|303:303|292:257,1,95,8|0,0:0|0:0,0:0:0:0:
90,97,118537,5,8,0:0:0:0:
109,124,118610,1,8,0:0:0:0:
142,127,118683,1,8,0:0:0:0:
287,118,118829,1,8,0:0:0:0:
266,143,118901,1,8,0:0:0:0:
260,175,118974,6,0,P|262:213|274:227,1,47.5,10|0,0:0|0:0,0:0:0:0:
357,244,119120,2,0,P|355:284|345:298,1,47.5,2|0,0:0|0:0,0:0:0:0:
330,165,119265,6,0,P|385:172|436:129,1,95,6|0,0:0|0:0,0:0:0:0:
512,76,119557,2,0,L|507:186,1,95
412,329,119848,2,0,P|423:281|394:228,1,95
316,100,120139,6,0,L|375:248,1,142.500005435944,8|0,0:0|0:0,0:0:0:0:
350,277,120576,1,0,0:0:0:0:
493,211,120722,2,0,P|461:228|400:204,1,95
227,126,121013,2,0,P|309:102|409:135,2,190,2|0|0,0:0|0:0|0:0,0:0:0:0:
101,159,121741,1,0,0:0:0:0:
180,234,121887,6,0,P|141:232|96:257,1,71.2500027179719,8|0,0:0|0:0,0:0:0:0:
331,304,122178,1,0,0:0:0:0:
417,211,122324,2,0,P|457:204|491:216,1,71.2500027179719,8|0,0:0|0:0,0:0:0:0:
378,76,122615,5,0,0:0:0:0:
256,30,122761,6,0,P|209:96|248:203,2,190,12|0|0,0:0|0:0|0:0,0:0:0:0:
87,167,123489,1,0,0:0:0:0:
8,283,123634,2,0,P|69:263|253:314,2,237.5,8|0|0,0:0|0:0|0:0,0:0:0:0:
134,151,124363,1,0,0:0:0:0:
201,39,124508,5,0,0:0:0:0:
341,122,124654,2,0,P|412:119|464:72,1,118.75,8|8,0:0|0:0,0:0:0:0:
250,207,124945,1,0,0:0:0:0:
136,257,125091,2,0,P|68:260|16:299,1,118.75,8|8,0:0|0:0,0:0:0:0:
211,328,125382,1,2,0:0:0:0:
339,283,125528,5,8,0:0:0:0:
362,256,125600,1,8,0:0:0:0:
366,220,125673,1,8,0:0:0:0:
307,113,125819,1,8,0:0:0:0:
283,139,125892,1,8,0:0:0:0:
275,173,125964,2,0,P|278:212|285:221,1,35.625001358986,10|0,0:0|0:0,0:0:0:0:
184,133,126110,2,0,P|189:95|182:80,1,35.625001358986,2|0,0:0|0:0,0:0:0:0:
165,229,126256,6,0,P|121:240|69:219,1,71.2500027179719,2|0,0:0|0:0,0:0:0:0:
238,282,126547,2,0,P|210:320|164:320,1,71.2500027179719
338,280,126838,2,0,P|340:331|317:356,1,71.2500027179719
274,132,127130,2,0,L|402:162,1,95,8|0,0:0|0:0,0:0:0:0:
189,107,127421,2,0,P|243:107|281:38,1,95
454,67,127712,2,0,P|441:119|496:265,1,190,0|2,0:0|0:0,0:0:0:0:
255,235,128149,5,8,0:0:0:0:
130,207,128295,2,0,P|78:194|10:216,1,95,8|0,0:0|0:0,0:0:0:0:
381,87,128586,1,8,0:0:0:0:
333,268,128731,1,8,0:0:0:0:
317,159,128877,5,2,0:0:0:0:
113,291,129023,1,0,0:0:0:0:
75,55,129168,1,2,0:0:0:0:
284,222,129314,1,2,0:0:0:0:
17,156,129460,1,2,0:0:0:0:
253,20,129605,1,0,0:0:0:0:
158,355,129751,6,0,P|176:321|285:310,1,142.500005435944,2|0,0:0|0:0,0:0:0:0:
401,275,130188,1,0,0:0:0:0:
449,197,130333,1,0,0:0:0:0:
282,114,130625,6,0,L|168:133,1,95,2|0,0:0|0:0,0:0:0:0:
31,61,131062,1,0,0:0:0:0:
46,151,131207,1,0,0:0:0:0:
115,236,131498,5,0,0:0:0:0:
142,261,131644,1,0,0:0:0:0:
179,269,131790,1,0,0:0:0:0:
252,247,131935,1,0,0:0:0:0:
271,214,132081,1,0,0:0:0:0:
268,176,132227,1,0,0:0:0:0:
214,86,132372,6,0,P|266:93|304:70,2,95,0|0|2,0:0|0:0|0:0,0:0:0:0:
392,143,133246,2,0,L|296:108,1,95,2|0,0:0|0:0,0:0:0:0:
313,208,133683,5,0,0:0:0:0:
293,291,133829,1,0,0:0:0:0:
51,248,134120,2,0,P|99:226|154:252,1,95
195,319,134557,1,0,0:0:0:0:
216,240,134702,2,0,L|158:218,1,47.5
138,98,134994,5,0,0:0:0:0:
220,119,135139,1,0,0:0:0:0:
277,182,135285,1,0,0:0:0:0:
401,292,135430,1,0,0:0:0:0:
372,210,135576,1,0,0:0:0:0:
400,128,135722,1,0,0:0:0:0:
295,64,135867,6,0,P|349:72|376:51,1,71.2500027179719,8|0,0:0|0:0,0:0:0:0:
419,20,136159,1,0,0:0:0:0:
446,22,136231,1,0,0:0:0:0:
454,45,136304,1,0,0:0:0:0:
492,127,136450,2,0,L|344:105,1,142.500005435944,2|6,0:0|0:0,0:0:0:0:
76,110,137178,5,0,0:0:0:0:
91,194,137324,1,2,0:0:0:0:
293,232,137615,2,0,B|252:220|252:220|171:284,1,142.500005435944,8|0,0:0|0:0,0:0:0:0:
386,336,138052,1,0,0:0:0:0:
399,236,138197,2,0,P|442:243|480:206,1,71.2500027179719,2|0,0:0|0:0,0:0:0:0:
412,117,138489,5,0,0:0:0:0:
324,55,138634,1,0,0:0:0:0:
217,65,138780,1,0,0:0:0:0:
90,230,138926,1,0,0:0:0:0:
190,263,139071,1,0,0:0:0:0:
273,195,139217,1,0,0:0:0:0:
119,116,139363,6,0,L|9:96,2,95,8|0|0,0:0|0:0|0:0,0:0:0:0:
261,258,140236,2,0,P|320:279|411:227,1,142.500005435944,2|0,0:0|0:0,0:0:0:0:
377,154,140673,1,0,0:0:0:0:
305,89,140819,2,0,P|273:144|283:179,1,71.2500027179719,2|0,0:0|0:0,0:0:0:0:
277,292,141110,6,0,P|243:313|206:306,1,71.2500027179719,8|0,0:0|0:0,0:0:0:0:
22,270,141401,2,0,P|65:249|124:263,1,95,0|2,0:0|0:0,0:0:0:0:
316,229,141984,2,0,P|237:223|223:201,1,95,12|0,0:0|0:0,0:0:0:0:
201,132,142421,1,0,0:0:0:0:
101,71,142566,2,0,L|108:134,1,47.5
318,45,142858,6,0,P|253:28|184:56,2,142.500005435944,8|0|2,0:0|0:0|0:0,0:0:0:0:
351,169,143731,2,0,L|367:72,1,71.2500027179719,2|0,0:0|0:0,0:0:0:0:
459,218,144023,2,0,P|363:205|308:242,1,142.500005435944
163,292,144605,2,0,P|202:263|167:158,1,142.500005435944,12|0,0:0|0:0,0:0:0:0:
63,140,145188,2,0,P|103:154|137:129,1,71.2500027179719
242,96,145479,6,0,L|231:174,1,71.2500027179719,4|0,0:0|0:0,0:0:0:0:
268,308,145770,2,0,L|277:237,1,71.2500027179719
473,219,146062,2,0,P|429:230|326:179,1,142.500005435944,0|8,0:0|0:0,0:0:0:0:
194,61,146644,2,0,L|295:81,1,71.2500027179719
361,118,146935,2,0,P|317:109|231:172,1,142.500005435944,2|0,0:0|0:0,0:0:0:0:
133,182,147372,1,0,0:0:0:0:
0,249,147518,6,0,P|30:259|94:164,1,142.500005435944
185,47,148100,2,0,P|179:92|200:146,1,71.2500027179719,8|0,0:0|0:0,0:0:0:0:
327,139,148392,2,0,P|283:142|258:173,1,71.2500027179719
424,283,148683,2,0,P|389:259|354:265,1,71.2500027179719
256,84,148974,5,0,0:0:0:0:
228,44,149120,1,0,0:0:0:0:
188,20,149265,1,0,0:0:0:0:
140,24,149411,1,0,0:0:0:0:
96,44,149557,1,0,0:0:0:0:
76,88,149702,1,0,0:0:0:0:
256,84,149848,5,0,0:0:0:0:
284,44,149994,1,0,0:0:0:0:
324,20,150139,1,0,0:0:0:0:
372,24,150285,1,0,0:0:0:0:
416,44,150431,1,0,0:0:0:0:
436,88,150576,1,0,0:0:0:0:
76,136,150722,5,0,0:0:0:0:
96,180,150868,1,0,0:0:0:0:
128,216,151013,1,0,0:0:0:0:
172,236,151159,1,0,0:0:0:0:
208,264,151304,1,0,0:0:0:0:
236,304,151450,1,0,0:0:0:0:
436,136,151596,5,0,0:0:0:0:
416,180,151742,1,0,0:0:0:0:
384,216,151887,1,0,0:0:0:0:
340,236,152033,1,0,0:0:0:0:
304,264,152178,1,0,0:0:0:0:
276,304,152324,1,0,0:0:0:0:
260,348,152470,5,0,0:0:0:0:
184,296,152615,1,0,0:0:0:0:
100,272,152761,1,0,0:0:0:0:
64,196,152906,1,0,0:0:0:0:
4,152,153052,1,0,0:0:0:0:
4,68,153197,1,0,0:0:0:0:
252,348,153343,5,0,0:0:0:0:
328,296,153488,1,0,0:0:0:0:
412,272,153634,1,0,0:0:0:0:
448,196,153779,1,0,0:0:0:0:
508,152,153925,1,0,0:0:0:0:
508,68,154070,1,0,0:0:0:0:
264,348,154217,5,0,0:0:0:0:
180,332,154363,1,0,0:0:0:0:
96,336,154508,1,0,0:0:0:0:
16,364,154654,1,0,0:0:0:0:
60,292,154799,1,0,0:0:0:0:
28,212,154945,1,0,0:0:0:0:
248,348,155091,5,0,0:0:0:0:
332,332,155237,5,0,0:0:0:0:
416,336,155382,5,0,0:0:0:0:
496,364,155528,5,0,0:0:0:0:
452,292,155673,5,0,0:0:0:0:
484,212,155819,5,0,0:0:0:0:
396,144,155964,6,0,P|304:132|248:252,1,237.5
48,252,156838,2,0,B|112:220|176:252|176:252|240:284|304:252,1,261.250007972718
80,168,157712,2,0,P|116:184|176:160,1,104.500003189087
248,56,158149,2,0,L|236:144,1,71.2500027179719
472,192,158586,2,0,P|384:100|320:268,1,356.25001358986
32,128,159460,2,0,B|128:96|224:128|224:224|224:224|192:128|256:64,1,427.5
356,144,160916,6,0,P|308:152|284:128,1,71.2500027179719
140,116,161207,6,0,P|168:184|164:192,1,71.2500027179719
52,208,161498,6,0,P|96:236|156:224,1,95
152,320,161790,2,0,P|224:312|264:240,1,118.75
424,228,162081,2,0,B|344:168|344:168|208:240,1,237.5,8|8,0:0|0:0,0:0:0:0:
240,64,162664,1,0,0:0:0:0:
140,228,162955,2,0,L|116:120,1,95,4|0,0:0|0:0,0:0:0:0:
136,328,163246,2,0,L|54:253,1,95
336,308,163537,2,0,L|226:293,1,95
312,208,163829,6,0,P|352:112|260:24,2,237.5,8|0|0,0:0|0:0|0:0,0:0:0:0:
432,200,164557,1,0,0:0:0:0:
324,132,164702,2,0,L|204:152,1,95
200,80,164994,2,0,L|90:27,1,95
168,216,165285,2,0,L|108:110,1,95
128,280,165576,6,0,P|208:240|352:304,1,237.5,8|0,0:0|0:0,0:0:0:0:
436,128,166013,1,8,0:0:0:0:
264,56,166159,1,2,0:0:0:0:
344,216,166304,1,2,0:0:0:0:
196,148,166450,6,0,P|140:176|72:152,1,95,12|0,0:0|0:0,0:0:0:0:
240,256,166741,2,0,P|216:304|176:328,1,95
372,276,167032,2,0,P|376:332|352:376,1,95
436,204,167324,2,0,P|344:184|276:292,1,237.5,12|0,0:0|0:0,0:0:0:0:
140,232,167761,2,0,P|196:248|216:232,1,71.2500027179719
264,156,168052,5,0,0:0:0:0:
192,36,168197,2,0,P|184:100|160:112,1,71.2500027179719,4|0,0:0|0:0,0:0:0:0:
12,192,168489,6,0,P|76:176|116:208,1,95,8|0,0:0|0:0,0:0:0:0:
320,288,168780,2,0,P|268:300|216:280,1,95,8|0,0:0|0:0,0:0:0:0:
260,68,169071,1,8,0:0:0:0:
200,204,169217,1,8,0:0:0:0:
428,112,169363,2,0,L|496:60,1,71.2500027179719,2|2,0:0|0:0,0:0:0:0:
316,216,169654,2,0,L|320:296,1,71.2500027179719,2|2,0:0|0:0,0:0:0:0:
304,36,169945,5,4,0:0:0:0:
152,216,170091,1,0,0:0:0:0:
160,24,170236,5,0,0:0:0:0:
164,296,170382,1,8,0:0:0:0:
336,200,170528,5,0,0:0:0:0:
32,180,170673,1,0,0:0:0:0:
260,88,170819,2,0,P|248:144|256:184,1,71.2500027179719,4|0,0:0|0:0,0:0:0:0:
280,352,171110,1,0,0:0:0:0:
476,248,171256,2,0,P|436:260|396:260,1,71.2500027179719,4|0,0:0|0:0,0:0:0:0:
112,160,171547,1,0,0:0:0:0:
384,148,171693,5,2,0:0:0:0:
220,316,171838,1,0,0:0:0:0:
116,64,171984,1,0,0:0:0:0:
392,100,172130,1,8,0:0:0:0:
172,340,172275,1,0,0:0:0:0:
148,24,172421,1,0,0:0:0:0:
472,244,172566,1,8,0:0:0:0:
128,304,172712,1,8,0:0:0:0:
96,304,172785,1,8,0:0:0:0:
68,316,172858,1,8,0:0:0:0:
164,152,173003,5,8,0:0:0:0:
360,268,173149,1,2,0:0:0:0:
400,28,173295,1,2,0:0:0:0:
200,340,173440,6,0,B|220:264|220:264|184:200,1,118.75,10|0,0:0|0:0,0:0:0:0:
7,105,173731,2,0,B|75:99|75:99|78:95|78:95|83:98|83:98|178:90,1,142.500005435944,10|0,0:0|0:0,0:0:0:0:
340,56,174023,2,0,P|380:116|336:188,1,118.75,10|0,0:0|0:0,0:0:0:0:
196,232,174314,2,0,L|-18:253,1,190,12|0,0:0|0:0,0:0:0:0:
208,144,174751,1,8,0:0:0:0:
436,264,174897,2,0,L|312:316,1,95,8|0,0:0|0:0,0:0:0:0:
432,28,175188,6,0,P|380:244|200:48,1,593.75,12|0,0:0|0:0,0:0:0:0:
0,200,176062,2,0,B|64:184|64:184|64:192|64:192|160:168,1,142.500005435944,8|0,0:0|0:0,0:0:0:0:
176,268,176353,2,0,P|156:196|200:144,1,118.75,8|0,0:0|0:0,0:0:0:0:
424,284,176644,2,0,L|268:332,1,118.75,8|0,0:0|0:0,0:0:0:0:
130,175,176935,2,0,P|206:215|316:156,1,190,12|0,0:0|0:0,0:0:0:0:
348,60,177372,1,8,0:0:0:0:
381,191,177518,2,0,P|345:167|282:202,1,95,8|0,0:0|0:0,0:0:0:0:
240,308,177809,6,0,B|264:168|264:168|232:88,1,213.750008153916,12|0,0:0|0:0,0:0:0:0:
60,20,178392,1,8,0:0:0:0:
148,244,178683,5,8,0:0:0:0:
226,105,178829,1,8,0:0:0:0:
0,160,178974,2,0,P|40:176|80:168,1,71.2500027179719,8|0,0:0|0:0,0:0:0:0:
320,16,179265,1,8,0:0:0:0:
352,216,179411,2,0,L|372:128,1,71.2500027179719,8|0,0:0|0:0,0:0:0:0:
328,312,179702,5,8,0:0:0:0:
292,324,179775,1,8,0:0:0:0:
252,320,179848,1,8,0:0:0:0:
124,256,179994,1,8,0:0:0:0:
160,240,180066,1,8,0:0:0:0:
196,252,180139,2,0,P|232:264|244:256,1,35.625001358986,10|0,0:0|0:0,0:0:0:0:
328,192,180285,2,0,P|288:184|280:192,1,35.625001358986,2|0,0:0|0:0,0:0:0:0:
240,104,180430,6,0,P|184:132|84:60,2,190,2|0|0,0:0|0:0|0:0,0:0:0:0:
316,12,181159,1,0,0:0:0:0:
460,92,181304,2,0,P|396:92|368:216,1,190,8|0,0:0|0:0,0:0:0:0:
420,304,181741,1,0,0:0:0:0:
116,220,181887,6,0,L|228:252,1,95
376,140,182178,6,0,L|368:228,1,71.2500027179719
300,148,182469,2,0,L|306:77,1,71.2500027179719
224,120,182761,2,0,L|216:208,1,71.2500027179719
292,256,183052,2,0,P|216:292|128:232,1,190,8|0,0:0|0:0,0:0:0:0:
72,304,183489,1,8,0:0:0:0:
16,84,183634,2,0,L|28:216,1,95,8|0,0:0|0:0,0:0:0:0:
124,152,183926,6,0,P|164:104|104:8,2,190,4|0|0,0:0|0:0|0:0,0:0:0:0:
152,276,184654,1,0,0:0:0:0:
264,224,184799,2,0,L|356:196,1,71.2500027179719,8|0,0:0|0:0,0:0:0:0:
436,243,185091,2,0,L|367:263,1,71.2500027179719
408,324,185382,2,0,L|500:296,1,71.2500027179719
476,144,185673,5,8,0:0:0:0:
300,88,185819,2,0,P|228:72|168:96,2,95,8|0|0,0:0|0:0|0:0,0:0:0:0:
0,118,186256,1,8,0:0:0:0:
89,223,186401,2,0,L|101:335,1,95,8|0,0:0|0:0,0:0:0:0:
344,192,186693,5,8,0:0:0:0:
308,184,186765,1,8,0:0:0:0:
272,192,186838,1,8,0:0:0:0:
212,312,186984,1,8,0:0:0:0:
248,320,187057,1,8,0:0:0:0:
284,312,187130,2,0,P|320:300|336:280,1,47.5,10|0,0:0|0:0,0:0:0:0:
400,224,187275,2,0,P|432:216|452:220,1,47.5,2|0,0:0|0:0,0:0:0:0:
392,80,187421,6,0,L|304:64,1,71.2500027179719,2|0,0:0|0:0,0:0:0:0:
312,140,187712,2,0,L|224:124,1,71.2500027179719
168,184,188003,2,0,B|224:196|224:196|208:184,1,71.2500027179719
112,104,188295,2,0,L|24:88,1,71.2500027179719,8|0,0:0|0:0,0:0:0:0:
112,176,188586,2,0,L|128:372,1,190,2|0,0:0|0:0,0:0:0:0:
208,304,189023,1,0,0:0:0:0:
384,316,189168,2,0,P|296:292|228:368,2,190,2|0|0,0:0|0:0|0:0,0:0:0:0:
416,200,189897,5,0,0:0:0:0:
312,136,190042,2,0,P|364:136|392:104,1,71.2500027179719,8|0,0:0|0:0,0:0:0:0:
440,20,190333,1,0,0:0:0:0:
224,72,190479,2,0,L|124:100,1,95,8|0,0:0|0:0,0:0:0:0:
72,192,190770,1,0,0:0:0:0:
192,172,190916,2,0,L|148:360,2,190,6|0|0,0:0|0:0|0:0,0:0:0:0:
328,136,191644,1,0,0:0:0:0:
428,192,191790,6,0,P|376:208|344:280,1,95,12|0,0:0|0:0,0:0:0:0:
256,280,192081,2,0,L|216:68,1,190,2|0,0:0|0:0,0:0:0:0:
120,28,192518,1,0,0:0:0:0:
104,224,192664,2,0,P|92:292|68:328,1,95,2|8,0:0|0:0,0:0:0:0:
48,88,192955,2,0,P|104:112|220:44,1,190,8|8,0:0|0:0,0:0:0:0:
344,92,193392,2,0,P|292:92|264:140,1,95,8|2,0:0|0:0,0:0:0:0:
200,192,193683,5,8,0:0:0:0:
216,224,193756,1,8,0:0:0:0:
212,256,193829,1,8,0:0:0:0:
288,348,193974,1,8,0:0:0:0:
280,316,194047,1,8,0:0:0:0:
296,284,194120,2,0,P|308:264|312:236,1,47.5,10|0,0:0|0:0,0:0:0:0:
292,132,194265,2,0,P|296:96|312:68,1,47.5,2|0,0:0|0:0,0:0:0:0:
476,168,194411,6,0,P|368:148|260:220,2,237.5,6|0|0,0:0|0:0|0:0,0:0:0:0:
376,236,195139,1,0,0:0:0:0:
220,324,195285,2,0,P|164:336|104:324,1,95,8|0,0:0|0:0,0:0:0:0:
4,224,195576,1,0,0:0:0:0:
128,40,195722,1,0,0:0:0:0:
256,232,195867,2,0,P|268:184|255:119,1,95
64,128,196159,5,8,0:0:0:0:
312,44,196304,1,8,0:0:0:0:
160,276,196450,2,0,P|216:264|284:288,1,95,8|0,0:0|0:0,0:0:0:0:
500,316,196741,2,0,P|440:324|392:308,1,95,10|0,0:0|0:0,0:0:0:0:
300,240,197032,5,2,0:0:0:0:
192,16,197178,1,2,0:0:0:0:
424,40,197324,1,2,0:0:0:0:
216,312,197469,1,2,0:0:0:0:
256,0,197615,1,2,0:0:0:0:
496,132,197761,1,2,0:0:0:0:
132,192,197906,6,0,P|80:172|16:188,1,118.75,4|0,0:0|0:0,0:0:0:0:
244,160,198197,1,0,0:0:0:0:
116,80,198343,1,0,0:0:0:0:
348,192,198489,2,0,B|344:132|344:132|296:76,1,118.75
188,260,198780,2,0,L|384:212,1,190,8|0,0:0|0:0,0:0:0:0:
456,316,199217,1,0,0:0:0:0:
504,232,199363,2,0,L|319:277,1,190
96,168,199799,5,8,0:0:0:0:
256,56,199945,2,0,P|232:104|164:112,1,95,8|0,0:0|0:0,0:0:0:0:
352,24,200236,5,8,0:0:0:0:
248,304,200382,1,8,0:0:0:0:
48,116,200528,2,0,P|92:96|148:120,1,95,6|0,0:0|0:0,0:0:0:0:
288,248,200819,1,6,0:0:0:0:
444,192,200964,1,8,0:0:0:0:
454,160,201037,1,8,0:0:0:0:
462,127,201110,1,8,0:0:0:0:
312,4,201256,5,0,0:0:0:0:
48,116,201401,2,0,P|64:184|180:208,1,190
332,192,201838,1,0,0:0:0:0:
492,288,201984,2,0,P|424:276|384:308,1,95
288,304,202275,2,0,L|432:236,1,118.75
256,176,202566,2,0,P|324:148|352:0,2,237.5,0|0|2,0:0|0:0|0:0,0:0:0:0:
152,112,203295,5,8,0:0:0:0:
40,224,203440,2,0,L|24:336,1,95,8|0,0:0|0:0,0:0:0:0:
260,216,203731,6,0,L|273:121,1,95,8|0,0:0|0:0,0:0:0:0:
408,72,204023,1,2,0:0:0:0:
460,232,204168,5,8,0:0:0:0:
424,244,204241,1,8,0:0:0:0:
388,228,204314,1,8,0:0:0:0:
232,300,204460,1,8,0:0:0:0:
268,288,204532,1,8,0:0:0:0:
304,304,204605,2,0,P|344:312|364:300,1,47.5,10|0,0:0|0:0,0:0:0:0:
508,336,204751,2,0,P|468:332|444:352,1,47.5,2|0,0:0|0:0,0:0:0:0:
324,288,204897,6,0,L|344:68,2,190,2|0|0,0:0|0:0|0:0,0:0:0:0:
236,148,205625,1,0,0:0:0:0:
172,236,205770,2,0,P|96:220|0:352,2,237.5,12|0|0,0:0|0:0|0:0,0:0:0:0:
92,120,206498,1,0,0:0:0:0:
216,24,206644,6,0,L|192:160,1,118.75,4|0,0:0|0:0,0:0:0:0:
256,244,206935,2,0,L|276:127,1,118.75
368,48,207227,2,0,L|344:184,1,118.75
488,248,207518,2,0,P|392:224|312:336,1,237.5,8|0,0:0|0:0,0:0:0:0:
240,200,207955,2,0,P|188:216|124:196,1,118.75,8|2,0:0|0:0,0:0:0:0:
24,96,208246,1,0,0:0:0:0:
216,40,208392,6,0,L|80:16,1,118.75,6|0,0:0|0:0,0:0:0:0:
180,108,208683,2,0,L|296:128,1,118.75
404,76,208974,2,0,L|268:52,1,118.75
368,144,209265,2,0,P|348:232|468:340,1,237.5,12|0,0:0|0:0,0:0:0:0:
364,344,209702,1,0,0:0:0:0:
384,252,209848,2,0,L|240:288,1,118.75
292,188,210139,2,0,L|148:224,1,118.75,4|8,0:0|0:0,0:0:0:0:
422,145,210430,6,0,L|413:270,1,95,8|0,0:0|0:0,0:0:0:0:
192,40,210722,2,0,P|268:48|320:24,1,118.75,8|8,0:0|0:0,0:0:0:0:
80,64,211013,1,2,0:0:0:0:
56,204,211159,1,8,0:0:0:0:
120,232,211231,1,8,0:0:0:0:
188,212,211304,1,8,0:0:0:0:
400,132,211450,1,8,0:0:0:0:
336,104,211523,1,8,0:0:0:0:
264,112,211596,2,0,P|208:140|204:152,1,59.375,10|0,0:0|0:0,0:0:0:0:
188,212,211741,2,0,P|188:264|208:296,1,59.375,2|0,0:0|0:0,0:0:0:0:
264,360,211887,5,6,0:0:0:0:
256,192,212074,12,0,218824,0:0:0:0:
