osu file format v14

[General]
AudioFilename: audio.mp3
AudioLeadIn: 0
PreviewTime: 51987
Countdown: 0
SampleSet: Soft
StackLeniency: 0.4
Mode: 0
LetterboxInBreaks: 0
WidescreenStoryboard: 1

[Editor]
Bookmarks: 397,14617,25715,36813,45137,52073,63172,74270,79819,90570
DistanceSpacing: 1.1
BeatDivisor: 4
GridSize: 4
TimelineZoom: 2.800005

[Metadata]
Title:Darling (TV Size)
TitleUnicode:ダーリン (TV Size)
Artist:XX:me
ArtistUnicode:XX:me
Creator:dkblaze
Version:Collab Normal
Source:ダーリン・イン・ザ・フランキス
Tags:Darling in the FRANXX Ending ED Zero Two Ichigo Miku Kokoro Ikuno キス・ミー kiss me Anime Japanese nautzz Shizuku- Asuka_-
BeatmapID:2134947
BeatmapSetID:1020360

[Difficulty]
HPDrainRate:4
CircleSize:3
OverallDifficulty:4
ApproachRate:5
SliderMultiplier:1
SliderTickRate:1

[Events]
//Background and Video events
0,0,"BG_Darling.jpg",0,0
//Break Periods
//Storyboard Layer 0 (Background)
//Storyboard Layer 1 (Fail)
//Storyboard Layer 2 (Pass)
//Storyboard Layer 3 (Foreground)
//Storyboard Layer 4 (Overlay)
//Storyboard Sound Samples

[TimingPoints]
-643,346.820809248555,4,2,2,50,1,0
3518,-100,4,2,2,60,0,0
6293,-100,4,2,2,70,0,0
11321,-100,4,2,2,70,0,0
11322,-100,4,2,2,60,0,0
11669,-100,4,2,2,50,0,0
11842,-100,4,2,2,70,0,0
12709,-100,4,2,2,80,0,0
14617,-100,4,2,2,60,0,0
25368,-100,4,2,2,50,0,0
25541,-100,4,2,2,40,0,0
25715,-100,4,2,2,60,0,0
36813,-100,4,2,2,70,0,0
45137,-100,4,2,2,60,0,0
52073,-100,4,2,2,80,0,1
63172,-100,4,2,3,80,0,1
63258,-100,4,2,2,80,0,1
64212,-100,4,2,2,80,0,1
77044,-100,4,2,3,80,0,1
77131,-100,4,2,2,80,0,1
77391,-100,4,2,2,80,0,1
77564,-100,4,2,2,80,0,1
77738,-100,4,2,2,80,0,1
79819,-100,4,2,2,60,0,0
90570,-100,4,2,2,5,0,0

[Colours]
Combo1 : 170,181,251
Combo2 : 237,180,248
Combo3 : 105,143,245
Combo4 : 223,192,235

[HitObjects]
167,74,397,6,0,L|162:123,1,50,2|2,2:0|2:0,0:0:0:0:
160,178,744,6,0,P|198:208|247:209,1,100,2|2,2:0|2:0,0:0:0:0:
280,164,1264,2,0,P|320:137|369:144,1,100,2|2,2:0|2:0,0:0:0:0:
416,172,1784,1,2,2:0:0:0:
337,377,2478,1,2,2:0:0:0:
227,384,2825,1,2,2:0:0:0:
141,307,3172,2,0,L|92:319,1,50,2|2,2:0|2:0,0:0:0:0:
44,293,3518,6,0,B|20:262|20:262|32:202,1,100,2|2,2:0|2:0,0:0:0:0:
87,197,4039,2,0,B|110:166|110:166|98:106,1,100,2|2,2:0|2:0,0:0:0:0:
85,52,4559,1,2,2:0:0:0:
248,71,5079,6,0,P|223:70|203:56,2,50,8|0|0,2:0|3:0|3:0,0:0:0:0:
295,43,5599,1,8,2:0:0:0:
401,15,5946,2,0,P|391:37|400:64,1,50,8|8,2:0|2:0,0:0:0:0:
447,84,6293,6,0,L|452:183,1,100,6|2,3:2|3:2,0:0:0:0:
455,239,6813,2,0,P|407:235|370:267,1,100,14|2,2:0|2:0,0:0:0:0:
351,319,7333,1,14,2:0:0:0:
217,239,7854,2,0,L|225:140,1,100,14|6,2:0|2:3,0:0:0:0:
230,84,8374,1,14,2:0:0:0:
136,27,8721,2,0,L|79:32,1,50,10|2,2:0|2:0,0:0:0:0:
31,41,9067,6,0,B|67:63|69:119|27:148|26:141|-1:159|-7:197|2:228,1,200,6|2,3:2|3:2,0:0:0:0:
16,269,9935,2,0,P|40:265|62:275,1,50,2|10,2:0|2:0,0:0:0:0:
91,323,10281,1,2,2:0:0:0:
188,271,10628,2,0,L|194:206,2,50,10|10|10,2:0|2:0|2:0,0:0:0:0:
183,326,11148,2,0,P|203:310|227:307,1,50,10|10,2:0|3:0,0:0:0:0:
282,318,11495,1,10,3:0:0:0:
384,357,11842,5,6,3:2:0:0:
384,357,12015,2,0,B|432:366|474:336|474:336|492:287|478:238|434:215|434:224|393:200|416:138,1,300,2|10,2:0|3:2,0:0:0:0:
375,113,13229,2,0,L|368:58,2,50,10|10|10,3:2|2:0|3:2,0:0:0:0:
322,131,13750,1,10,2:0:0:0:
251,46,14096,2,0,L|151:36,1,100,10|10,2:0|2:0,0:0:0:0:
95,39,14617,6,0,P|38:114|77:201,1,200,6|0,3:2|3:0,0:0:0:0:
150,121,15657,2,0,L|212:126,1,50,0|0,3:0|0:0,0:0:0:0:
242,160,16004,2,0,P|254:207|237:254,1,100,2|0,3:2|3:0,0:0:0:0:
175,345,16698,2,0,L|274:337,1,100,0|0,3:0|3:0,0:0:0:0:
377,376,17391,6,0,P|361:329|376:282,1,100,2|0,3:2|3:0,0:0:0:0:
410,239,17911,2,0,L|305:249,1,100,0|0,0:0|0:0,0:0:0:0:
257,253,18432,1,0,3:0:0:0:
184,335,18778,2,0,B|140:362|140:362|80:354,1,100,2|2,3:2|3:2,0:0:0:0:
13,279,19472,1,0,3:0:0:0:
60,179,19819,1,0,3:0:0:0:
16,77,20166,6,0,L|115:69,1,100,2|0,3:2|3:0,0:0:0:0:
157,32,20686,2,0,L|165:131,1,100,0|0,0:0|0:0,0:0:0:0:
171,186,21206,1,0,3:0:0:0:
276,155,21553,2,0,P|309:120|309:68,1,100,2|2,3:2|3:2,0:0:0:0:
413,32,22247,2,0,P|448:63|457:111,1,100,0|0,3:0|3:0,0:0:0:0:
435,221,22940,5,2,3:2:0:0:
435,221,23114,2,0,L|484:225,2,50,2|2|0,2:0|3:2|0:0,0:0:0:0:
338,274,23807,2,0,L|335:225,1,50,8|8,2:3|3:0,0:0:0:0:
296,185,24154,1,8,2:3:0:0:
296,185,24328,6,0,P|252:210|226:253,1,100,2|0,3:2|3:0,0:0:0:0:
233,306,24848,1,2,2:0:0:0:
142,369,25195,1,10,2:0:0:0:
142,369,25368,2,0,L|146:320,1,50,10|6,3:0|3:0,0:0:0:0:
102,286,25715,6,0,B|22:315|22:315|-17:269|6:207,1,200,6|0,3:2|3:0,0:0:0:0:
69,116,26755,2,0,L|118:124,1,50,0|0,3:0|0:0,0:0:0:0:
170,105,27102,2,0,P|217:91|262:110,1,100,2|0,3:2|3:0,0:0:0:0:
343,184,27796,2,0,L|338:285,1,100,0|0,3:0|3:0,0:0:0:0:
339,339,28316,1,0,0:0:0:0:
338,338,28489,6,0,P|379:366|428:364,1,100,2|0,3:2|3:0,0:0:0:0:
481,267,29183,1,0,3:0:0:0:
481,267,29357,2,0,L|428:255,2,50,0|0|0,0:0|3:0|0:0,0:0:0:0:
502,216,29877,2,0,P|502:166|477:124,1,100,2|2,3:2|3:2,0:0:0:0:
369,100,30570,1,0,3:0:0:0:
369,100,30744,2,0,L|373:150,2,50,8|0|8,2:0|3:0|2:3,0:0:0:0:
321,71,31264,5,6,3:2:0:0:
217,108,31611,1,0,3:0:0:0:
217,107,31784,2,0,P|169:122|120:115,2,100,0|0|0,0:0|0:0|0:0,0:0:0:0:
207,53,32651,1,2,3:2:0:0:
317,50,32998,2,0,L|314:100,1,50,0|0,3:0|0:0,0:0:0:0:
310,154,33345,1,0,3:0:0:0:
390,228,33692,1,2,3:2:0:0:
324,315,34039,6,0,B|280:321|280:321|262:312|262:312|227:318,1,100,10|0,3:0|3:0,0:0:0:0:
172,329,34559,1,2,2:0:0:0:
67,366,34906,2,0,P|44:375|20:372,2,50,10|6|6,2:3|3:0|2:3,0:0:0:0:
83,312,35426,5,2,3:2:0:0:
6,233,35773,2,0,L|10:183,1,50,0|8,3:0|2:0,0:0:0:0:
50,145,36120,2,0,L|45:95,2,50,2|10|2,3:2|2:0|3:2,0:0:0:0:
134,216,36813,5,6,3:2:0:0:
226,155,37160,2,0,P|247:120|254:65,1,50,10|0,2:0|0:0,0:0:0:0:
242,57,37507,2,0,P|280:82|342:78,1,100,10|10,2:0|2:0,0:0:0:0:
417,10,38200,2,0,L|427:124,1,100,10|10,2:0|2:0,0:0:0:0:
400,217,38894,2,0,P|394:240|375:267,2,50,10|2|10,2:0|3:2|2:0,0:0:0:0:
363,175,39414,1,0,3:0:0:0:
363,175,39588,6,0,L|263:183,1,100,10|10,2:0|2:0,0:0:0:0:
181,256,40281,1,10,2:0:0:0:
169,146,40628,1,10,2:0:0:0:
240,62,40975,2,0,P|202:37|140:41,1,100,10|8,3:2|2:0,0:0:0:0:
94,28,41495,1,2,2:0:0:0:
94,28,41669,2,0,L|98:77,1,50,10|2,2:0|3:2,0:0:0:0:
65,122,42015,2,0,P|44:142|22:150,1,50,10|2,2:0|3:2,0:0:0:0:
0,198,42362,6,0,B|61:222|61:222|107:205,1,100,10|8,2:0|2:0,0:0:0:0:
170,288,43056,2,0,P|195:250|180:174,1,100,10|8,2:0|2:0,0:0:0:0:
159,153,43576,1,0,3:0:0:0:
159,153,43750,2,0,L|269:143,1,100,10|8,3:2|2:0,0:0:0:0:
349,81,44443,2,0,L|345:31,2,50,10|2|10,2:0|3:2|2:0,0:0:0:0:
372,130,44963,1,2,3:2:0:0:
372,130,45137,6,0,B|420:134|439:171|439:171|431:244,1,150,6|2,3:2|3:2,0:0:0:0:
424,292,45830,1,8,2:0:0:0:
335,358,46177,2,0,L|285:353,1,50,0|2,0:0|3:2,0:0:0:0:
227,333,46524,2,0,L|221:283,2,50,2|2|2,2:0|3:2|2:0,0:0:0:0:
183,366,47044,1,2,3:2:0:0:
77,334,47391,1,2,2:0:0:0:
51,226,47738,1,10,2:0:0:0:
51,226,47911,6,0,L|56:175,1,50,2|8,3:2|2:0,0:0:0:0:
92,71,48432,2,0,P|80:50|79:25,2,50,2|8|2,3:2|2:0|2:0,0:0:0:0:
202,101,49125,1,2,3:2:0:0:
202,101,49299,2,0,L|256:93,1,50,0|8,0:0|2:0,0:0:0:0:
305,85,49646,1,2,2:0:0:0:
413,67,49992,1,10,2:0:0:0:
482,151,50339,2,0,L|484:200,1,50,10|10,2:0|2:0,0:0:0:0:
459,250,50686,5,2,3:2:0:0:
349,236,51033,1,2,2:0:0:0:
285,324,51380,2,0,P|217:355|143:349,1,150,6|2,3:2|2:0,0:0:0:0:
89,360,52073,5,6,3:2:0:0:
89,360,52247,2,0,P|59:315|76:254,1,100,2|2,2:0|2:0,0:0:0:0:
110,240,52767,1,2,3:2:0:0:
110,240,52940,2,0,L|159:244,1,50,0|8,3:0|2:0,0:0:0:0:
263,282,53461,1,2,3:2:0:0:
263,282,53634,2,0,P|293:237|276:176,1,100,2|0,2:0|0:0,0:0:0:0:
250,152,54154,1,2,3:2:0:0:
250,152,54328,2,0,L|200:159,1,50,2|8,3:2|2:0,0:0:0:0:
100,205,54848,5,2,3:2:0:0:
100,205,55021,2,0,L|92:105,1,100,2|0,2:0|0:0,0:0:0:0:
110,53,55541,1,2,3:2:0:0:
110,53,55715,2,0,B|146:76|146:76|216:49,1,100,2|2,3:2|2:0,0:0:0:0:
241,19,56235,1,2,3:2:0:0:
350,29,56582,2,0,L|449:37,1,100,8|0,2:0|3:0,0:0:0:0:
487,78,57102,1,0,3:0:0:0:
487,78,57276,2,0,L|434:99,1,50,8|8,2:0|2:0,0:0:0:0:
390,120,57622,5,6,3:2:0:0:
470,194,57969,1,10,2:0:0:0:
460,303,58316,2,0,L|509:308,2,50,0|0|8,3:0|3:0|2:0,0:0:0:0:
414,334,58836,1,2,2:0:0:0:
414,334,59010,2,0,P|365:307|344:259,1,100,2|10,3:2|2:0,0:0:0:0:
358,214,59530,1,2,2:0:0:0:
250,189,59877,2,0,L|258:288,1,100,2|2,3:2|2:0,0:0:0:0:
260,343,60397,5,2,3:2:0:0:
162,292,60744,1,10,2:0:0:0:
73,227,61091,2,0,P|121:200|142:152,1,100,2|10,3:2|2:0,0:0:0:0:
246,136,61784,1,6,3:2:0:0:
246,136,61958,2,0,L|242:86,1,50,2|10,2:0|2:0,0:0:0:0:
264,36,62304,2,0,P|312:31|349:63,1,100,6|8,3:2|2:0,0:0:0:0:
368,114,62825,1,8,2:0:0:0:
291,193,63172,5,6,3:2:0:0:
290,193,63345,2,0,P|257:228|258:277,1,100,2|0,2:0|0:0,0:0:0:0:
281,327,63865,1,2,3:2:0:0:
281,327,64039,2,0,L|330:335,1,50,2|8,3:2|2:0,0:0:0:0:
439,348,64559,1,2,3:2:0:0:
439,347,64732,2,0,P|468:309|461:261,1,100,2|0,2:0|0:0,0:0:0:0:
424,220,65252,1,2,3:2:0:0:
424,220,65426,2,0,L|419:171,1,50,2|8,3:2|2:0,0:0:0:0:
344,88,65946,5,2,3:2:0:0:
344,88,66120,2,0,L|244:97,1,100,2|0,2:0|0:0,0:0:0:0:
195,122,66640,1,2,3:2:0:0:
195,122,66813,2,0,L|95:111,1,100,2|0,3:2|0:0,0:0:0:0:
41,103,67333,2,0,P|78:134|80:182,1,100,2|8,3:2|2:0,0:0:0:0:
20,275,68027,2,0,L|69:269,1,50,2|0,3:2|3:0,0:0:0:0:
111,306,68374,2,0,L|160:311,1,50,10|8,2:0|2:0,0:0:0:0:
215,313,68721,6,0,P|232:297|240:273,1,50,6|2,3:2|2:0,0:0:0:0:
227,219,69067,1,10,2:0:0:0:
306,143,69414,2,0,L|303:93,2,50,0|0|8,3:0|3:0|2:0,0:0:0:0:
318,196,69935,1,2,2:0:0:0:
318,196,70108,2,0,P|358:223|407:221,1,100,2|10,3:2|2:0,0:0:0:0:
445,181,70628,1,2,2:0:0:0:
458,71,70975,2,0,L|507:65,2,50,2|10|2,3:2|2:0|2:0,0:0:0:0:
419,29,71495,6,0,P|375:9|328:21,1,100,2|10,3:2|2:0,0:0:0:0:
262,110,72189,2,0,P|218:131|170:121,1,100,2|10,3:2|2:0,0:0:0:0:
82,54,72883,2,0,L|76:103,1,50,6|2,3:2|2:0,0:0:0:0:
36,141,73229,1,10,2:0:0:0:
36,141,73403,1,2,3:2:0:0:
87,238,73750,2,0,P|66:251|41:252,2,50,8|8|8,2:0|3:2|2:0,0:0:0:0:
121,194,74270,6,0,P|169:217|185:279,1,100,6|10,3:2|2:0,0:0:0:0:
219,302,74790,2,0,L|227:202,1,100,6|2,3:2|3:2,0:0:0:0:
231,147,75310,1,10,2:0:0:0:
299,60,75657,2,0,P|322:108|384:124,1,100,4|10,3:2|2:0,0:0:0:0:
410,97,76177,1,6,3:2:0:0:
488,19,76524,1,2,3:2:0:0:
488,19,76698,2,0,L|492:68,1,50,10|8,2:0|3:0,0:0:0:0:
497,123,77044,5,6,3:2:0:0:
413,195,77391,2,0,P|399:214|392:239,1,50,14|0,2:0|0:0,0:0:0:0:
417,289,77738,2,0,B|390:267|390:267|324:278,1,100,2|10,3:2|2:0,0:0:0:0:
273,259,78258,1,2,2:0:0:0:
273,259,78432,2,0,L|265:358,2,100,2|8|0,3:2|2:0|3:0,0:0:0:0:
242,212,79299,2,0,P|222:225|197:232,1,50,8|8,3:2|2:0,0:0:0:0:
145,212,79646,1,8,2:0:0:0:
145,212,79819,6,0,P|119:170|123:121,1,100,6|0,3:2|0:0,0:0:0:0:
220,69,80513,1,10,2:0:0:0:
220,69,80686,2,0,L|269:82,1,50,2|0,2:0|0:0,0:0:0:0:
373,49,81206,1,2,2:0:0:0:
373,49,81380,2,0,L|394:94,1,50,2|0,3:2|0:0,0:0:0:0:
486,153,81900,1,10,2:0:0:0:
486,153,82073,2,0,L|464:198,1,50,2|0,2:0|0:0,0:0:0:0:
478,306,82593,5,6,3:2:0:0:
478,305,82767,2,0,P|438:334|390:328,1,100,2|0,2:0|0:0,0:0:0:0:
337,345,83287,1,6,3:2:0:0:
336,344,83461,2,0,P|303:309|299:260,1,100,2|0,2:0|0:0,0:0:0:0:
330,214,83981,1,6,3:2:0:0:
256,192,84154,12,0,90570,0:0:0:0:
