osu file format v14

[General]
AudioFilename: audio.mp3
AudioLeadIn: 0
PreviewTime: 51987
Countdown: 0
SampleSet: Soft
StackLeniency: 0.4
Mode: 0
LetterboxInBreaks: 0
WidescreenStoryboard: 0

[Editor]
DistanceSpacing: 1.1
BeatDivisor: 4
GridSize: 32
TimelineZoom: 2.700001

[Metadata]
Title:Darling (TV Size)
TitleUnicode:ダーリン (TV Size)
Artist:XX:me
ArtistUnicode:XX:me
Creator:dkblaze
Version:Asuka_-'s Insane
Source:ダーリン・イン・ザ・フランキス
Tags:Darling in the FRANXX Ending ED Zero Two Ichigo Miku Kokoro Ikuno キス・ミー kiss me Anime Japanese nautzz Shizuku- Asuka_-
BeatmapID:2138684
BeatmapSetID:1020360

[Difficulty]
HPDrainRate:6
CircleSize:4
OverallDifficulty:8
ApproachRate:9
SliderMultiplier:1.7
SliderTickRate:1

[Events]
//Background and Video events
0,0,"BG_Darling.jpg",0,0
//Break Periods
//Storyboard Layer 0 (Background)
//Storyboard Layer 1 (Fail)
//Storyboard Layer 2 (Pass)
//Storyboard Layer 3 (Foreground)
//Storyboard Layer 4 (Overlay)
//Storyboard Sound Samples

[TimingPoints]
-643,346.820809248555,4,2,2,50,1,0
744,-200,4,2,2,50,0,0
3518,-200,4,2,2,60,0,0
6293,-125,4,2,2,70,0,0
11322,-125,4,2,2,60,0,0
11669,-125,4,2,2,50,0,0
11842,-125,4,2,2,70,0,0
12709,-125,4,2,2,80,0,0
14617,-142.857142857143,4,2,2,60,0,0
25368,-142.857142857143,4,2,2,50,0,0
25541,-142.857142857143,4,2,2,40,0,0
25715,-125,4,2,2,60,0,0
36813,-100,4,2,2,70,0,0
45137,-111.111111111111,4,2,2,60,0,0
52073,-111.111111111111,4,2,2,80,0,1
52247,-100,4,2,2,80,0,1
55281,-100,4,2,2,5,0,1
55369,-100,4,2,2,80,0,1
55975,-100,4,2,2,5,0,1
56062,-100,4,2,2,80,0,1
63172,-100,4,2,3,80,0,1
63258,-100,4,2,2,80,0,1
66380,-100,4,2,2,5,0,1
66467,-100,4,2,2,80,0,1
67073,-100,4,2,2,5,0,1
67161,-100,4,2,2,80,0,1
77044,-100,4,2,3,80,0,1
77131,-100,4,2,2,80,0,1
79819,-100,4,2,2,60,0,0
79992,-111.111111111111,4,2,2,60,0,0
82767,-83.3333333333333,4,2,2,60,0,0
83461,-125,4,2,2,60,0,0
90570,-125,4,2,2,5,0,0

[Colours]
Combo1 : 197,204,252
Combo2 : 243,213,253
Combo3 : 150,176,248
Combo4 : 244,233,248

[HitObjects]
64,51,397,5,2,2:0:0:0:
137,84,570,1,2,2:0:0:0:
219,50,744,2,0,L|200:185,2,127.5,2|2|2,2:0|2:0|2:0,0:0:0:0:
48,206,2304,1,2,2:0:0:0:
48,206,2478,2,0,L|54:257,1,42.5,2|0,2:0|0:0,0:0:0:0:
128,281,2825,2,0,L|134:225,1,42.5,2|0,2:0|0:0,0:0:0:0:
197,185,3172,1,2,2:0:0:0:
265,227,3345,1,2,2:0:0:0:
346,185,3518,6,0,L|329:322,2,127.5,2|2|2,2:0|2:0|2:0,0:0:0:0:
273,42,5079,1,8,2:0:0:0:
347,94,5252,1,0,3:0:0:0:
221,125,5426,1,0,3:0:0:0:
372,0,5599,5,8,2:0:0:0:
346,185,5773,1,0,3:0:0:0:
451,93,5946,1,8,2:0:0:0:
451,93,6033,1,8,2:0:0:0:
451,93,6120,1,8,2:0:0:0:
451,93,6206,1,8,2:0:0:0:
451,93,6293,6,0,L|461:252,1,136,6|2,3:2|3:2,0:0:0:0:
357,353,6813,2,0,P|394:349|431:317,1,68,14|0,2:0|3:0,0:0:0:0:
351,242,7160,1,2,2:0:0:0:
244,365,7333,6,0,L|233:209,1,136,14|0,2:0|3:0,0:0:0:0:
301,63,7854,2,0,P|250:110|181:95,1,136,14|6,2:0|2:3,0:0:0:0:
34,273,8374,2,0,L|110:260,1,68,14|0,2:0|0:0,0:0:0:0:
67,38,8721,1,10,2:0:0:0:
189,101,8894,1,2,2:0:0:0:
34,273,9067,6,0,P|-10:219|13:140,1,136,6|8,3:2|2:0,0:0:0:0:
189,101,9588,1,0,0:0:0:0:
158,290,9761,2,0,L|143:385,1,68,2|2,3:2|2:0,0:0:0:0:
233,207,10108,1,10,2:0:0:0:
315,339,10281,6,0,P|356:341|390:319,1,68,2|0,2:0|3:0,0:0:0:0:
476,312,10628,1,10,2:0:0:0:
323,195,10802,1,10,2:0:0:0:
423,139,10975,1,10,2:0:0:0:
379,329,11148,1,10,2:0:0:0:
376,316,11235,1,8,2:0:0:0:
372,303,11322,1,10,3:0:0:0:
369,288,11409,1,8,2:3:0:0:
365,273,11495,1,10,3:0:0:0:
422,139,11669,1,6,3:0:0:0:
299,14,11842,5,6,3:2:0:0:
423,139,12015,2,0,P|377:99|290:135,1,136,2|8,2:0|3:0,0:0:0:0:
68,160,12536,2,0,L|-17:149,1,68,8|8,3:0|3:2,0:0:0:0:
206,101,12883,1,8,3:2:0:0:
184,202,13056,1,10,3:2:0:0:
155,17,13229,5,10,3:2:0:0:
184,202,13403,1,10,2:0:0:0:
206,101,13576,1,10,3:2:0:0:
88,259,13750,1,10,2:0:0:0:
184,202,13923,1,4,3:2:0:0:
54,140,14096,1,10,2:0:0:0:
54,140,14183,1,8,2:0:0:0:
54,140,14270,1,10,2:0:0:0:
54,140,14357,1,8,2:0:0:0:
54,140,14443,1,10,2:0:0:0:
54,140,14530,1,8,2:0:0:0:
54,140,14617,6,0,L|32:14,2,118.999996368408,6|0|0,3:2|3:0|3:0,0:0:0:0:
59,295,15657,2,0,P|92:278|122:280,1,59.4999981842042,0|0,3:0|0:0,0:0:0:0:
199,241,16004,2,0,L|182:380,2,118.999996368408,2|0|0,3:2|3:0|3:0,0:0:0:0:
262,172,16871,5,0,0:0:0:0:
262,172,17044,1,0,3:0:0:0:
262,172,17218,2,0,L|192:158,1,59.4999981842042,0|2,0:0|3:2,0:0:0:0:
345,244,17565,1,0,0:0:0:0:
345,244,17738,1,0,3:0:0:0:
345,244,17911,2,0,L|286:257,1,59.4999981842042,0|0,0:0|3:0,0:0:0:0:
417,191,18258,1,0,0:0:0:0:
417,191,18432,1,0,3:0:0:0:
417,191,18605,1,0,0:0:0:0:
502,151,18778,6,0,L|487:279,2,118.999996368408,2|2|0,3:2|3:2|3:0,0:0:0:0:
287,77,19646,5,0,0:0:0:0:
287,77,19819,1,0,3:0:0:0:
287,77,19992,2,0,L|298:13,1,59.4999981842042,0|2,0:0|3:2,0:0:0:0:
215,160,20339,1,0,0:0:0:0:
215,160,20513,1,0,3:0:0:0:
215,160,20686,2,0,L|197:88,1,59.4999981842042,0|0,0:0|0:0,0:0:0:0:
285,250,21033,1,0,0:0:0:0:
285,250,21206,1,0,3:0:0:0:
285,250,21380,1,0,0:0:0:0:
340,345,21553,6,0,L|216:329,1,118.999996368408,2|2,3:2|3:2,0:0:0:0:
42,372,22247,2,0,P|28:340|31:302,1,59.4999981842042,0|0,3:0|0:0,0:0:0:0:
127,264,22593,2,0,L|117:349,1,59.4999981842042,0|0,3:0|0:0,0:0:0:0:
5,195,22940,6,0,L|127:174,1,118.999996368408,2|2,3:2|3:2,0:0:0:0:
46,94,23461,1,0,0:0:0:0:
251,90,23807,1,8,2:3:0:0:
251,90,23894,1,8,2:3:0:0:
251,90,23981,1,8,3:0:0:0:
206,201,24154,1,8,2:3:0:0:
258,336,24328,6,0,P|319:344|364:301,1,118.999996368408,2|0,3:2|3:0,0:0:0:0:
495,345,24848,1,2,2:0:0:0:
421,253,25021,1,2,3:2:0:0:
512,176,25195,1,10,2:0:0:0:
512,176,25281,1,8,2:0:0:0:
512,176,25368,2,0,L|468:153,1,29.7499990921021,10|8,3:0|2:3,0:0:0:0:
421,253,25541,2,0,L|395:209,1,29.7499990921021,6|4,3:0|0:3,0:0:0:0:
301,234,25715,6,0,L|325:98,2,136,6|0|0,3:2|3:0|3:0,0:0:0:0:
103,254,26755,1,0,3:0:0:0:
199,218,26929,1,0,0:0:0:0:
88,240,27102,2,0,L|106:389,2,136,2|0|0,3:2|3:0|3:0,0:0:0:0:
77,155,27969,5,0,0:0:0:0:
171,138,28143,1,0,3:0:0:0:
77,155,28316,2,0,L|0:145,1,68,0|0,0:0|0:0,0:0:0:0:
155,50,28663,1,0,0:0:0:0:
249,65,28836,1,0,3:0:0:0:
155,50,29010,2,0,L|77:62,1,68,0|0,0:0|3:0,0:0:0:0:
231,158,29357,1,0,0:0:0:0:
325,148,29530,1,0,3:0:0:0:
231,158,29703,1,0,0:0:0:0:
380,86,29877,6,0,P|408:127|374:213,2,136,2|2|0,3:2|3:2|3:0,0:0:0:0:
222,260,30744,1,8,2:0:0:0:
370,211,30917,1,0,3:0:0:0:
231,158,31091,1,8,2:3:0:0:
222,260,31264,6,0,L|212:359,1,68,6|0,3:2|0:0,0:0:0:0:
308,305,31611,1,0,3:0:0:0:
132,369,31784,2,0,P|103:368|65:338,1,68,0|0,0:0|3:0,0:0:0:0:
308,305,32131,2,0,L|299:387,1,68,0|0,0:0|0:0,0:0:0:0:
184,180,32478,6,0,B|239:162|239:162|324:175,1,136,0|0,0:0|0:0,0:0:0:0:
393,219,32998,1,0,3:0:0:0:
336,90,33172,1,0,0:0:0:0:
453,29,33345,2,0,P|469:61|465:111,1,68,0|0,3:0|0:0,0:0:0:0:
444,223,33692,5,2,3:2:0:0:
431,222,33778,1,2,0:0:0:0:
418,221,33865,1,2,2:0:0:0:
405,220,33952,1,2,0:0:0:0:
393,219,34039,6,0,L|377:356,1,136,10|0,3:0|3:0,0:0:0:0:
216,265,34559,1,2,2:0:0:0:
216,265,34646,1,2,2:0:0:0:
216,265,34732,1,2,3:2:0:0:
301,233,34906,1,10,2:3:0:0:
189,173,35079,1,6,3:0:0:0:
253,348,35252,1,6,2:3:0:0:
270,61,35426,5,2,3:2:0:0:
189,173,35599,1,2,2:0:0:0:
114,61,35773,1,0,3:0:0:0:
117,249,35946,1,8,2:0:0:0:
0,152,36120,1,2,3:2:0:0:
103,345,36293,1,10,2:0:0:0:
114,61,36466,6,0,B|139:19|139:19|185:48,1,102,2|0,3:2|0:0,0:0:0:0:
205,56,36813,6,0,L|392:36,1,170,6|10,3:2|2:0,0:0:0:0:
466,140,37333,1,0,0:0:0:0:
347,222,37507,2,0,P|328:191|325:132,1,85,10|0,2:0|3:0,0:0:0:0:
484,19,37854,1,10,2:0:0:0:
322,143,38027,1,0,3:0:0:0:
506,299,38200,5,10,2:0:0:0:
436,223,38374,1,0,0:0:0:0:
342,359,38547,2,0,L|239:345,1,85,10|2,2:0|2:0,0:0:0:0:
47,269,38894,2,0,L|148:253,1,85,10|0,2:0|0:0,0:0:0:0:
322,143,39241,1,10,2:0:0:0:
208,79,39414,1,0,3:0:0:0:
287,249,39588,5,10,2:0:0:0:
319,42,39761,1,0,0:0:0:0:
205,178,39935,1,10,2:0:0:0:
403,95,40108,1,0,0:0:0:0:
144,20,40281,2,0,P|125:55|123:102,1,85,10|0,2:0|3:0,0:0:0:0:
390,301,40628,2,0,L|372:201,1,85,10|0,2:0|3:0,0:0:0:0:
71,247,40975,6,0,P|143:182|229:230,1,170,10|8,3:2|2:0,0:0:0:0:
322,360,41495,1,2,2:0:0:0:
418,130,41669,1,10,2:0:0:0:
294,232,41842,1,2,3:2:0:0:
427,284,42015,1,10,2:0:0:0:
377,213,42189,1,2,3:2:0:0:
183,358,42362,6,0,L|156:159,1,170,10|8,2:0|2:0,0:0:0:0:
79,84,42883,1,0,0:0:0:0:
273,169,43056,2,0,P|293:129|292:84,1,85,10|0,2:0|3:0,0:0:0:0:
79,84,43403,1,8,2:0:0:0:
226,6,43576,1,0,3:0:0:0:
384,72,43750,6,0,L|470:60,1,85,10|0,3:2|0:0,0:0:0:0:
161,190,44096,2,0,L|66:180,1,85,8|0,2:0|0:0,0:0:0:0:
401,307,44443,1,10,2:0:0:0:
342,226,44617,1,2,3:2:0:0:
395,137,44790,1,10,2:0:0:0:
337,378,44963,1,2,3:2:0:0:
337,378,45050,1,0,3:0:0:0:
337,378,45137,6,0,L|173:367,1,152.999995330811,6|0,3:2|0:0,0:0:0:0:
196,255,45657,1,2,3:2:0:0:
73,379,45830,2,0,P|35:324|78:228,1,152.999995330811,8|0,2:0|0:0,0:0:0:0:
45,142,46351,1,2,3:2:0:0:
196,255,46524,6,0,L|208:169,1,76.4999976654053,2|2,2:0|3:2,0:0:0:0:
310,165,46871,1,2,2:0:0:0:
310,165,47044,2,0,L|297:272,1,76.4999976654053,2|8,3:2|2:0,0:0:0:0:
406,273,47391,2,0,L|419:180,1,76.4999976654053,2|0,2:0|0:0,0:0:0:0:
496,70,47738,1,10,2:0:0:0:
496,70,47825,1,2,3:2:0:0:
496,70,47911,6,0,P|456:89|401:83,1,76.4999976654053,2|8,3:2|2:0,0:0:0:0:
311,22,48258,1,0,0:0:0:0:
158,80,48432,2,0,L|54:65,1,76.4999976654053,2|8,3:2|2:0,0:0:0:0:
311,22,48778,2,0,P|332:58|317:117,1,76.4999976654053,2|0,2:0|0:0,0:0:0:0:
216,302,49125,6,0,P|172:240|213:161,1,152.999995330811,2|8,3:2|2:0,0:0:0:0:
461,97,49646,2,0,L|446:196,1,76.4999976654053,2|0,2:0|3:0,0:0:0:0:
350,252,49992,2,0,L|331:163,1,76.4999976654053,10|0,2:0|0:0,0:0:0:0:
466,306,50339,1,10,2:0:0:0:
361,373,50513,1,10,2:0:0:0:
361,373,50599,1,10,2:0:0:0:
361,373,50686,5,2,3:2:0:0:
269,328,50859,1,2,2:0:0:0:
177,352,51033,1,2,2:0:0:0:
110,284,51206,1,2,2:0:0:0:
61,360,51380,1,6,3:2:0:0:
61,360,51466,1,2,0:0:0:0:
61,360,51553,1,2,2:0:0:0:
61,360,51640,1,2,0:0:0:0:
61,360,51726,1,2,2:0:0:0:
61,360,51813,1,2,0:0:0:0:
61,360,51900,1,2,2:0:0:0:
61,360,51987,1,2,0:0:0:0:
61,360,52073,5,6,3:2:0:0:
190,268,52247,2,0,L|175:365,1,85,2|8,2:0|2:0,0:0:0:0:
127,179,52593,1,2,2:0:0:0:
298,253,52767,5,2,3:2:0:0:
127,179,52940,2,0,L|230:162,1,85,0|8,3:0|2:0,0:0:0:0:
30,121,53287,1,0,0:0:0:0:
90,278,53461,5,2,3:2:0:0:
30,121,53634,2,0,L|16:223,1,85,2|8,2:0|2:0,0:0:0:0:
101,42,53981,1,0,0:0:0:0:
262,91,54154,5,2,3:2:0:0:
101,42,54328,2,0,L|207:25,1,85,2|8,3:2|2:0,0:0:0:0:
352,3,54674,1,0,0:0:0:0:
262,91,54848,5,2,3:2:0:0:
384,235,55021,2,0,P|326:187|254:223,1,127.5,2|0,2:0|0:0,0:0:0:0:
279,196,55368,1,0,0:0:0:0:
427,123,55541,5,2,3:2:0:0:
477,334,55715,2,0,L|494:208,1,127.5,2|0,3:2|0:0,0:0:0:0:
494,208,56062,1,2,2:0:0:0:
325,314,56235,6,0,L|219:296,1,85,2|0,3:2|0:0,0:0:0:0:
427,122,56582,2,0,L|545:109,1,85,8|0,2:0|0:0,0:0:0:0:
320,233,56929,1,0,3:0:0:0:
292,133,57102,1,0,3:0:0:0:
171,213,57276,5,8,2:0:0:0:
223,28,57449,1,8,2:0:0:0:
223,28,57536,1,8,2:0:0:0:
223,28,57622,5,6,3:2:0:0:
292,133,57796,1,2,2:0:0:0:
79,171,57969,2,0,P|60:124|72:76,1,85,10|0,2:0|0:0,0:0:0:0:
292,133,58316,2,0,L|279:247,1,85,0|0,3:0|0:0,0:0:0:0:
239,372,58663,1,8,2:0:0:0:
391,301,58836,1,2,2:0:0:0:
171,213,59010,6,0,P|149:249|156:305,1,85,2|0,3:2|0:0,0:0:0:0:
239,372,59357,1,10,2:0:0:0:
391,301,59530,2,0,L|490:290,1,85,2|0,2:0|3:0,0:0:0:0:
238,119,59877,2,0,L|139:107,1,85,2|8,3:2|2:0,0:0:0:0:
335,7,60224,1,2,2:0:0:0:
464,171,60397,6,0,P|403:148|334:216,2,170,2|10|2,3:2|2:0|3:2,0:0:0:0:
391,301,61264,1,0,3:0:0:0:
240,262,61437,2,0,L|128:245,1,85,10|0,2:0|0:0,0:0:0:0:
334,213,61784,5,6,3:2:0:0:
129,146,61958,1,2,2:0:0:0:
129,146,62044,1,0,0:0:0:0:
129,146,62131,1,10,2:0:0:0:
75,315,62304,2,0,P|55:280|66:214,1,85,6|0,3:2|0:0,0:0:0:0:
235,111,62651,5,8,2:0:0:0:
398,172,62825,2,0,L|343:220,1,42.5,8|8,2:0|2:3,0:0:0:0:
425,278,62998,2,0,L|370:292,1,42.5,4|4,2:3|2:3,0:0:0:0:
384,382,63172,5,6,3:2:0:0:
277,275,63345,2,0,L|265:377,1,85,2|12,2:0|2:0,0:0:0:0:
365,199,63692,1,0,0:0:0:0:
194,227,63865,5,2,3:2:0:0:
365,199,64039,2,0,L|262:182,1,85,2|8,3:2|2:0,0:0:0:0:
460,151,64385,1,0,0:0:0:0:
376,295,64559,5,2,3:2:0:0:
460,151,64732,2,0,L|449:261,1,85,2|8,2:0|2:0,0:0:0:0:
431,65,65079,1,0,0:0:0:0:
260,102,65252,5,2,3:2:0:0:
431,65,65426,2,0,L|325:48,1,85,2|8,3:2|2:0,0:0:0:0:
160,3,65773,1,0,0:0:0:0:
260,102,65946,5,2,3:2:0:0:
65,162,66120,2,0,P|35:92|61:41,1,127.5,2|0,2:0|0:0,0:0:0:0:
53,48,66466,1,0,0:0:0:0:
180,193,66640,5,2,3:2:0:0:
49,323,66813,2,0,L|185:306,1,127.5,2|0,3:2|0:0,0:0:0:0:
175,307,67160,1,0,0:0:0:0:
386,342,67333,6,0,L|406:238,1,85,2|0,3:2|0:0,0:0:0:0:
165,109,67680,2,0,L|182:207,1,85,8|0,2:0|2:0,0:0:0:0:
276,287,68027,1,2,3:2:0:0:
321,187,68200,1,0,3:0:0:0:
269,90,68374,5,10,2:0:0:0:
445,190,68547,1,8,2:0:0:0:
445,190,68634,1,8,2:0:0:0:
445,190,68721,5,6,3:2:0:0:
321,187,68894,1,2,2:0:0:0:
417,23,69067,2,0,P|458:24|508:66,1,85,10|0,2:0|0:0,0:0:0:0:
268,89,69414,2,0,L|155:78,1,85,0|0,3:0|3:0,0:0:0:0:
321,187,69761,1,8,2:0:0:0:
433,111,69935,1,2,2:0:0:0:
493,322,70108,6,0,P|418:348|350:276,1,170,2|10,3:2|2:0,0:0:0:0:
262,369,70628,2,0,L|162:356,1,85,2|0,2:0|3:0,0:0:0:0:
103,206,70975,1,2,3:2:0:0:
208,259,71148,1,10,2:0:0:0:
40,307,71322,1,2,2:0:0:0:
0,90,71495,6,0,P|81:111|139:52,2,170,2|10|2,3:2|2:0|3:2,0:0:0:0:
103,206,72362,1,0,3:0:0:0:
286,141,72536,2,0,L|376:128,1,85,10|0,2:0|0:0,0:0:0:0:
253,43,72883,5,6,3:2:0:0:
190,162,73056,1,2,2:0:0:0:
309,263,73229,1,10,2:0:0:0:
168,379,73403,2,0,P|147:344|158:288,1,85,2|0,3:2|0:0,0:0:0:0:
328,100,73750,1,8,2:0:0:0:
328,100,73836,1,8,2:0:0:0:
328,100,73923,2,0,L|277:112,1,42.5,8|8,3:2|2:0,0:0:0:0:
190,162,74096,2,0,L|154:130,1,42.5,8|8,2:0|2:0,0:0:0:0:
48,141,74270,6,0,L|63:55,1,85,6|2,3:2|2:0,0:0:0:0:
80,274,74617,1,10,2:0:0:0:
48,141,74790,2,0,L|63:55,1,85,6|0,3:2|0:0,0:0:0:0:
278,160,75137,1,2,3:2:0:0:
243,73,75310,1,10,2:0:0:0:
218,249,75484,6,0,L|204:354,1,85,2|4,2:0|3:2,0:0:0:0:
248,79,75830,1,2,2:0:0:0:
248,79,76004,1,10,2:0:0:0:
218,249,76177,2,0,L|204:354,1,85,6|0,3:2|0:0,0:0:0:0:
498,113,76524,1,2,3:2:0:0:
275,169,76698,1,10,2:0:0:0:
400,214,76871,1,8,3:0:0:0:
363,61,77044,5,6,3:2:0:0:
218,249,77218,1,2,0:0:0:0:
60,44,77391,2,0,L|146:29,1,85,14|0,2:0|0:0,0:0:0:0:
275,169,77738,2,0,L|161:152,1,85,2|0,3:2|0:0,0:0:0:0:
41,305,78085,2,0,L|145:284,1,85,10|2,2:0|2:0,0:0:0:0:
398,376,78432,6,0,P|457:325|439:241,2,170,2|8|0,3:2|2:0|3:0,0:0:0:0:
312,92,79299,1,8,3:2:0:0:
353,78,79385,1,8,2:0:0:0:
391,96,79472,1,8,2:0:0:0:
396,138,79559,1,8,2:0:0:0:
365,167,79646,1,8,2:0:0:0:
322,160,79732,1,8,2:0:0:0:
349,132,79819,5,6,3:2:0:0:
225,210,79992,2,0,L|213:40,1,152.999995330811,0|0,0:0|3:0,0:0:0:0:
214,57,80513,1,10,2:0:0:0:
129,191,80686,2,0,L|119:30,1,152.999995330811,2|0,2:0|3:0,0:0:0:0:
119,38,81206,5,2,2:0:0:0:
22,312,81380,2,0,B|45:237|45:237|96:296,1,152.999995330811,2|0,3:2|3:0,0:0:0:0:
93,293,81900,1,10,2:0:0:0:
241,364,82073,2,0,B|218:289|218:289|167:348,1,152.999995330811,2|8,2:0|2:0,0:0:0:0:
169,345,82593,5,6,3:2:0:0:
243,133,82767,2,0,P|337:108|388:207,1,203.999993774414,2|0,2:0|0:0,0:0:0:0:
390,185,83287,1,6,3:2:0:0:
511,285,83461,2,0,P|450:267|393:333,1,136,2|0,2:0|0:0,0:0:0:0:
364,383,83981,5,6,3:2:0:0:
256,192,84154,12,0,90570,0:0:0:0:
