osu file format v14

[General]
AudioFilename: audio.mp3
AudioLeadIn: 0
PreviewTime: 51987
Countdown: 0
SampleSet: Soft
StackLeniency: 0.7
Mode: 0
LetterboxInBreaks: 0
WidescreenStoryboard: 0

[Editor]
DistanceSpacing: 1.3
BeatDivisor: 4
GridSize: 32
TimelineZoom: 1.9

[Metadata]
Title:Darling (TV Size)
TitleUnicode:ダーリン (TV Size)
Artist:XX:me
ArtistUnicode:XX:me
Creator:Adinda
Version:Insane
Source:ダーリン・イン・ザ・フランキス
Tags:Darling in the FRANXX Ending ED Zero Two Ichigo Miku Kokoro Ikuno キス・ミー kiss me Anime Japanese Jpop J-pop
BeatmapID:2634568
BeatmapSetID:1267711

[Difficulty]
HPDrainRate:5
CircleSize:4
OverallDifficulty:8
ApproachRate:9
SliderMultiplier:1.8
SliderTickRate:1

[Events]
//Background and Video events
0,0,"a.jpg",0,0
//Break Periods
//Storyboard Layer 0 (Background)
//Storyboard Layer 1 (Fail)
//Storyboard Layer 2 (Pass)
//Storyboard Layer 3 (Foreground)
//Storyboard Layer 4 (Overlay)
//Storyboard Sound Samples

[TimingPoints]
-643,346.820809248555,4,2,1,50,1,0
744,-153.846153846153,4,2,1,50,0,0
3518,-153.846153846153,4,2,1,60,0,0
5079,-153.846153846153,4,2,1,70,0,0
6293,-90.9090909090909,4,2,1,85,0,0
12102,-90.9090909090909,4,2,1,5,0,0
12189,-90.9090909090909,4,2,1,85,0,0
14617,-133.333333333333,4,2,1,70,0,0
34039,-133.333333333333,4,2,1,75,0,0
36726,-133.333333333333,4,2,1,5,0,0
36813,-111.111111111111,4,2,1,80,0,0
45137,-181.818181818181,4,2,1,70,0,0
52073,-83.3333333333333,4,2,1,90,0,1
59790,-83.3333333333333,4,2,1,5,0,1
59877,-83.3333333333333,4,2,1,90,0,1
61698,-83.3333333333333,4,2,1,5,0,1
61785,-83.3333333333333,4,2,1,90,0,1
63432,-83.3333333333333,4,2,1,5,0,1
63519,-83.3333333333333,4,2,1,90,0,1
71235,-83.3333333333333,4,2,1,5,0,1
71322,-83.3333333333333,4,2,1,90,0,1
72796,-83.3333333333333,4,2,1,5,0,1
72883,-83.3333333333333,4,2,1,90,0,1
79819,-153.846153846153,4,2,1,80,0,0
84067,-153.846153846153,4,2,1,65,0,0
85368,-153.846153846153,4,2,1,50,0,0
86755,-153.846153846153,4,2,1,35,0,0
88143,-153.846153846153,4,2,1,20,0,0
89530,-153.846153846153,4,2,1,5,0,0

[Colours]
Combo1 : 0,128,255
Combo2 : 255,155,205
Combo3 : 255,0,0

[HitObjects]
109,95,397,5,2,0:0:0:0:
109,95,570,1,2,0:0:0:0:
172,146,744,2,0,P|160:189|168:215,1,58.4999973220826,2|0,0:0|0:0,0:0:0:0:
255,166,1091,1,2,0:0:0:0:
255,166,1264,2,0,P|256:137|245:110,1,58.4999973220826,2|0,0:0|0:0,0:0:0:0:
245,110,1611,1,2,0:0:0:0:
250,27,1784,6,0,B|390:14|390:14|459:85,1,233.999989288331,2|2,0:0|0:0,0:0:0:0:
455,80,2825,2,0,P|452:114|457:207,1,116.999994644165,2|2,0:0|0:0,0:0:0:0:
483,304,3345,5,2,0:0:0:0:
483,304,3432,1,2,0:0:0:0:
483,304,3518,2,0,P|452:295|410:291,1,58.4999973220826,2|0,0:0|0:0,0:0:0:0:
352,328,3865,1,2,0:0:0:0:
352,328,4039,2,0,P|321:337|279:341,1,58.4999973220826,2|0,0:0|0:0,0:0:0:0:
295,340,4385,1,2,0:0:0:0:
224,300,4559,6,0,B|120:277|157:326|43:288,1,175.499991966248,2|8,0:0|0:0,0:0:0:0:
14,204,5252,1,8,0:1:0:0:
14,204,5426,1,8,0:1:0:0:
111,115,5599,2,0,P|125:153|130:183,1,58.4999973220826,8|8,0:0|0:1,0:0:0:0:
205,61,5946,5,10,0:0:0:0:
205,61,6033,1,8,0:0:0:0:
205,61,6120,1,10,0:0:0:0:
205,61,6206,1,8,0:0:0:0:
205,61,6293,6,0,L|100:21,1,99.0000030212403,14|0,0:1|0:0,0:0:0:0:
289,148,6640,1,10,0:1:0:0:
289,148,6813,2,0,L|329:43,1,99.0000030212403,10|8,0:0|0:1,0:0:0:0:
387,154,7160,1,2,0:0:0:0:
251,252,7333,6,0,P|248:309|365:370,1,198.000006042481,10|8,0:0|0:1,0:0:0:0:
496,300,7854,2,0,L|395:277,1,99.0000030212403,10|0,0:0|0:0,0:0:0:0:
324,55,8200,1,10,0:1:0:0:
411,73,8374,2,0,L|512:50,1,99.0000030212403,14|0,0:0|0:1,0:0:0:0:
289,148,8721,5,10,0:0:0:0:
297,282,8894,1,2,0:0:0:0:
184,195,9067,6,0,B|144:146|144:146|132:67|211:25,2,198.000006042481,14|8|8,0:1|0:0|0:1,0:0:0:0:
223,364,9935,5,2,0:0:0:0:
297,282,10108,1,10,0:0:0:0:
122,289,10281,2,0,P|69:279|20:257,1,99.0000030212403,2|8,0:0|0:1,0:0:0:0:
151,74,10628,5,10,0:0:0:0:
151,74,10715,1,8,0:0:0:0:
151,74,10802,1,10,0:0:0:0:
184,195,10975,1,8,0:0:0:0:
312,148,11148,5,10,0:0:0:0:
312,148,11235,1,8,0:0:0:0:
312,148,11322,2,0,L|365:133,1,49.5000015106202,10|8,0:3|0:3,0:0:0:0:
320,67,11496,2,0,L|272:80,1,49.5000015106202,10|8,0:3|0:3,0:0:0:0:
234,15,11669,2,0,L|287:0,1,49.5000015106202,6|4,0:3|0:3,0:0:0:0:
431,17,11842,6,0,P|455:82|341:123,1,198.000006042481,14|8,0:1|0:0,0:0:0:0:
305,243,12362,1,8,0:0:0:0:
432,265,12536,1,8,0:0:0:0:
313,332,12709,1,8,0:0:0:0:
453,262,12883,1,8,0:0:0:0:
265,174,13056,5,10,0:0:0:0:
313,332,13229,1,10,0:0:0:0:
261,155,13403,1,10,0:0:0:0:
225,366,13576,1,10,0:0:0:0:
258,138,13750,1,10,0:0:0:0:
125,282,13923,6,0,L|228:269,1,99.0000030212403,12|10,0:1|0:0,0:0:0:0:
214,240,14183,1,8,0:0:0:0:
184,235,14269,1,10,0:0:0:0:
155,230,14356,1,8,0:0:0:0:
125,226,14443,1,8,0:0:0:0:
96,221,14529,1,8,0:0:0:0:
68,217,14617,6,0,P|45:171|73:96,2,135.000005149842,14|8|8,0:1|0:1|0:1,0:0:0:0:
174,357,15657,5,10,0:1:0:0:
174,357,15830,2,0,B|225:351|235:364|325:355,1,135.000005149842,2|0,0:0|0:0,0:0:0:0:
451,369,16351,2,0,P|443:336|451:304,1,67.5000025749208,8|0,0:1|0:0,0:0:0:0:
485,215,16698,2,0,P|493:182|483:144,1,67.5000025749208,8|2,0:1|0:0,0:0:0:0:
485,149,17044,1,10,0:1:0:0:
406,167,17218,6,0,P|405:213|327:218,1,135.000005149842,2|2,0:0|0:0,0:0:0:0:
299,151,17738,1,10,0:1:0:0:
299,151,17911,2,0,B|257:171|257:171|206:166|217:104,1,135.000005149842,2|2,0:0|0:0,0:0:0:0:
279,6,18432,2,0,L|297:78,1,67.5000025749208,10|2,0:1|0:0,0:0:0:0:
148,17,18778,6,0,L|130:89,2,67.5000025749208,8|0|8,0:1|0:0|0:1,0:0:0:0:
38,48,19299,2,0,B|50:106|50:106|65:129|65:129|76:189,1,135.000005149842,0|2,0:0|0:0,0:0:0:0:
131,82,19819,5,10,0:1:0:0:
131,82,19992,2,0,P|181:72|279:71,1,135.000005149842,2|2,0:0|0:0,0:0:0:0:
215,173,20513,1,10,0:1:0:0:
215,173,20686,2,0,P|257:201|327:269,1,135.000005149842,2|2,0:0|0:0,0:0:0:0:
216,299,21206,2,0,L|229:377,1,67.5000025749208,10|2,0:1|0:0,0:0:0:0:
318,258,21553,6,0,L|329:191,2,67.5000025749208,8|0|8,0:1|0:0|0:1,0:0:0:0:
216,299,22073,2,0,B|176:325|176:325|83:301,1,135.000005149842,0|0,0:0|0:0,0:0:0:0:
60,222,22593,2,0,L|37:153,1,67.5000025749208,10|0,0:1|0:0,0:0:0:0:
211,114,22940,6,0,P|179:65|232:-4,1,135.000005149842,10|10,0:1|0:1,0:0:0:0:
328,80,23461,2,0,P|361:135|328:191,1,135.000005149842,2|10,0:0|0:3,0:0:0:0:
328,191,23894,1,8,0:3:0:0:
328,191,23981,1,8,0:3:0:0:
211,114,24154,1,10,0:3:0:0:
298,4,24328,6,0,B|349:4|349:4|379:15|379:15|447:13,1,135.000005149842,10|10,0:1|0:1,0:0:0:0:
328,191,24848,2,0,B|277:191|277:191|247:202|247:202|179:200,1,135.000005149842,2|8,0:0|0:0,0:0:0:0:
165,222,25281,1,8,0:0:0:0:
160,255,25367,1,8,0:1:0:0:
163,289,25454,1,8,0:0:0:0:
171,321,25541,1,8,0:1:0:0:
309,324,25715,6,0,L|328:188,2,135.000005149842,14|8|8,0:1|0:1|0:1,0:0:0:0:
92,196,26755,5,10,0:1:0:0:
92,196,26929,2,0,B|88:148|88:148|75:126|75:126|70:47,1,135.000005149842,2|0,0:0|0:0,0:0:0:0:
203,15,27449,2,0,L|192:88,1,67.5000025749208,8|0,0:1|0:0,0:0:0:0:
269,124,27796,2,0,L|279:57,1,67.5000025749208,8|2,0:1|0:0,0:0:0:0:
279,57,28143,1,10,0:1:0:0:
366,29,28316,6,0,P|408:47|425:133,1,135.000005149842,2|2,0:0|0:0,0:0:0:0:
470,213,28836,1,10,0:1:0:0:
470,213,29010,2,0,P|428:231|411:317,1,135.000005149842,2|2,0:0|0:0,0:0:0:0:
479,366,29530,2,0,L|490:295,1,67.5000025749208,10|2,0:1|0:0,0:0:0:0:
303,268,29877,6,0,B|255:251|243:286|157:255,2,135.000005149842,8|8|8,0:1|0:1|0:1,0:0:0:0:
212,184,30744,2,0,P|211:160|179:118,1,67.5000025749208,8|8,0:0|0:1,0:0:0:0:
134,56,31091,5,6,0:3:0:0:
57,174,31264,2,0,L|38:313,1,135.000005149842,14|10,0:1|0:1,0:0:0:0:
104,362,31784,2,0,P|134:350|178:349,1,67.5000025749208,2|8,0:0|0:1,0:0:0:0:
230,282,32131,2,0,P|260:294|304:295,1,67.5000025749208,2|8,0:0|0:1,0:0:0:0:
294,296,32478,1,2,0:0:0:0:
379,230,32651,6,0,B|403:263|394:290|432:357,1,135.000005149842,8|10,0:1|0:1,0:0:0:0:
463,218,33172,1,2,0:0:0:0:
463,218,33345,2,0,P|470:177|464:144,1,67.5000025749208,10|0,0:1|0:0,0:0:0:0:
354,23,33692,5,10,0:1:0:0:
354,23,33778,1,2,0:0:0:0:
354,23,33865,1,2,0:0:0:0:
354,23,33952,1,2,0:0:0:0:
354,23,34039,6,0,P|350:80|270:81,1,135.000005149842,10|8,0:3|0:1,0:0:0:0:
176,188,34559,1,2,0:0:0:0:
176,188,34646,1,2,0:0:0:0:
176,188,34732,1,10,0:1:0:0:
194,303,34906,1,10,0:0:0:0:
299,274,35079,1,10,0:1:0:0:
285,162,35252,1,8,0:0:0:0:
176,188,35426,5,10,0:1:0:0:
176,188,35599,2,0,P|139:185|102:169,1,67.5000025749208,2|8,0:0|0:1,0:0:0:0:
29,23,35946,5,10,0:0:0:0:
177,96,36120,1,10,0:1:0:0:
21,115,36293,1,10,0:0:0:0:
186,2,36466,2,0,B|221:6|221:6|237:18|237:18|295:38,1,101.250003862381,10|0,0:1|0:0,0:0:0:0:
332,86,36813,6,0,B|364:147|316:188|316:188|361:228,1,161.999995056153,14|8,0:1|0:0,0:0:0:0:
333,303,37333,1,2,0:0:0:0:
462,174,37507,2,0,P|457:134|441:91,1,80.9999975280763,10|8,0:0|0:1,0:0:0:0:
420,250,37854,2,0,P|425:290|441:333,1,80.9999975280763,8|10,0:0|0:1,0:0:0:0:
239,272,38200,5,10,0:0:0:0:
229,370,38374,1,2,0:0:0:0:
219,273,38547,1,10,0:0:0:0:
209,175,38721,1,2,0:0:0:0:
39,263,38894,2,0,B|112:293|63:322|152:384,1,161.999995056153,10|8,0:0|0:0,0:0:0:0:
219,273,39414,2,0,P|175:253|144:229,1,80.9999975280763,10|8,0:1|0:0,0:0:0:0:
66,101,39761,5,2,0:0:0:0:
194,60,39935,1,10,0:0:0:0:
209,175,40108,1,2,0:0:0:0:
354,150,40281,2,0,L|326:66,1,80.9999975280763,10|8,0:0|0:1,0:0:0:0:
437,148,40628,2,0,L|409:64,1,80.9999975280763,10|8,0:0|0:1,0:0:0:0:
194,60,40975,6,0,B|158:57|129:84|129:84|85:1,1,161.999995056153,10|8,0:0|0:0,0:0:0:0:
30,153,41495,1,2,0:0:0:0:
30,153,41582,1,2,0:0:0:0:
30,153,41669,1,10,0:0:0:0:
35,252,41842,1,10,0:1:0:0:
169,191,42015,1,10,0:0:0:0:
174,290,42188,1,10,0:1:0:0:
387,286,42362,6,0,B|332:284|352:237|234:240,1,161.999995056153,14|8,0:0|0:0,0:0:0:0:
359,97,42883,1,2,0:0:0:0:
407,209,43056,2,0,P|390:248|388:298,1,80.9999975280763,10|8,0:0|0:1,0:0:0:0:
475,146,43403,2,0,P|492:185|494:235,1,80.9999975280763,8|10,0:0|0:1,0:0:0:0:
359,97,43750,5,10,0:0:0:0:
267,146,43923,1,2,0:0:0:0:
199,62,44096,1,10,0:0:0:0:
291,13,44269,1,2,0:0:0:0:
211,127,44443,5,10,0:0:0:0:
227,12,44617,1,10,0:1:0:0:
347,39,44790,1,10,0:0:0:0:
331,154,44964,1,10,0:1:0:0:
185,257,45137,6,0,B|118:278|118:278|57:224,1,148.50000453186,14|8,0:1|0:1,0:0:0:0:
29,295,45830,2,0,P|14:326|103:358,1,148.50000453186,10|8,0:0|0:1,0:0:0:0:
345,344,46698,6,0,L|446:322,1,99.0000030212403,10|8,0:1|0:1,0:0:0:0:
381,242,47218,2,0,L|436:155,1,99.0000030212403,10|0,0:0|0:0,0:0:0:0:
502,203,47738,5,10,0:0:0:0:
502,203,47825,1,10,0:0:0:0:
502,203,47911,2,0,L|471:261,1,49.5000015106202,10|8,0:1|0:0,0:0:0:0:
493,267,48432,1,10,0:1:0:0:
381,242,48605,2,0,P|350:233|275:228,1,99.0000030212403,8|0,0:0|0:0,0:0:0:0:
256,146,49125,2,0,P|225:155|150:160,1,99.0000030212403,10|8,0:1|0:0,0:0:0:0:
94,215,49646,5,2,0:0:0:0:
94,215,49992,1,10,0:0:0:0:
94,215,50339,5,8,0:0:0:0:
91,239,50425,1,8,0:0:0:0:
91,264,50512,1,10,0:0:0:0:
92,289,50599,1,10,0:0:0:0:
97,313,50686,6,0,L|103:373,2,49.5000015106202,14|2|2,0:1|0:0|0:0,0:0:0:0:
97,313,51206,1,2,0:0:0:0:
34,255,51380,2,0,L|40:195,1,49.5000015106202,12|2,0:1|0:0,0:0:0:0:
31,109,51640,1,2,0:0:0:0:
39,96,51726,2,0,L|34:55,1,24.7500007553101,2|2,0:0|0:0,0:0:0:0:
147,105,51900,1,2,0:0:0:0:
147,105,51987,1,2,0:0:0:0:
147,105,52073,5,14,0:1:0:0:
237,44,52247,2,0,L|126:-2,2,107.999996704102,2|8|0,0:0|0:0|0:1,0:0:0:0:
398,192,52767,5,10,0:1:0:0:
304,136,52941,2,0,L|415:90,2,107.999996704102,10|8|0,0:1|0:0|0:0,0:0:0:0:
468,374,53461,5,10,0:1:0:0:
346,364,53634,2,0,P|370:325|366:265,2,107.999996704102,2|8|0,0:1|0:0|0:0,0:0:0:0:
81,326,54154,5,10,0:1:0:0:
203,316,54327,2,0,P|179:277|183:217,2,107.999996704102,10|8|0,0:1|0:0|0:0,0:0:0:0:
282,275,54848,5,10,0:1:0:0:
209,121,55021,2,0,B|125:99|76:146|76:146|21:82,1,215.999993408203,2|0,0:0|0:1,0:0:0:0:
231,21,55541,1,10,0:1:0:0:
231,21,55715,2,0,P|317:8|457:19,1,215.999993408203,10|0,0:1|0:0,0:0:0:0:
466,306,56235,6,0,B|413:220|471:213|390:88,2,215.999993408203,10|8|8,0:1|0:0|0:1,0:0:0:0:
350,260,57102,1,8,0:1:0:0:
328,370,57276,1,8,0:0:0:0:
193,326,57449,5,8,0:0:0:0:
193,326,57536,1,8,0:0:0:0:
193,326,57622,1,14,0:1:0:0:
193,171,57796,1,2,0:0:0:0:
183,14,57969,2,0,P|139:82|26:38,1,215.999993408203,10|8,0:0|0:1,0:0:0:0:
45,174,58489,1,8,0:1:0:0:
45,174,58663,2,0,P|59:228|68:288,1,107.999996704102,8|2,0:0|0:0,0:0:0:0:
296,200,59010,6,0,L|182:168,1,107.999996704102,10|0,0:1|0:1,0:0:0:0:
369,92,59357,1,10,0:0:0:0:
369,92,59530,2,0,B|425:72|425:72|470:180,1,161.999995056153,2|0,0:0|0:0,0:0:0:0:
482,164,59877,2,0,P|494:125|483:57,1,107.999996704102,10|8,0:1|0:0,0:0:0:0:
396,2,60224,5,2,0:0:0:0:
295,199,60397,2,0,P|285:252|298:304,1,107.999996704102,10|0,0:1|0:0,0:0:0:0:
178,181,60744,2,0,P|207:225|253:253,1,107.999996704102,10|0,0:0|0:0,0:0:0:0:
87,251,61091,2,0,P|139:261|191:248,1,107.999996704102,10|8,0:1|0:1,0:0:0:0:
178,39,61437,2,0,B|129:28|129:28|99:48|99:48|21:66,1,161.999995056153,10|0,0:0|0:0,0:0:0:0:
5,139,61784,5,14,0:1:0:0:
87,251,61958,1,2,0:0:0:0:
13,356,62131,1,10,0:0:0:0:
217,306,62304,2,0,B|345:310|288:360|427:369,1,215.999993408203,14|8,0:1|0:0,0:0:0:0:
499,290,62825,1,8,0:3:0:0:
501,310,62911,1,8,0:3:0:0:
504,331,62998,1,8,0:3:0:0:
379,223,63172,6,0,B|370:164|370:164|346:140|346:140|334:57,1,161.999995056153,14|0,0:1|0:0,0:0:0:0:
412,31,63518,2,0,P|454:83|469:141,1,107.999996704102,12|0,0:0|0:0,0:0:0:0:
220,148,63865,5,10,0:1:0:0:
125,214,64039,2,0,P|83:266|68:324,2,107.999996704102,10|8|0,0:1|0:0|0:0,0:0:0:0:
319,304,64559,5,10,0:1:0:0:
255,377,64732,2,0,L|145:350,2,107.999996704102,2|8|0,0:0|0:0|0:0,0:0:0:0:
220,148,65252,5,10,0:1:0:0:
282,221,65426,2,0,L|392:194,2,107.999996704102,10|8|0,0:1|0:0|0:0,0:0:0:0:
128,215,65946,5,10,0:1:0:0:
63,18,66120,2,0,B|107:36|107:36|135:105|135:105|229:152,1,215.999993408203,2|0,0:0|0:0,0:0:0:0:
373,24,66640,1,10,0:1:0:0:
373,24,66813,2,0,B|360:86|360:86|195:43,1,215.999993408203,10|0,0:1|0:0,0:0:0:0:
7,164,67333,6,0,B|5:228|59:255|59:255|86:322|6:342,2,215.999993408203,10|8|8,0:1|0:0|0:1,0:0:0:0:
179,137,68200,1,8,0:1:0:0:
170,264,68374,1,8,0:0:0:0:
311,191,68547,5,8,0:0:0:0:
311,191,68634,1,8,0:0:0:0:
311,191,68721,1,14,0:1:0:0:
313,349,68894,1,2,0:0:0:0:
459,246,69067,2,0,B|499:188|452:97|452:97|434:126|404:154,1,215.999993408203,10|8,0:0|0:1,0:0:0:0:
307,33,69588,1,8,0:1:0:0:
307,33,69761,2,0,L|432:3,1,107.999996704102,8|2,0:0|0:0,0:0:0:0:
311,191,70108,6,0,B|201:175|229:236|76:197,1,215.999993408203,10|10,0:1|0:0,0:0:0:0:
25,9,70628,2,0,L|46:136,1,107.999996704102,2|8,0:0|0:1,0:0:0:0:
180,126,70975,2,0,B|144:96|144:96|113:33|186:-6,1,161.999995056153,10|0,0:1|0:0,0:0:0:0:
191,24,71322,1,2,0:0:0:0:
311,191,71495,6,0,L|264:299,1,107.999996704102,10|0,0:1|0:0,0:0:0:0:
405,207,71842,2,0,L|295:250,1,107.999996704102,10|0,0:0|0:0,0:0:0:0:
465,299,72189,2,0,L|356:252,1,107.999996704102,10|8,0:1|0:1,0:0:0:0:
358,16,72536,2,0,B|420:10|420:10|440:63|416:112,1,161.999995056153,10|0,0:0|0:0,0:0:0:0:
480,155,72883,5,14,0:1:0:0:
319,97,73056,1,2,0:0:0:0:
225,222,73229,1,10,0:0:0:0:
121,21,73403,2,0,B|160:96|126:172|126:172|44:185,1,215.999993408203,10|8,0:1|0:0,0:0:0:0:
41,164,73836,1,8,0:0:0:0:
36,131,73922,1,8,0:0:0:0:
32,99,74009,1,8,0:0:0:0:
27,67,74096,1,8,0:0:0:0:
23,35,74182,1,8,0:0:0:0:
19,3,74269,5,14,0:1:0:0:
174,94,74443,1,2,0:0:0:0:
67,181,74617,1,10,0:0:0:0:
232,298,74790,2,0,L|463:266,1,215.999993408203,14|10,0:1|0:1,0:0:0:0:
408,359,75310,2,0,L|293:373,1,107.999996704102,10|2,0:0|0:0,0:0:0:0:
218,190,75657,6,0,L|232:298,1,107.999996704102,14|2,0:1|0:0,0:0:0:0:
169,360,76004,1,10,0:0:0:0:
8,252,76177,2,0,B|67:160|-6:164|82:35,1,215.999993408203,14|8,0:1|0:1,0:0:0:0:
194,0,76698,2,0,P|195:61|220:108,1,107.999996704102,10|2,0:0|0:0,0:0:0:0:
296,151,76958,1,2,0:0:0:0:
296,151,77044,5,14,0:1:0:0:
296,151,77391,2,0,B|428:130|428:130|473:152|442:209,1,215.999993408203,14|10,0:0|0:1,0:0:0:0:
446,199,77911,1,8,0:1:0:0:
394,342,78085,2,0,P|383:286|361:229,1,107.999996704102,10|0,0:0|0:0,0:0:0:0:
196,236,78432,6,0,P|174:306|296:358,2,215.999993408203,10|8|8,0:1|0:0|0:1,0:0:0:0:
81,25,79299,5,10,0:0:0:0:
73,62,79385,1,8,0:0:0:0:
65,99,79472,1,8,0:0:0:0:
57,136,79559,1,8,0:0:0:0:
52,175,79646,2,0,L|65:234,1,53.9999983520508,10|8,0:0|0:0,0:0:0:0:
196,236,79819,6,0,B|246:232|246:232|274:240|274:240|374:233,1,175.499991966248,12|8,0:1|0:1,0:0:0:0:
349,153,80513,1,8,0:0:0:0:
349,153,80686,2,0,P|305:152|228:124,1,116.999994644165,2|8,0:0|0:1,0:0:0:0:
274,55,81206,5,2,0:0:0:0:
274,55,81380,2,0,P|328:34|386:30,1,116.999994644165,10|8,0:1|0:1,0:0:0:0:
464,15,81900,1,10,0:0:0:0:
481,89,82073,2,0,L|470:209,1,116.999994644165,2|8,0:0|0:0,0:0:0:0:
359,269,82593,5,14,0:1:0:0:
359,269,82767,2,0,L|348:152,1,116.999994644165,2|0,0:0|0:0,0:0:0:0:
222,322,83287,5,14,0:1:0:0:
222,322,83461,2,0,L|232:205,1,116.999994644165,2|0,0:0|0:0,0:0:0:0:
176,152,83981,5,14,0:1:0:0:
256,192,84067,12,0,90570,0:0:0:0:
