osu file format v14

[General]
AudioFilename: audio.mp3
AudioLeadIn: 0
PreviewTime: 51987
Countdown: 0
SampleSet: Soft
StackLeniency: 0.7
Mode: 0
LetterboxInBreaks: 0
WidescreenStoryboard: 0

[Editor]
DistanceSpacing: 1.3
BeatDivisor: 4
GridSize: 32
TimelineZoom: 1.9

[Metadata]
Title:Darling (TV Size)
TitleUnicode:ダーリン (TV Size)
Artist:XX:me
ArtistUnicode:XX:me
Creator:Adinda
Version:Hard
Source:ダーリン・イン・ザ・フランキス
Tags:Darling in the FRANXX Ending ED Zero Two Ichigo Miku Kokoro Ikuno キス・ミー kiss me Anime Japanese Jpop J-pop
BeatmapID:2634567
BeatmapSetID:1267711

[Difficulty]
HPDrainRate:4.5
CircleSize:3.8
OverallDifficulty:7
ApproachRate:8
SliderMultiplier:1.4
SliderTickRate:1

[Events]
//Background and Video events
0,0,"a.jpg",0,0
//Break Periods
//Storyboard Layer 0 (Background)
//Storyboard Layer 1 (Fail)
//Storyboard Layer 2 (Pass)
//Storyboard Layer 3 (Foreground)
//Storyboard Layer 4 (Overlay)
//Storyboard Sound Samples

[TimingPoints]
-643,346.820809248555,4,2,1,50,1,0
397,-117.647058823529,4,2,1,50,0,0
3518,-117.647058823529,4,2,1,60,0,0
5079,-117.647058823529,4,2,1,70,0,0
6293,-100,4,2,1,85,0,0
12102,-100,4,2,1,5,0,0
12189,-100,4,2,1,85,0,0
14617,-111.111111111111,4,2,1,70,0,0
34039,-111.111111111111,4,2,1,75,0,0
36813,-105.263157894737,4,2,1,80,0,0
45137,-111.111111111111,4,2,1,70,0,0
52073,-95.2380952380952,4,2,1,90,0,1
63432,-95.2380952380952,4,2,1,5,0,1
63519,-95.2380952380952,4,2,1,90,0,1
79819,-111.111111111111,4,2,1,80,0,0
84067,-100,4,2,1,65,0,0
85368,-100,4,2,1,50,0,0
86755,-100,4,2,1,35,0,0
88143,-100,4,2,1,20,0,0
89530,-100,4,2,1,5,0,0

[Colours]
Combo1 : 0,128,255
Combo2 : 255,155,205
Combo3 : 255,0,0

[HitObjects]
77,125,397,6,0,L|155:109,1,59.5000011348724,2|2,0:0|0:0,0:0:0:0:
204,148,744,2,0,P|231:197|206:265,1,119.000002269745,2|2,0:0|0:0,0:0:0:0:
283,291,1264,2,0,B|346:293|326:319|410:326,1,119.000002269745,2|2,0:0|0:0,0:0:0:0:
442,262,1784,6,0,P|475:200|426:46,1,238.00000453949,2|2,0:0|0:0,0:0:0:0:
277,13,2825,2,0,L|264:142,1,119.000002269745,2|2,0:0|0:0,0:0:0:0:
208,184,3345,1,2,0:0:0:0:
141,144,3518,6,0,L|129:25,1,119.000002269745,2|2,0:0|0:0,0:0:0:0:
54,49,4039,2,0,L|65:167,1,119.000002269745,2|2,0:0|0:0,0:0:0:0:
118,224,4559,6,0,P|100:264|202:331,1,178.500003404617,2|8,0:0|0:0,0:0:0:0:
244,285,5252,2,0,L|316:284,1,59.5000011348724,8|8,0:1|0:1,0:0:0:0:
366,239,5599,2,0,L|435:238,1,59.5000011348724,8|8,0:0|0:1,0:0:0:0:
480,292,5946,2,0,L|482:331,3,29.7500005674362,10|8|10|8,0:0|0:0|0:0|0:0,0:0:0:0:
494,365,6293,6,0,B|445:355|445:355|406:366|406:366|346:355,1,140,14|10,0:1|0:1,0:0:0:0:
272,323,6813,2,0,B|223:333|223:333|184:322|184:322|124:333,1,140,10|2,0:0|0:0,0:0:0:0:
167,245,7333,2,0,P|181:189|153:115,1,140,10|8,0:0|0:1,0:0:0:0:
96,41,7854,6,0,L|180:20,1,70,10|0,0:0|0:0,0:0:0:0:
248,57,8200,1,10,0:1:0:0:
248,57,8374,2,0,L|332:78,1,70,14|0,0:0|0:1,0:0:0:0:
373,144,8721,1,10,0:0:0:0:
334,226,8894,1,2,0:0:0:0:
379,304,9067,6,0,P|439:284|455:191,2,140,14|8|8,0:1|0:0|0:1,0:0:0:0:
334,226,9935,2,0,L|319:153,1,70,2|10,0:0|0:0,0:0:0:0:
230,172,10281,6,0,B|215:250|251:238|228:321,1,140,2|10,0:0|0:0,0:0:0:0:
232,317,10715,1,8,0:0:0:0:
233,323,10802,1,10,0:0:0:0:
314,362,10975,1,8,0:0:0:0:
396,323,11148,2,0,L|402:285,3,35,10|8|10|8,0:0|0:0|0:3|0:3,0:0:0:0:
441,266,11495,2,0,L|447:228,3,35,10|8|6|4,0:3|0:3|0:3|0:3,0:0:0:0:
479,199,11842,6,0,B|438:187|454:141|349:126,1,140,14|8,0:1|0:0,0:0:0:0:
280,88,12362,1,8,0:0:0:0:
280,88,12536,2,0,L|210:79,1,70,8|8,0:0|0:0,0:0:0:0:
121,57,12883,1,8,0:0:0:0:
45,106,13056,5,10,0:0:0:0:
45,106,13229,2,0,P|54:155|54:188,1,70,10|10,0:0|0:0,0:0:0:0:
40,268,13576,1,10,0:0:0:0:
40,268,13750,1,10,0:0:0:0:
126,240,13923,2,0,L|214:229,1,70,12|10,0:1|0:0,0:0:0:0:
201,234,14183,1,8,0:0:0:0:
207,237,14270,2,8,L|256:252,3,35,10|8|8|8,0:0|0:0|0:0|0:0,0:0:0:0:
281,240,14617,6,0,P|267:289|278:372,2,125.999996154785,14|8|8,0:1|0:1|0:1,0:0:0:0:
185,106,15657,5,10,0:1:0:0:
185,106,15830,2,0,B|226:99|226:99|255:106|255:106|323:93,1,125.999996154785,2|0,0:0|0:0,0:0:0:0:
348,23,16351,1,8,0:1:0:0:
488,106,16698,2,0,P|482:137|481:169,1,62.9999980773926,8|2,0:1|0:0,0:0:0:0:
403,196,17044,1,10,0:1:0:0:
403,196,17218,6,0,P|398:258|462:285,1,125.999996154785,2|2,0:0|0:0,0:0:0:0:
412,359,17738,1,10,0:1:0:0:
412,359,17911,2,0,L|285:340,1,125.999996154785,2|2,0:0|0:0,0:0:0:0:
247,267,18432,2,0,P|255:230|235:198,1,62.9999980773926,10|2,0:1|0:0,0:0:0:0:
166,229,18778,6,0,P|157:278|155:362,2,125.999996154785,8|8|8,0:1|0:1|0:1,0:0:0:0:
194,151,19646,2,0,L|181:64,1,62.9999980773926,2|10,0:0|0:1,0:0:0:0:
265,74,19992,6,0,B|310:81|310:81|337:95|337:95|394:108,1,125.999996154785,2|2,0:0|0:0,0:0:0:0:
389,23,20513,1,10,0:1:0:0:
389,23,20686,2,0,L|243:-5,1,125.999996154785,2|2,0:0|0:0,0:0:0:0:
183,7,21206,2,0,P|154:20|119:26,1,62.9999980773926,10|2,0:1|0:0,0:0:0:0:
69,87,21553,6,0,B|48:126|48:126|48:170|86:211,2,125.999996154785,8|8|10,0:1|0:1|0:1,0:0:0:0:
199,186,22593,1,10,0:1:0:0:
102,318,22940,6,0,B|141:319|163:353|230:354,1,125.999996154785,10|10,0:1|0:1,0:0:0:0:
302,370,23461,2,0,P|337:360|441:358,1,125.999996154785,2|10,0:0|0:3,0:0:0:0:
432,355,23894,1,8,0:3:0:0:
438,355,23981,1,8,0:3:0:0:
488,290,24154,1,10,0:3:0:0:
428,233,24328,6,0,B|412:188|412:188|432:110,1,125.999996154785,10|10,0:1|0:1,0:0:0:0:
349,110,24848,2,0,P|307:104|284:97,1,62.9999980773926,2|8,0:0|0:1,0:0:0:0:
232,158,25195,2,0,L|220:202,4,31.4999990386963,8|8|8|8|8,0:0|0:0|0:1|0:0|0:1,0:0:0:0:
187,88,25715,6,0,P|143:91|113:22,2,125.999996154785,14|8|8,0:1|0:1|0:1,0:0:0:0:
345,44,26755,1,10,0:1:0:0:
345,44,26929,2,0,B|377:57|377:57|392:92|392:92|428:139,1,125.999996154785,2|0,0:0|0:0,0:0:0:0:
483,191,27449,1,8,0:1:0:0:
372,312,27796,2,0,P|337:302|306:302,1,62.9999980773926,8|2,0:1|0:0,0:0:0:0:
239,343,28143,5,10,0:1:0:0:
239,343,28316,2,0,B|199:362|199:362|112:344,1,125.999996154785,2|2,0:0|0:0,0:0:0:0:
133,264,28836,1,10,0:1:0:0:
133,264,29010,2,0,P|121:226|159:146,1,125.999996154785,2|2,0:0|0:0,0:0:0:0:
234,163,29530,2,0,L|245:233,1,62.9999980773926,10|2,0:1|0:0,0:0:0:0:
323,206,29877,6,0,B|370:204|370:204|388:210|388:210|460:206,2,125.999996154785,8|8|8,0:1|0:1|0:1,0:0:0:0:
314,124,30744,2,0,P|317:98|314:46,1,62.9999980773926,8|8,0:0|0:1,0:0:0:0:
244,20,31091,1,6,0:3:0:0:
177,66,31264,6,0,L|45:34,1,125.999996154785,14|10,0:1|0:1,0:0:0:0:
12,107,31784,2,0,L|134:136,1,125.999996154785,2|2,0:0|0:0,0:0:0:0:
171,210,32304,2,0,P|158:242|158:285,1,62.9999980773926,8|2,0:1|0:0,0:0:0:0:
237,281,32651,6,0,B|307:275|296:298|375:286,1,125.999996154785,8|10,0:1|0:1,0:0:0:0:
335,209,33172,1,2,0:0:0:0:
335,209,33345,2,0,P|331:163|350:131,1,62.9999980773926,10|0,0:1|0:0,0:0:0:0:
390,85,33692,2,0,L|429:82,3,31.4999990386963,10|2|2|2,0:1|0:0|0:0|0:0,0:0:0:0:
456,103,34039,6,0,B|481:136|481:136|497:179|478:238,1,125.999996154785,10|8,0:3|0:1,0:0:0:0:
448,293,34559,1,2,0:0:0:0:
386,347,34732,2,0,L|308:337,1,62.9999980773926,10|10,0:1|0:0,0:0:0:0:
276,271,35079,2,0,L|198:261,1,62.9999980773926,10|8,0:1|0:0,0:0:0:0:
158,202,35426,5,10,0:1:0:0:
158,202,35599,2,0,B|155:164|138:135|138:64,1,125.999996154785,2|10,0:0|0:0,0:0:0:0:
62,45,36120,2,0,L|41:120,1,62.9999980773926,10|10,0:1|0:0,0:0:0:0:
49,187,36466,1,10,0:1:0:0:
127,330,36813,6,0,B|177:329|177:329|199:336|199:336|272:333,1,132.999996448517,14|8,0:1|0:0,0:0:0:0:
278,249,37333,1,2,0:0:0:0:
278,249,37507,2,0,P|253:188|282:117,1,132.999996448517,10|8,0:0|0:0,0:0:0:0:
359,128,38027,5,10,0:1:0:0:
359,128,38200,2,0,L|377:205,1,66.4999982242585,10|2,0:0|0:0,0:0:0:0:
460,183,38547,2,0,L|444:118,1,66.4999982242585,10|2,0:0|0:0,0:0:0:0:
398,44,38894,2,0,B|346:34|349:53|246:29,1,132.999996448517,10|8,0:0|0:0,0:0:0:0:
196,85,39414,6,0,P|167:155|194:213,1,132.999996448517,10|2,0:1|0:0,0:0:0:0:
261,249,39935,2,0,L|270:319,1,66.4999982242585,10|2,0:0|0:0,0:0:0:0:
193,354,40281,2,0,L|184:288,1,66.4999982242585,10|8,0:0|0:1,0:0:0:0:
106,250,40628,2,0,P|67:253|34:241,1,66.4999982242585,10|8,0:0|0:1,0:0:0:0:
37,158,40975,6,0,B|117:146|90:173|186:148,1,132.999996448517,10|8,0:0|0:0,0:0:0:0:
251,124,41495,1,2,0:0:0:0:
279,205,41669,1,10,0:0:0:0:
350,157,41842,1,10,0:1:0:0:
378,238,42015,2,0,P|384:273|387:308,1,66.4999982242585,10|8,0:0|0:1,0:0:0:0:
463,263,42362,6,0,P|483:240|475:140,1,132.999996448517,14|8,0:0|0:0,0:0:0:0:
450,60,42883,1,2,0:0:0:0:
450,60,43056,2,0,L|310:37,1,132.999996448517,10|8,0:0|0:0,0:0:0:0:
275,113,43576,1,10,0:1:0:0:
275,113,43750,6,0,P|294:150|305:184,1,66.4999982242585,10|2,0:0|0:0,0:0:0:0:
224,212,44096,2,0,P|212:180|196:151,1,66.4999982242585,10|2,0:0|0:0,0:0:0:0:
170,68,44443,1,10,0:0:0:0:
170,68,44617,1,10,0:1:0:0:
114,133,44790,2,0,P|98:162|86:193,1,66.4999982242585,10|8,0:0|0:1,0:0:0:0:
56,264,45137,6,0,P|43:334|147:354,1,188.999994232178,14|8,0:1|0:1,0:0:0:0:
203,311,45830,2,0,B|277:306|277:306|312:317|312:317|397:308,1,188.999994232178,10|8,0:0|0:1,0:0:0:0:
281,184,46698,6,0,P|242:145|247:74,1,125.999996154785,10|8,0:1|0:1,0:0:0:0:
298,15,47218,2,0,L|429:-2,1,125.999996154785,10|0,0:0|0:0,0:0:0:0:
473,63,47738,1,10,0:0:0:0:
411,117,47911,6,0,P|404:151|416:197,1,62.9999980773926,10|8,0:1|0:0,0:0:0:0:
481,325,48432,1,10,0:1:0:0:
409,363,48605,2,0,L|281:355,1,125.999996154785,8|0,0:0|0:0,0:0:0:0:
285,272,49125,6,0,L|157:264,1,125.999996154785,10|8,0:1|0:0,0:0:0:0:
161,181,49646,1,2,0:0:0:0:
323,161,49992,1,8,0:0:0:0:
485,138,50339,2,0,L|492:95,3,31.4999990386963,8|8|10|10,0:0|0:0|0:0|0:0,0:0:0:0:
470,70,50686,6,0,L|451:6,1,62.9999980773926,14|2,0:1|0:0,0:0:0:0:
371,23,51033,1,2,0:0:0:0:
371,23,51206,2,0,L|388:83,1,62.9999980773926,2|12,0:0|0:1,0:0:0:0:
306,78,51553,1,2,0:0:0:0:
306,78,51640,1,2,0:0:0:0:
306,78,51726,2,0,L|269:71,3,31.4999990386963,2|2|2|2,0:0|0:0|0:0|0:0,0:0:0:0:
242,36,52073,5,14,0:1:0:0:
194,119,52247,2,0,B|144:125|144:125|97:161|138:222,1,146.999995513916,2|0,0:0|0:1,0:0:0:0:
223,236,52767,1,10,0:1:0:0:
223,236,52940,2,0,P|277:215|373:220,1,146.999995513916,10|0,0:1|0:0,0:0:0:0:
366,313,53461,5,10,0:1:0:0:
366,313,53634,2,0,P|312:334|216:329,1,146.999995513916,2|0,0:1|0:0,0:0:0:0:
129,315,54154,1,10,0:1:0:0:
129,315,54328,2,0,B|57:342|57:342|36:273,1,146.999995513916,10|0,0:1|0:0,0:0:0:0:
36,179,54848,5,10,0:1:0:0:
50,84,55021,2,0,B|110:85|110:85|133:94|133:94|222:91,1,146.999995513916,2|0,0:0|0:1,0:0:0:0:
273,36,55541,1,10,0:1:0:0:
273,36,55715,2,0,L|423:22,1,146.999995513916,10|0,0:1|0:0,0:0:0:0:
436,116,56235,6,0,P|411:177|434:257,2,146.999995513916,10|8|8,0:1|0:0|0:1,0:0:0:0:
419,22,57102,1,8,0:1:0:0:
345,83,57276,2,0,L|321:161,1,73.4999977569581,8|8,0:0|0:0,0:0:0:0:
322,160,57536,1,8,0:0:0:0:
321,167,57622,5,14,0:1:0:0:
230,135,57796,1,2,0:0:0:0:
138,109,57969,2,0,B|104:91|104:91|31:106|63:186,1,146.999995513916,10|8,0:0|0:1,0:0:0:0:
43,265,58489,1,8,0:1:0:0:
43,265,58663,2,0,P|85:255|125:254,1,73.4999977569581,8|2,0:0|0:0,0:0:0:0:
200,296,59010,6,0,P|182:334|266:341,1,146.999995513916,10|10,0:1|0:0,0:0:0:0:
345,315,59530,2,0,L|340:237,1,73.4999977569581,2|8,0:0|0:1,0:0:0:0:
272,180,59877,2,0,B|214:177|221:140|113:139,1,146.999995513916,10|2,0:1|0:0,0:0:0:0:
172,52,60397,6,0,L|261:42,1,73.4999977569581,10|0,0:1|0:0,0:0:0:0:
338,20,60744,2,0,L|431:14,1,73.4999977569581,10|0,0:0|0:0,0:0:0:0:
488,72,61091,2,0,P|506:141|491:213,1,146.999995513916,10|10,0:1|0:0,0:0:0:0:
321,303,61784,5,14,0:1:0:0:
262,378,61958,1,2,0:0:0:0:
224,290,62131,1,10,0:0:0:0:
157,357,62304,2,0,P|105:360|85:273,1,146.999995513916,14|8,0:1|0:0,0:0:0:0:
57,187,62825,1,8,0:3:0:0:
57,187,62911,1,8,0:3:0:0:
57,187,62998,1,8,0:3:0:0:
108,118,63172,6,0,L|226:105,1,110.249996635437,14|0,0:1|0:0,0:0:0:0:
260,125,63518,2,0,P|246:159|265:212,1,73.4999977569581,12|0,0:0|0:0,0:0:0:0:
343,224,63865,1,10,0:1:0:0:
343,224,64039,2,0,L|383:83,1,146.999995513916,10|0,0:1|0:0,0:0:0:0:
303,28,64559,5,10,0:1:0:0:
303,28,64732,2,0,B|254:22|254:22|213:40|213:40|159:36,1,146.999995513916,2|0,0:0|0:0,0:0:0:0:
106,115,65252,1,10,0:1:0:0:
106,115,65426,2,0,P|119:164|125:262,1,146.999995513916,10|0,0:1|0:0,0:0:0:0:
57,328,65946,5,10,0:1:0:0:
152,338,66120,2,0,B|253:337|198:371|314:355,1,146.999995513916,2|2,0:0|0:0,0:0:0:0:
316,263,66640,1,10,0:1:0:0:
316,263,66813,2,0,P|301:203|336:127,1,146.999995513916,10|0,0:1|0:0,0:0:0:0:
417,176,67333,6,0,L|431:336,2,146.999995513916,10|8|8,0:1|0:0|0:1,0:0:0:0:
502,132,68200,1,8,0:1:0:0:
502,132,68374,2,0,L|512:215,1,73.4999977569581,8|8,0:0|0:0,0:0:0:0:
510,212,68634,1,8,0:0:0:0:
510,219,68721,5,14,0:1:0:0:
456,296,68894,1,2,0:0:0:0:
398,372,69067,2,0,P|338:352|252:355,1,146.999995513916,10|8,0:0|0:1,0:0:0:0:
185,287,69588,1,8,0:1:0:0:
185,287,69761,2,0,L|151:357,1,73.4999977569581,8|2,0:0|0:0,0:0:0:0:
90,279,70108,6,0,B|54:264|54:264|19:210|63:159,1,146.999995513916,10|10,0:1|0:0,0:0:0:0:
154,173,70628,2,0,L|169:93,1,73.4999977569581,2|8,0:0|0:1,0:0:0:0:
246,47,70975,2,0,B|276:74|276:74|295:197,1,146.999995513916,10|2,0:1|0:0,0:0:0:0:
368,236,71495,6,0,L|389:160,1,73.4999977569581,10|0,0:1|0:0,0:0:0:0:
476,178,71842,2,0,L|455:100,1,73.4999977569581,10|0,0:0|0:0,0:0:0:0:
383,40,72189,2,0,P|308:64|237:40,1,146.999995513916,10|10,0:1|0:0,0:0:0:0:
75,134,72883,5,14,0:1:0:0:
45,216,73056,1,2,0:0:0:0:
137,193,73229,1,10,0:0:0:0:
104,283,73403,2,0,P|98:318|104:367,1,73.4999977569581,10|0,0:1|0:0,0:0:0:0:
192,326,73750,1,8,0:0:0:0:
192,326,73836,1,8,0:0:0:0:
192,326,73923,2,0,L|253:322,3,36.749998878479,8|8|8|8,0:0|0:0|0:0|0:0,0:0:0:0:
271,344,74270,5,14,0:1:0:0:
337,288,74443,1,2,0:0:0:0:
270,218,74617,1,10,0:0:0:0:
353,171,74790,2,0,B|340:126|373:68|373:68|410:89,1,146.999995513916,14|10,0:1|0:1,0:0:0:0:
479,150,75310,2,0,P|491:189|494:221,1,73.4999977569581,10|2,0:0|0:0,0:0:0:0:
404,256,75657,6,0,P|392:295|390:329,1,73.4999977569581,14|2,0:1|0:0,0:0:0:0:
302,367,76004,1,10,0:0:0:0:
221,316,76177,2,0,L|67:288,1,146.999995513916,14|8,0:1|0:1,0:0:0:0:
116,202,76698,2,0,L|192:193,1,73.4999977569581,10|2,0:0|0:0,0:0:0:0:
196,191,76958,1,2,0:0:0:0:
203,189,77044,5,14,0:1:0:0:
381,121,77391,2,0,P|385:182|470:185,1,146.999995513916,14|10,0:0|0:1,0:0:0:0:
487,103,77911,1,8,0:1:0:0:
487,103,78085,2,0,L|479:24,1,73.4999977569581,10|0,0:0|0:0,0:0:0:0:
383,26,78432,6,0,B|332:24|332:24|292:36|292:36|208:28,1,146.999995513916,10|8,0:1|0:0,0:0:0:0:
100,163,79125,1,8,0:1:0:0:
178,218,79299,1,10,0:0:0:0:
178,218,79385,1,8,0:0:0:0:
178,218,79472,2,0,L|183:264,3,36.749998878479,8|8|10|8,0:0|0:0|0:0|0:0,0:0:0:0:
220,268,79819,6,0,B|309:264|289:298|406:281,1,188.999994232178,12|8,0:1|0:1,0:0:0:0:
395,362,80513,1,8,0:0:0:0:
395,362,80686,2,0,P|341:361|266:364,1,125.999996154785,2|8,0:0|0:1,0:0:0:0:
189,343,81206,5,2,0:0:0:0:
189,343,81380,2,0,P|130:358|65:312,1,125.999996154785,10|8,0:1|0:1,0:0:0:0:
79,245,81900,1,10,0:0:0:0:
79,245,82073,2,0,L|74:112,1,125.999996154785,2|8,0:0|0:0,0:0:0:0:
128,57,82593,5,14,0:1:0:0:
198,99,82767,2,0,B|264:115|264:115|316:79,1,125.999996154785,2|0,0:0|0:0,0:0:0:0:
389,55,83287,1,14,0:1:0:0:
406,135,83461,2,0,P|395:206|399:260,1,125.999996154785,2|0,0:0|0:0,0:0:0:0:
466,307,83981,5,14,0:1:0:0:
256,192,84067,12,0,90570,0:0:0:0:
