osu file format v14

[General]
AudioFilename: audio.mp3
AudioLeadIn: 0
PreviewTime: 51987
Countdown: 0
SampleSet: Soft
StackLeniency: 0.7
Mode: 0
LetterboxInBreaks: 0
WidescreenStoryboard: 0

[Editor]
DistanceSpacing: 1.5
BeatDivisor: 4
GridSize: 32
TimelineZoom: 1.9

[Metadata]
Title:Darling (TV Size)
TitleUnicode:ダーリン (TV Size)
Artist:XX:me
ArtistUnicode:XX:me
Creator:Adinda
Version:Expert
Source:ダーリン・イン・ザ・フランキス
Tags:Darling in the FRANXX Ending ED Zero Two Ichigo Miku Kokoro Ikuno キス・ミー kiss me Anime Japanese Jpop J-pop
BeatmapID:2634566
BeatmapSetID:1267711

[Difficulty]
HPDrainRate:5.5
CircleSize:4
OverallDifficulty:8.5
ApproachRate:9.2
SliderMultiplier:2
SliderTickRate:1

[Events]
//Background and Video events
0,0,"a.jpg",0,0
//Break Periods
//Storyboard Layer 0 (Background)
//Storyboard Layer 1 (Fail)
//Storyboard Layer 2 (Pass)
//Storyboard Layer 3 (Foreground)
//Storyboard Layer 4 (Overlay)
//Storyboard Sound Samples

[TimingPoints]
-643,346.820809248555,4,2,1,50,1,0
744,-153.846153846153,4,2,1,50,0,0
3518,-153.846153846153,4,2,1,60,0,0
5079,-153.846153846153,4,2,1,70,0,0
6293,-90.9090909090909,4,2,1,85,0,0
12102,-90.9090909090909,4,2,1,5,0,0
12189,-90.9090909090909,4,2,1,85,0,0
14617,-133.333333333333,4,2,1,70,0,0
34039,-133.333333333333,4,2,1,75,0,0
36726,-133.333333333333,4,2,1,5,0,0
36814,-111.111111111111,4,2,1,80,0,0
45137,-181.818181818181,4,2,1,70,0,0
52073,-83.3333333333333,4,2,1,90,0,1
54761,-83.3333333333333,4,2,1,5,0,1
54848,-83.3333333333333,4,2,1,90,0,1
59790,-83.3333333333333,4,2,1,5,0,1
59877,-83.3333333333333,4,2,1,90,0,1
63432,-83.3333333333333,4,2,1,5,0,1
63519,-83.3333333333333,4,2,1,90,0,1
65859,-83.3333333333333,4,2,1,5,0,1
65946,-83.3333333333333,4,2,1,90,0,1
71235,-83.3333333333333,4,2,1,5,0,1
71322,-83.3333333333333,4,2,1,90,0,1
77088,-83.3333333333333,4,2,1,5,0,1
77391,-83.3333333333333,4,2,1,90,0,1
79819,-153.846153846153,4,2,1,80,0,0
84067,-153.846153846153,4,2,1,65,0,0
85368,-153.846153846153,4,2,1,50,0,0
86755,-153.846153846153,4,2,1,35,0,0
88143,-153.846153846153,4,2,1,20,0,0
89530,-153.846153846153,4,2,1,5,0,0

[Colours]
Combo1 : 0,128,255
Combo2 : 255,155,205
Combo3 : 255,0,0

[HitObjects]
157,78,397,5,2,0:0:0:0:
90,35,570,1,2,0:0:0:0:
17,122,744,6,0,L|90:113,1,64.9999970245363,2|0,0:0|0:0,0:0:0:0:
68,200,1091,1,2,0:0:0:0:
68,200,1264,2,0,L|141:209,1,64.9999970245363,2|0,0:0|0:0,0:0:0:0:
132,207,1611,1,2,0:0:0:0:
228,171,1784,6,0,P|237:253|74:315,1,259.999988098145,2|2,0:0|0:0,0:0:0:0:
98,326,2825,1,2,0:0:0:0:
350,272,3172,5,2,0:0:0:0:
418,332,3345,1,2,0:0:0:0:
418,332,3432,1,2,0:0:0:0:
418,332,3518,2,0,P|425:297|443:261,1,64.9999970245363,2|0,0:0|0:0,0:0:0:0:
387,180,3865,1,2,0:0:0:0:
387,180,4039,2,0,P|380:145|362:109,1,64.9999970245363,2|0,0:0|0:0,0:0:0:0:
367,118,4385,1,2,0:0:0:0:
334,21,4559,6,0,B|200:7|276:53|134:33,1,194.999991073609,2|8,0:0|0:0,0:0:0:0:
65,101,5252,1,8,0:1:0:0:
151,134,5426,1,8,0:1:0:0:
23,267,5599,2,0,L|37:190,1,64.9999970245363,8|8,0:0|0:1,0:0:0:0:
226,198,5946,5,10,0:0:0:0:
247,244,6032,1,8,0:0:0:0:
237,295,6119,1,10,0:0:0:0:
201,330,6206,1,8,0:0:0:0:
155,345,6293,6,0,B|113:342|113:342|85:355|85:355|43:348,1,110.000003356934,14|0,0:1|0:0,0:0:0:0:
226,198,6640,1,10,0:1:0:0:
296,262,6813,2,0,B|338:259|338:259|366:272|366:272|408:265,1,110.000003356934,10|8,0:0|0:1,0:0:0:0:
314,145,7160,5,2,0:0:0:0:
431,6,7333,2,0,B|490:24|490:24|524:117|442:170,1,220.000006713867,10|8,0:0|0:1,0:0:0:0:
430,369,7854,2,0,P|428:323|401:263,1,110.000003356934,10|0,0:0|0:0,0:0:0:0:
97,173,8200,1,10,0:1:0:0:
97,173,8287,1,8,0:1:0:0:
97,173,8374,2,8,P|95:219|68:279,1,110.000003356934,14|0,0:0|0:1,0:1:0:0:
165,304,8721,5,10,0:0:0:0:
9,144,8894,1,2,0:0:0:0:
214,0,9067,6,0,B|297:-3|297:-3|338:11|338:11|448:6,2,220.000006713867,14|8|8,0:1|0:0|0:1,0:0:0:0:
383,120,9935,5,2,0:0:0:0:
273,216,10108,1,10,0:0:0:0:
408,329,10281,2,0,B|399:276|399:276|430:220,1,110.000003356934,2|8,0:0|0:1,0:0:0:0:
273,216,10628,1,10,0:0:0:0:
273,216,10715,1,8,0:0:0:0:
273,216,10802,1,10,0:0:0:0:
219,382,10975,1,8,0:0:0:0:
45,287,11148,5,10,0:0:0:0:
45,287,11235,1,8,0:0:0:0:
45,287,11322,2,8,L|30:215,1,55.0000016784668,10|8,0:3|0:3,0:3:0:0:
184,294,11495,2,8,L|129:342,1,55.0000016784668,10|8,0:3|0:3,0:3:0:0:
115,171,11669,2,4,L|184:194,1,55.0000016784668,6|4,0:3|0:3,0:3:0:0:
371,73,11842,6,0,B|292:66|336:26|194:31,1,165.000005035401,14|0,0:1|0:0,0:0:0:0:
182,16,12189,5,8,0:0:0:0:
71,59,12362,1,8,0:0:0:0:
115,171,12536,1,8,0:0:0:0:
227,135,12709,1,8,0:0:0:0:
71,59,12883,1,8,0:0:0:0:
35,248,13056,5,10,0:0:0:0:
227,135,13229,1,10,0:0:0:0:
35,273,13403,1,10,0:0:0:0:
227,160,13576,1,10,0:0:0:0:
269,367,13750,1,10,0:0:0:0:
499,241,13923,1,12,0:1:0:0:
359,197,14096,5,10,0:0:0:0:
336,246,14182,1,8,0:0:0:0:
349,298,14269,1,10,0:0:0:0:
392,330,14356,1,8,0:0:0:0:
446,326,14442,1,8,0:0:0:0:
486,291,14529,1,8,0:0:0:0:
499,241,14617,6,8,B|428:237|474:197|342:197,1,150.000005722046,14|8,0:1|0:1,0:1:0:0:
439,118,15137,1,0,0:0:0:0:
439,118,15310,2,0,P|451:92|424:54,1,75.0000028610231,8|0,0:1|0:1,0:0:0:0:
312,8,15657,1,10,0:1:0:0:
312,8,15831,2,0,P|297:65|293:171,1,150.000005722046,2|0,0:0|0:0,0:0:0:0:
234,257,16351,6,0,L|158:279,1,75.0000028610231,8|0,0:1|0:0,0:0:0:0:
94,239,16698,2,0,L|18:261,1,75.0000028610231,8|2,0:1|0:0,0:0:0:0:
21,259,17045,1,10,0:1:0:0:
161,277,17218,6,0,B|206:291|206:291|243:331|243:331|295:349,1,150.000005722046,2|2,0:0|0:0,0:0:0:0:
444,203,17738,1,10,0:1:0:0:
444,203,17912,2,0,B|399:217|399:217|362:257|362:257|310:275,1,150.000005722046,2|2,0:0|0:0,0:0:0:0:
453,303,18432,1,10,0:1:0:0:
453,303,18605,1,2,0:0:0:0:
315,179,18779,6,0,L|307:81,1,75.0000028610231,8|0,0:1|0:0,0:0:0:0:
238,24,19126,1,8,0:1:0:0:
238,24,19299,2,0,P|235:78|141:81,1,150.000005722046,0|2,0:0|0:0,0:0:0:0:
153,93,19819,1,10,0:1:0:0:
51,178,19993,6,0,L|37:23,1,150.000005722046,2|2,0:0|0:0,0:0:0:0:
153,93,20513,1,10,0:1:0:0:
153,93,20686,2,0,L|139:242,1,150.000005722046,2|2,0:0|0:0,0:0:0:0:
215,320,21207,1,10,0:1:0:0:
215,320,21380,1,2,0:0:0:0:
301,234,21553,6,0,P|266:235|242:200,1,75.0000028610231,8|0,0:1|0:0,0:0:0:0:
292,76,21900,1,8,0:1:0:0:
292,76,22074,2,0,B|392:76|341:119|437:123,1,150.000005722046
486,188,22594,2,0,P|479:224|479:263,1,75.0000028610231,10|0,0:1|0:0,0:0:0:0:
376,306,22941,6,8,B|382:237|329:211|329:211|294:240,1,150.000005722046,10|10,0:1|0:1,0:1:0:0:
215,320,23461,2,0,P|181:344|79:307,1,150.000005722046,2|10,0:0|0:3,0:0:0:0:
84,315,23895,1,8,0:3:0:0:
84,315,23981,1,8,0:3:0:0:
141,208,24155,1,10,0:3:0:0:
27,87,24328,6,8,B|34:150|34:150|55:171|55:171|62:245,1,150.000005722046,10|10,0:1|0:1,0:1:0:0:
110,96,24848,2,0,L|124:23,1,75.0000028610231,2|8,0:0|0:1,0:0:0:0:
256,22,25195,5,8,0:0:0:0:
280,48,25281,1,8,0:0:0:0:
273,84,25368,1,8,0:1:0:0:
240,99,25455,1,8,0:0:0:0:
208,83,25541,1,8,0:1:0:0:
382,55,25715,6,8,P|400:100|408:206,1,150.000005722046,14|8,0:1|0:1,0:1:0:0:
304,180,26235,1,0,0:0:0:0:
304,180,26409,2,0,L|219:154,1,75.0000028610231,8|0,0:1|0:1,0:0:0:0:
87,204,26755,5,2,0:0:0:0:
87,204,26929,2,0,B|135:217|135:217|169:252|169:252|226:271,1,150.000005722046,2|0,0:0|0:0,0:0:0:0:
395,271,27449,6,0,P|395:227|417:189,1,75.0000028610231,8|0,0:1|0:0,0:0:0:0:
478,250,27796,2,0,P|492:284|491:321,1,75.0000028610231,8|2,0:1|0:0,0:0:0:0:
491,321,28143,1,10,0:1:0:0:
292,359,28316,6,0,B|217:374|217:374|155:326,1,150.000005722046,2|2,0:0|0:0,0:0:0:0:
274,229,28837,1,10,0:1:0:0:
274,229,29010,2,0,B|349:244|349:244|411:196,1,150.000005722046,2|2,0:0|0:0,0:0:0:0:
492,158,29530,1,10,0:1:0:0:
492,158,29704,1,2,0:0:0:0:
370,90,29877,6,0,L|450:69,1,75.0000028610231,8|0,0:1|0:0,0:0:0:0:
269,32,30224,2,0,L|349:11,1,75.0000028610231,8|0,0:1|0:0,0:0:0:0:
281,128,30571,5,8,0:1:0:0:
193,92,30744,1,8,0:0:0:0:
269,32,30918,1,8,0:1:0:0:
208,193,31091,5,6,0:3:0:0:
208,193,31178,1,4,0:3:0:0:
208,193,31264,2,0,P|195:247|197:351,1,150.000005722046,14|10,0:1|0:1,0:0:0:0:
342,368,31785,2,0,L|332:281,1,75.0000028610231,2|8,0:0|0:1,0:0:0:0:
409,292,32132,2,0,L|417:366,1,75.0000028610231,2|8,0:0|0:1,0:0:0:0:
417,366,32478,1,2,0:0:0:0:
195,341,32652,6,8,B|107:328|151:357|44:337,1,150.000005722046,8|10,0:1|0:1,0:1:0:0:
81,139,33172,1,2,0:0:0:0:
44,208,33345,2,0,P|58:251|103:252,1,75.0000028610231,10|0,0:1|0:0,0:0:0:0:
258,80,33692,5,10,0:1:0:0:
258,80,33779,1,2,0:0:0:0:
258,80,33866,1,2,0:0:0:0:
258,80,33952,1,2,0:0:0:0:
258,80,34039,2,0,B|180:96|180:96|118:43,1,150.000005722046,10|8,0:3|0:1,0:0:0:0:
336,15,34559,1,2,0:0:0:0:
336,15,34646,1,2,0:0:0:0:
336,15,34733,1,10,0:1:0:0:
405,88,34906,5,10,0:0:0:0:
258,80,35079,1,10,0:1:0:0:
451,207,35253,1,8,0:0:0:0:
379,317,35426,5,10,0:1:0:0:
379,317,35600,2,0,L|359:229,1,75.0000028610231,2|8,0:0|0:1,0:0:0:0:
258,80,35947,5,10,0:0:0:0:
234,281,36120,1,10,0:1:0:0:
405,88,36293,5,10,0:0:0:0:
87,272,36467,2,0,P|50:255|97:237,1,112.500004291535,10|0,0:1|0:0,0:0:0:0:
82,148,36814,6,0,L|43:62,1,89.9999972534181,14|0,0:1|0:0,0:0:0:0:
234,281,37160,1,8,0:0:0:0:
258,80,37334,1,2,0:0:0:0:
412,214,37507,2,0,L|374:295,1,89.9999972534181,10|8,0:0|0:1,0:0:0:0:
434,357,37854,2,0,L|471:275,1,89.9999972534181,8|10,0:0|0:1,0:0:0:0:
258,80,38201,5,10,0:0:0:0:
404,88,38374,1,2,0:0:0:0:
184,17,38548,1,10,0:0:0:0:
330,25,38721,1,2,0:0:0:0:
61,97,38894,2,0,L|32:7,1,89.9999972534181,10|8,0:0|0:1,0:0:0:0:
0,320,39241,1,8,0:0:0:0:
111,171,39414,5,10,0:1:0:0:
111,171,39501,1,2,0:1:0:0:
111,171,39588,1,10,0:0:0:0:
168,375,39762,1,2,0:0:0:0:
304,225,39935,1,10,0:0:0:0:
185,261,40108,1,2,0:0:0:0:
348,367,40282,2,0,P|392:353|443:346,1,89.9999972534181,10|8,0:0|0:1,0:0:0:0:
340,130,40629,2,0,P|295:123|252:109,1,89.9999972534181,10|8,0:0|0:1,0:0:0:0:
380,8,40975,6,0,B|457:49|416:114|498:160,1,179.999994506836,10|8,0:0|0:0,0:0:0:0:
340,130,41496,1,2,0:0:0:0:
340,130,41582,1,2,0:0:0:0:
340,130,41669,1,10,0:0:0:0:
165,177,41842,1,10,0:1:0:0:
340,130,42016,1,10,0:0:0:0:
78,141,42189,1,10,0:1:0:0:
126,367,42363,6,0,P|118:324|140:282,1,89.9999972534181,14|0,0:0|0:0,0:0:0:0:
234,97,42710,1,8,0:0:0:0:
378,292,42883,1,2,0:0:0:0:
492,111,43056,2,0,L|464:4,1,89.9999972534181,10|8,0:0|0:1,0:0:0:0:
385,2,43403,2,0,L|407:89,1,89.9999972534181,8|10,0:0|0:1,0:0:0:0:
60,210,43750,5,10,0:0:0:0:
113,61,43923,1,2,0:0:0:0:
287,246,44097,1,10,0:0:0:0:
234,97,44270,1,2,0:0:0:0:
151,331,44444,5,10,0:0:0:0:
334,178,44617,1,10,0:1:0:0:
142,152,44790,1,10,0:0:0:0:
349,372,44964,1,10,0:1:0:0:
505,229,45137,6,0,P|508:273|408:275,1,165.000005035401,14|8,0:1|0:1,0:0:0:0:
334,178,45831,2,0,L|367:-7,1,165.000005035401,10|8,0:0|0:1,0:0:0:0:
281,276,46698,6,8,B|208:276|240:292|152:285,1,110.000003356934,10|8,0:1|0:1,0:1:0:0:
83,335,47218,2,0,P|57:302|60:221,1,110.000003356934,10|0,0:0|0:0,0:0:0:0:
33,108,47738,5,10,0:0:0:0:
33,108,47825,1,10,0:0:0:0:
33,108,47912,2,8,L|4:184,1,55.0000016784668,10|8,0:1|0:0,0:0:0:0:
13,159,48432,1,10,0:1:0:0:
94,35,48605,2,0,B|139:33|139:33|159:40|159:40|218:37,1,110.000003356934,8|0,0:0|0:0,0:0:0:0:
145,130,49126,6,0,B|190:128|190:128|210:135|210:135|269:132,1,110.000003356934,10|8,0:1|0:0,0:0:0:0:
272,119,49559,1,2,0:0:0:0:
272,119,49646,2,0,P|261:144|258:177,1,55.0000016784668,2|8,0:0|0:1,0:0:0:0:
381,63,49993,2,0,P|370:38|367:5,1,55.0000016784668,10|0,0:0|0:0,0:0:0:0:
458,131,50340,5,10,0:0:0:0:
454,166,50426,1,8,0:0:0:0:
451,202,50513,1,10,0:0:0:0:
448,237,50600,1,10,0:0:0:0:
445,273,50686,1,14,0:1:0:0:
381,63,50860,5,2,0:0:0:0:
272,119,51033,1,2,0:0:0:0:
374,170,51207,1,2,0:0:0:0:
217,219,51380,6,0,P|212:238|240:253,1,55.0000016784668,12|2,0:1|0:0,0:0:0:0:
249,219,51640,1,2,0:0:0:0:
220,197,51726,1,2,0:0:0:0:
188,182,51813,1,2,0:0:0:0:
153,177,51900,1,2,0:0:0:0:
117,180,51986,1,2,0:0:0:0:
84,192,52073,5,14,0:1:0:0:
90,373,52247,2,0,L|133:260,1,119.999996337891,2|8,0:0|0:0,0:0:0:0:
461,170,52594,5,8,0:1:0:0:
461,170,52681,1,8,0:1:0:0:
461,170,52767,1,10,0:1:0:0:
446,289,52941,1,10,0:1:0:0:
353,128,53114,2,0,B|314:120|314:120|277:126|277:126|223:111,1,119.999996337891,8|0,0:0|0:0,0:0:0:0:
9,7,53461,5,10,0:1:0:0:
98,13,53634,2,0,B|137:5|137:5|174:11|174:11|228:-4,1,119.999996337891,2|8,0:1|0:0,0:0:0:0:
225,251,53981,1,0,0:0:0:0:
235,114,54155,1,10,0:1:0:0:
353,128,54328,1,10,0:1:0:0:
476,344,54501,2,0,B|379:314|453:278|333:240,1,179.999994506836,8|0,0:0|0:0,0:0:0:0:
307,313,54848,5,10,0:1:0:0:
461,52,55022,2,0,P|477:111|451:175,1,119.999996337891,2|8,0:0|0:0,0:0:0:0:
29,186,55368,1,2,0:1:0:0:
29,186,55455,1,2,0:1:0:0:
29,186,55542,1,10,0:1:0:0:
22,89,55715,2,0,B|89:111|89:111|133:193|133:193|224:229,1,239.999992675781,10|0,0:1|0:0,0:0:0:0:
34,372,56236,6,0,L|287:326,2,239.999992675781,10|8|8,0:1|0:0|0:1,0:0:0:0:
339,131,57103,1,8,0:1:0:0:
374,250,57276,1,8,0:0:0:0:
492,221,57449,1,8,0:0:0:0:
492,221,57536,1,8,0:0:0:0:
492,221,57623,5,14,0:1:0:0:
294,214,57796,1,2,0:0:0:0:
302,25,57970,2,0,B|380:-2|469:12|469:12|452:88,1,239.999992675781,10|8,0:0|0:1,0:0:0:0:
512,134,58490,1,8,0:1:0:0:
512,134,58663,1,8,0:0:0:0:
294,214,58837,5,2,0:0:0:0:
466,371,59010,2,8,L|406:252,1,119.999996337891,10|8,0:1|0:1,0:1:0:0:
411,263,59270,1,8,0:1:0:0:
411,263,59357,1,10,0:0:0:0:
159,153,59530,2,0,P|106:231|148:333,1,179.999994506836,2|0,0:0|0:0,0:0:0:0:
143,329,59877,2,0,B|90:355|90:355|42:305,1,119.999996337891,10|8,0:1|0:0,0:0:0:0:
0,33,60224,5,2,0:0:0:0:
0,33,60311,1,2,0:0:0:0:
0,33,60397,2,0,L|137:7,1,119.999996337891,10|0,0:1|0:0,0:0:0:0:
159,153,60744,2,0,L|296:127,1,119.999996337891,10|0,0:0|0:0,0:0:0:0:
132,22,61091,6,8,L|269:-4,1,119.999996337891,10|8,0:1|0:1,0:1:0:0:
291,142,61438,2,0,L|428:116,1,119.999996337891,10|0,0:0|0:0,0:0:0:0:
374,34,61785,5,14,0:1:0:0:
359,262,61958,1,2,0:0:0:0:
499,367,62132,1,10,0:0:0:0:
175,369,62305,6,0,B|263:358|263:358|311:369|311:369|417:352,1,239.999992675781,14|8,0:1|0:0,0:0:0:0:
285,137,62825,1,8,0:3:0:0:
285,137,62912,1,8,0:3:0:0:
285,137,62999,2,8,L|275:202,1,59.9999981689454,8|8,0:3|0:3,0:3:0:0:
195,235,63172,6,0,B|110:262|110:262|28:209,1,179.999994506836,14|0,0:1|0:0,0:0:0:0:
51,138,63519,2,0,P|30:120|57:43,1,119.999996337891,12|0,0:0|0:0,0:0:0:0:
195,235,63866,1,10,0:1:0:0:
163,356,64039,1,10,0:1:0:0:
306,368,64212,2,0,L|433:341,1,119.999996337891,8|0,0:0|0:0,0:0:0:0:
460,56,64559,5,10,0:1:0:0:
408,122,64733,2,0,B|402:180|402:180|438:240,1,119.999996337891,2|8,0:0|0:0,0:0:0:0:
265,50,65079,1,0,0:0:0:0:
281,162,65253,1,10,0:1:0:0:
193,6,65426,1,10,0:1:0:0:
150,268,65600,2,0,P|128:198|164:95,1,179.999994506836,8|0,0:0|0:0,0:0:0:0:
105,35,65947,5,10,0:1:0:0:
4,320,66120,2,0,L|20:200,1,119.999996337891,2|8,0:0|0:0,0:0:0:0:
407,240,66467,1,2,0:0:0:0:
407,240,66553,1,2,0:0:0:0:
407,240,66640,1,10,0:1:0:0:
475,369,66814,2,0,B|349:368|439:318|219:319,1,239.999992675781,10|0,0:1|0:0,0:0:0:0:
347,29,67334,6,0,B|405:48|405:48|428:124|428:124|502:195,2,239.999992675781,10|8|8,0:1|0:0|0:1,0:0:0:0:
119,232,68201,1,8,0:1:0:0:
253,195,68374,1,8,0:0:0:0:
244,319,68548,1,8,0:0:0:0:
244,319,68634,1,8,0:0:0:0:
244,319,68721,5,14,0:1:0:0:
160,158,68895,1,2,0:0:0:0:
74,0,69068,2,0,B|-16:42|13:145|13:145|73:109,1,239.999992675781,10|8,0:0|0:1,0:0:0:0:
164,48,69588,1,8,0:1:0:0:
164,48,69762,1,8,0:0:0:0:
274,208,69935,5,2,0:0:0:0:
449,19,70108,2,8,B|403:12|403:12|371:18|371:18|323:8,1,119.999996337891,10|8,0:1|0:1,0:1:0:0:
330,9,70368,1,8,0:1:0:0:
330,9,70455,1,10,0:0:0:0:
274,208,70629,2,0,P|266:153|289:90,1,119.999996337891,2|8,0:0|0:1,0:0:0:0:
459,317,70975,2,0,B|426:360|426:360|290:324,1,179.999994506836,10|0,0:1|0:0,0:0:0:0:
290,345,71322,1,2,0:0:0:0:
374,113,71496,6,0,L|426:233,1,119.999996337891,10|0,0:1|0:0,0:0:0:0:
206,92,71842,2,0,L|154:212,1,119.999996337891,10|0,0:0|0:0,0:0:0:0:
369,21,72189,6,8,L|421:141,1,119.999996337891,10|8,0:1|0:1,0:1:0:0:
200,0,72535,2,0,L|148:120,1,119.999996337891,10|0,0:0|0:0,0:0:0:0:
303,163,72883,5,14,0:1:0:0:
152,110,73056,1,2,0:0:0:0:
282,291,73230,1,10,0:0:0:0:
57,377,73403,2,0,B|17:305|77:223|77:223|167:258,1,239.999992675781,10|8,0:1|0:0,0:0:0:0:
179,301,73837,1,8,0:0:0:0:
119,301,73923,1,8,0:0:0:0:
89,249,74010,1,8,0:0:0:0:
119,197,74097,1,8,0:0:0:0:
179,197,74184,1,8,0:0:0:0:
209,249,74270,5,14,0:1:0:0:
13,183,74444,1,2,0:0:0:0:
127,4,74617,1,10,0:0:0:0:
38,65,74790,6,8,B|190:20|190:20|280:58,1,239.999992675781,14|10,0:1|0:1,0:1:0:0:
257,133,75311,1,10,0:0:0:0:
506,68,75484,1,2,0:0:0:0:
506,68,75571,1,2,0:0:0:0:
506,68,75658,1,14,0:1:0:0:
411,200,75831,5,2,0:0:0:0:
347,0,76004,1,10,0:0:0:0:
167,222,76178,6,0,B|137:317|217:381|217:381|272:327,1,239.999992675781,14|8,0:1|0:1,0:0:0:0:
265,187,76698,1,10,0:0:0:0:
265,187,76785,1,2,0:0:0:0:
265,187,76871,2,0,P|250:155|268:121,1,59.9999981689454,2|2,0:0|0:0,0:0:0:0:
392,321,77045,6,0,L|380:363,1,29.9999990844727,14|0,0:1|0:0,0:0:0:0:
383,349,77392,6,0,B|408:295|408:295|334:227|386:128,1,239.999992675781,14|10,0:0|0:1,0:0:0:0:
474,169,77912,1,8,0:1:0:0:
350,31,78085,2,0,P|410:24|465:-11,1,119.999996337891,10|0,0:0|0:0,0:0:0:0:
256,132,78432,6,0,P|196:125|141:90,1,119.999996337891,10|0,0:1|0:0,0:0:0:0:
48,182,78779,2,0,L|28:42,1,119.999996337891,8|0,0:0|0:0,0:0:0:0:
114,8,79125,1,8,0:1:0:0:
163,229,79299,5,10,0:0:0:0:
181,284,79385,1,8,0:0:0:0:
154,336,79472,1,8,0:0:0:0:
98,352,79559,1,8,0:0:0:0:
46,323,79646,2,8,L|36:255,1,59.9999981689454,10|8,0:0|0:0,0:0:0:0:
268,284,79819,6,0,B|313:281|348:296|348:296|361:311|361:311|403:330|452:324,1,194.999991073609,12|8,0:1|0:1,0:0:0:0:
492,237,80513,1,8,0:0:0:0:
404,218,80686,2,0,P|387:155|403:93,1,129.999994049073,2|8,0:0|0:1,0:0:0:0:
300,35,81206,5,2,0:0:0:0:
300,35,81380,2,8,P|315:97|299:159,1,129.999994049073,10|8,0:1|0:1,0:1:0:0:
225,197,81900,1,10,0:0:0:0:
162,146,82073,2,0,B|99:155|99:155|37:113,1,129.999994049073,2|8,0:0|0:0,0:0:0:0:
300,35,82593,5,14,0:1:0:0:
300,35,82767,2,0,B|363:44|363:44|425:2,1,129.999994049073,2|0,0:0|0:0,0:0:0:0:
489,206,83287,5,14,0:1:0:0:
489,206,83461,2,0,P|501:261|434:274,1,129.999994049073,2|0,0:0|0:0,0:0:0:0:
364,321,83981,5,14,0:1:0:0:
256,192,84067,12,0,90570,0:0:0:0:
