osu file format v14

[General]
AudioFilename: audio.mp3
AudioLeadIn: 0
PreviewTime: -1
Countdown: 1
SampleSet: None
StackLeniency: 0.7
Mode: 3
LetterboxInBreaks: 0
SpecialStyle: 0
WidescreenStoryboard: 0

[Editor]
DistanceSpacing: 1
BeatDivisor: 4
GridSize: 32
TimelineZoom: 1

[Metadata]
Title:Darling
TitleUnicode:ダーリン
Artist:XX:me
ArtistUnicode:XX:me
Creator:[Belajar-Osu]
Version:Loli Note Zero
Source:ダーリン・イン・ザ・フランキス
Tags:ln long note darling in the franxx full size ending ed zero two ichigo miku kokoro ikuno キス・ミー kiss me anime
BeatmapID:2033303
BeatmapSetID:971057

[Difficulty]
HPDrainRate:4
CircleSize:4
OverallDifficulty:0
ApproachRate:5
SliderMultiplier:1.4
SliderTickRate:1

[Events]
//Background and Video events
0,0,"darling.jpg",0,0
//Break Periods
//Storyboard Layer 0 (Background)
//Storyboard Layer 1 (Fail)
//Storyboard Layer 2 (Pass)
//Storyboard Layer 3 (Foreground)
//Storyboard Sound Samples

[TimingPoints]
598,346.820809248555,4,2,0,30,1,0

[HitObjects]
64,192,424,128,0,598:0:0:0:0:
192,192,511,128,0,598:0:0:0:0:
320,192,598,128,0,771:0:0:0:0:
448,192,598,128,0,944:0:0:0:0:
64,192,771,128,0,1118:0:0:0:0:
192,192,944,128,0,1118:0:0:0:0:
448,192,1118,128,0,1465:0:0:0:0:
320,192,1118,128,0,1291:0:0:0:0:
192,192,1291,128,0,1638:0:0:0:0:
64,192,1291,128,0,1465:0:0:0:0:
320,192,1465,128,0,1811:0:0:0:0:
64,192,1638,128,0,1985:0:0:0:0:
448,192,1638,128,0,1811:0:0:0:0:
192,192,1811,128,0,1985:0:0:0:0:
448,192,1985,128,0,2332:0:0:0:0:
320,192,2071,128,0,2332:0:0:0:0:
192,192,2158,128,0,2505:0:0:0:0:
64,192,2332,128,0,2505:0:0:0:0:
320,192,2505,128,0,2852:0:0:0:0:
448,192,2678,128,0,2852:0:0:0:0:
64,192,2678,128,0,3025:0:0:0:0:
192,192,2852,128,0,3025:0:0:0:0:
448,192,3025,128,0,3285:0:0:0:0:
320,192,3112,128,0,3285:0:0:0:0:
64,192,3199,128,0,3372:0:0:0:0:
192,192,3285,128,0,3372:0:0:0:0:
320,192,3372,128,0,3719:0:0:0:0:
448,192,3372,128,0,3545:0:0:0:0:
192,192,3545,128,0,3892:0:0:0:0:
64,192,3719,128,0,3892:0:0:0:0:
448,192,3892,128,0,4239:0:0:0:0:
320,192,3892,128,0,4066:0:0:0:0:
64,192,4066,128,0,4413:0:0:0:0:
192,192,4066,128,0,4239:0:0:0:0:
320,192,4239,128,0,4586:0:0:0:0:
448,192,4413,128,0,4586:0:0:0:0:
192,192,4413,128,0,4759:0:0:0:0:
64,192,4586,128,0,4759:0:0:0:0:
448,192,4759,128,0,5019:0:0:0:0:
320,192,4846,128,0,5019:0:0:0:0:
192,192,4933,128,0,5193:0:0:0:0:
64,192,5106,128,0,5193:0:0:0:0:
320,192,5106,128,0,5280:0:0:0:0:
448,192,5106,128,0,5280:0:0:0:0:
64,192,5280,128,0,5453:0:0:0:0:
192,192,5366,128,0,5453:0:0:0:0:
320,192,5453,128,0,5540:0:0:0:0:
448,192,5453,128,0,5540:0:0:0:0:
64,192,5540,128,0,5626:0:0:0:0:
192,192,5540,128,0,5626:0:0:0:0:
320,192,5626,128,0,5713:0:0:0:0:
448,192,5626,128,0,5713:0:0:0:0:
64,192,5713,128,0,5800:0:0:0:0:
192,192,5713,128,0,5800:0:0:0:0:
320,192,5800,128,0,5887:0:0:0:0:
448,192,5800,128,0,5887:0:0:0:0:
64,192,5887,128,0,6060:0:0:0:0:
192,192,5887,128,0,6060:0:0:0:0:
320,192,5973,128,0,6060:0:0:0:0:
448,192,5973,128,0,6060:0:0:0:0:
64,192,6147,128,0,6320:0:0:0:0:
320,192,6147,128,0,6320:0:0:0:0:
448,192,6147,128,0,6320:0:0:0:0:
192,192,6147,128,0,6667:0:0:0:0:
320,192,6493,128,0,6667:0:0:0:0:
448,192,6493,128,0,6667:0:0:0:0:
64,192,6493,128,0,7014:0:0:0:0:
192,192,6840,128,0,7014:0:0:0:0:
320,192,6840,128,0,7014:0:0:0:0:
448,192,6840,128,0,7274:0:0:0:0:
320,192,7187,128,0,7707:0:0:0:0:
192,192,7187,128,0,7361:0:0:0:0:
64,192,7187,128,0,7361:0:0:0:0:
192,192,7534,128,0,8054:0:0:0:0:
448,192,7534,128,0,7707:0:0:0:0:
64,192,7534,128,0,7707:0:0:0:0:
320,192,7881,128,0,8054:0:0:0:0:
448,192,7881,128,0,8054:0:0:0:0:
64,192,7881,128,0,8401:0:0:0:0:
192,192,8228,128,0,8401:0:0:0:0:
320,192,8228,128,0,8401:0:0:0:0:
448,192,8228,128,0,8748:0:0:0:0:
320,192,8574,128,0,8748:0:0:0:0:
192,192,8574,128,0,8748:0:0:0:0:
64,192,8574,128,0,8661:0:0:0:0:
64,192,8748,128,0,9095:0:0:0:0:
192,192,8834,128,0,9095:0:0:0:0:
320,192,8921,128,0,9441:0:0:0:0:
448,192,8921,128,0,9095:0:0:0:0:
192,192,9268,128,0,9788:0:0:0:0:
64,192,9268,128,0,9441:0:0:0:0:
448,192,9268,128,0,9441:0:0:0:0:
448,192,9615,128,0,10135:0:0:0:0:
320,192,9615,128,0,9788:0:0:0:0:
64,192,9615,128,0,9788:0:0:0:0:
320,192,9962,128,0,10135:0:0:0:0:
192,192,9962,128,0,10135:0:0:0:0:
64,192,9962,128,0,10482:0:0:0:0:
192,192,10308,128,0,10655:0:0:0:0:
320,192,10308,128,0,10482:0:0:0:0:
448,192,10308,128,0,10482:0:0:0:0:
320,192,10655,128,0,10829:0:0:0:0:
448,192,10655,128,0,11176:0:0:0:0:
64,192,10655,128,0,10829:0:0:0:0:
192,192,10829,128,0,11002:0:0:0:0:
64,192,11002,128,0,11176:0:0:0:0:
320,192,11002,128,0,11522:0:0:0:0:
192,192,11176,128,0,11522:0:0:0:0:
448,192,11349,128,0,11522:0:0:0:0:
64,192,11349,128,0,11696:0:0:0:0:
320,192,11696,128,0,11869:0:0:0:0:
448,192,11696,128,0,12216:0:0:0:0:
64,192,11869,128,0,11956:0:0:0:0:
192,192,11869,128,0,11956:0:0:0:0:
320,192,11956,128,0,12129:0:0:0:0:
64,192,12043,128,0,12129:0:0:0:0:
192,192,12043,128,0,12129:0:0:0:0:
192,192,12216,128,0,12389:0:0:0:0:
320,192,12389,128,0,12476:0:0:0:0:
448,192,12389,128,0,12476:0:0:0:0:
64,192,12389,128,0,12563:0:0:0:0:
192,192,12476,128,0,12563:0:0:0:0:
320,192,12563,128,0,12650:0:0:0:0:
448,192,12563,128,0,12650:0:0:0:0:
64,192,12736,128,0,12823:0:0:0:0:
192,192,12736,128,0,12823:0:0:0:0:
448,192,12736,128,0,12910:0:0:0:0:
320,192,12823,128,0,12996:0:0:0:0:
64,192,12910,128,0,12996:0:0:0:0:
192,192,12910,128,0,12996:0:0:0:0:
448,192,13083,128,0,14124:0:0:0:0:
192,192,13083,128,0,13430:0:0:0:0:
64,192,13083,128,0,13256:0:0:0:0:
64,192,13430,128,0,13603:0:0:0:0:
64,192,13777,128,0,13950:0:0:0:0:
64,192,14124,128,0,14297:0:0:0:0:
320,192,14124,128,0,14297:0:0:0:0:
192,192,14297,128,0,15164:0:0:0:0:
320,192,14384,128,0,14644:0:0:0:0:
448,192,14470,128,0,14644:0:0:0:0:
448,192,14817,128,0,14991:0:0:0:0:
448,192,15164,128,0,15337:0:0:0:0:
64,192,15337,128,0,15511:0:0:0:0:
448,192,15511,128,0,15684:0:0:0:0:
320,192,15511,128,0,15684:0:0:0:0:
64,192,15684,128,0,16031:0:0:0:0:
192,192,15858,128,0,16031:0:0:0:0:
320,192,15858,128,0,16031:0:0:0:0:
448,192,16031,128,0,16204:0:0:0:0:
192,192,16204,128,0,16378:0:0:0:0:
64,192,16204,128,0,16378:0:0:0:0:
320,192,16378,128,0,16725:0:0:0:0:
192,192,16551,128,0,16725:0:0:0:0:
448,192,16725,128,0,16898:0:0:0:0:
192,192,16898,128,0,17071:0:0:0:0:
64,192,16898,128,0,17071:0:0:0:0:
448,192,17071,128,0,17332:0:0:0:0:
192,192,17245,128,0,17592:0:0:0:0:
320,192,17245,128,0,17418:0:0:0:0:
64,192,17418,128,0,17592:0:0:0:0:
320,192,17592,128,0,17765:0:0:0:0:
448,192,17592,128,0,17765:0:0:0:0:
64,192,17765,128,0,17939:0:0:0:0:
192,192,17852,128,0,18025:0:0:0:0:
320,192,17939,128,0,18112:0:0:0:0:
448,192,18112,128,0,18285:0:0:0:0:
320,192,18285,128,0,18459:0:0:0:0:
64,192,18285,128,0,18459:0:0:0:0:
448,192,18459,128,0,18719:0:0:0:0:
64,192,18632,128,0,18806:0:0:0:0:
320,192,18632,128,0,18892:0:0:0:0:
192,192,18806,128,0,18979:0:0:0:0:
64,192,18979,128,0,19152:0:0:0:0:
448,192,18979,128,0,19152:0:0:0:0:
320,192,19152,128,0,19413:0:0:0:0:
64,192,19326,128,0,19499:0:0:0:0:
192,192,19499,128,0,19673:0:0:0:0:
64,192,19673,128,0,19846:0:0:0:0:
448,192,19673,128,0,19846:0:0:0:0:
320,192,19846,128,0,20193:0:0:0:0:
192,192,20019,128,0,20193:0:0:0:0:
448,192,20193,128,0,20366:0:0:0:0:
64,192,20193,128,0,20366:0:0:0:0:
320,192,20366,128,0,20540:0:0:0:0:
192,192,20453,128,0,20626:0:0:0:0:
64,192,20540,128,0,20713:0:0:0:0:
448,192,20540,128,0,20800:0:0:0:0:
320,192,20713,128,0,21060:0:0:0:0:
64,192,20887,128,0,21060:0:0:0:0:
192,192,21060,128,0,21407:0:0:0:0:
448,192,21060,128,0,21233:0:0:0:0:
64,192,21233,128,0,21407:0:0:0:0:
320,192,21407,128,0,21667:0:0:0:0:
448,192,21407,128,0,21580:0:0:0:0:
64,192,21580,128,0,21754:0:0:0:0:
192,192,21754,128,0,22014:0:0:0:0:
448,192,21754,128,0,21927:0:0:0:0:
64,192,21927,128,0,22187:0:0:0:0:
448,192,22100,128,0,22274:0:0:0:0:
192,192,22274,128,0,22361:0:0:0:0:
64,192,22274,128,0,22621:0:0:0:0:
320,192,22274,128,0,22361:0:0:0:0:
448,192,22361,128,0,22447:0:0:0:0:
192,192,22447,128,0,22534:0:0:0:0:
320,192,22447,128,0,22534:0:0:0:0:
320,192,22621,128,0,22881:0:0:0:0:
448,192,22621,128,0,22794:0:0:0:0:
64,192,22794,128,0,23054:0:0:0:0:
192,192,22794,128,0,22967:0:0:0:0:
448,192,22967,128,0,23141:0:0:0:0:
64,192,23141,128,0,23401:0:0:0:0:
320,192,23141,128,0,23314:0:0:0:0:
192,192,23314,128,0,23574:0:0:0:0:
320,192,23401,128,0,23574:0:0:0:0:
448,192,23488,128,0,23574:0:0:0:0:
64,192,23661,128,0,23748:0:0:0:0:
448,192,23661,128,0,23748:0:0:0:0:
192,192,23748,128,0,23834:0:0:0:0:
320,192,23748,128,0,23834:0:0:0:0:
448,192,23834,128,0,23921:0:0:0:0:
64,192,23834,128,0,23921:0:0:0:0:
192,192,23921,128,0,24008:0:0:0:0:
320,192,23921,128,0,24008:0:0:0:0:
64,192,24008,128,0,24095:0:0:0:0:
448,192,24008,128,0,24095:0:0:0:0:
320,192,24181,128,0,24702:0:0:0:0:
192,192,24181,128,0,24355:0:0:0:0:
64,192,24181,128,0,24355:0:0:0:0:
448,192,24528,128,0,24702:0:0:0:0:
64,192,24528,128,0,25048:0:0:0:0:
192,192,24875,128,0,25395:0:0:0:0:
320,192,24875,128,0,25048:0:0:0:0:
64,192,25222,128,0,25395:0:0:0:0:
448,192,25222,128,0,25742:0:0:0:0:
320,192,25395,128,0,25742:0:0:0:0:
64,192,25569,128,0,26089:0:0:0:0:
192,192,25569,128,0,25742:0:0:0:0:
192,192,25915,128,0,26089:0:0:0:0:
320,192,25915,128,0,26436:0:0:0:0:
448,192,26262,128,0,26782:0:0:0:0:
64,192,26262,128,0,26436:0:0:0:0:
192,192,26436,128,0,26609:0:0:0:0:
320,192,26609,128,0,27129:0:0:0:0:
64,192,26782,128,0,26956:0:0:0:0:
192,192,26956,128,0,27129:0:0:0:0:
448,192,26956,128,0,27476:0:0:0:0:
64,192,27129,128,0,27303:0:0:0:0:
320,192,27303,128,0,27823:0:0:0:0:
192,192,27389,128,0,27563:0:0:0:0:
64,192,27476,128,0,27650:0:0:0:0:
192,192,27650,128,0,28170:0:0:0:0:
448,192,27650,128,0,27823:0:0:0:0:
64,192,27823,128,0,27996:0:0:0:0:
320,192,27996,128,0,28517:0:0:0:0:
448,192,28170,128,0,28343:0:0:0:0:
64,192,28343,128,0,28863:0:0:0:0:
192,192,28343,128,0,28517:0:0:0:0:
448,192,28690,128,0,29124:0:0:0:0:
320,192,28690,128,0,28863:0:0:0:0:
192,192,28690,128,0,28863:0:0:0:0:
320,192,29037,128,0,29557:0:0:0:0:
192,192,29037,128,0,29124:0:0:0:0:
64,192,29037,128,0,29124:0:0:0:0:
192,192,29210,128,0,29297:0:0:0:0:
448,192,29210,128,0,29297:0:0:0:0:
64,192,29384,128,0,29904:0:0:0:0:
192,192,29384,128,0,29557:0:0:0:0:
448,192,29557,128,0,29904:0:0:0:0:
192,192,29730,128,0,30251:0:0:0:0:
320,192,29730,128,0,29904:0:0:0:0:
448,192,30077,128,0,30598:0:0:0:0:
320,192,30077,128,0,30251:0:0:0:0:
64,192,30251,128,0,30598:0:0:0:0:
320,192,30424,128,0,30598:0:0:0:0:
192,192,30598,128,0,30944:0:0:0:0:
448,192,30771,128,0,30944:0:0:0:0:
64,192,30771,128,0,30944:0:0:0:0:
320,192,30944,128,0,31291:0:0:0:0:
192,192,31118,128,0,31291:0:0:0:0:
64,192,31118,128,0,31638:0:0:0:0:
448,192,31465,128,0,31638:0:0:0:0:
192,192,31465,128,0,31638:0:0:0:0:
320,192,31638,128,0,31811:0:0:0:0:
192,192,31811,128,0,32158:0:0:0:0:
64,192,31811,128,0,31985:0:0:0:0:
320,192,31985,128,0,32158:0:0:0:0:
448,192,32158,128,0,32332:0:0:0:0:
64,192,32245,128,0,32418:0:0:0:0:
192,192,32332,128,0,32505:0:0:0:0:
320,192,32418,128,0,32592:0:0:0:0:
448,192,32505,128,0,32852:0:0:0:0:
64,192,32505,128,0,32678:0:0:0:0:
192,192,32678,128,0,32939:0:0:0:0:
320,192,32852,128,0,32939:0:0:0:0:
64,192,32852,128,0,33025:0:0:0:0:
448,192,33025,128,0,33112:0:0:0:0:
320,192,33025,128,0,33199:0:0:0:0:
192,192,33112,128,0,33285:0:0:0:0:
64,192,33112,128,0,33459:0:0:0:0:
448,192,33199,128,0,33459:0:0:0:0:
320,192,33285,128,0,33372:0:0:0:0:
192,192,33372,128,0,33632:0:0:0:0:
448,192,33545,128,0,33719:0:0:0:0:
64,192,33545,128,0,33806:0:0:0:0:
320,192,33545,128,0,33719:0:0:0:0:
192,192,33719,128,0,33892:0:0:0:0:
448,192,33806,128,0,33979:0:0:0:0:
320,192,33892,128,0,34152:0:0:0:0:
64,192,33892,128,0,34066:0:0:0:0:
192,192,33979,128,0,34066:0:0:0:0:
448,192,34066,128,0,34326:0:0:0:0:
192,192,34152,128,0,34499:0:0:0:0:
64,192,34239,128,0,34413:0:0:0:0:
320,192,34239,128,0,34326:0:0:0:0:
448,192,34413,128,0,34499:0:0:0:0:
320,192,34413,128,0,34673:0:0:0:0:
64,192,34499,128,0,34673:0:0:0:0:
192,192,34586,128,0,34673:0:0:0:0:
448,192,34673,128,0,34846:0:0:0:0:
320,192,34759,128,0,34846:0:0:0:0:
192,192,34759,128,0,34933:0:0:0:0:
64,192,34759,128,0,35019:0:0:0:0:
448,192,34933,128,0,35106:0:0:0:0:
320,192,34933,128,0,35106:0:0:0:0:
192,192,35019,128,0,35193:0:0:0:0:
64,192,35106,128,0,35193:0:0:0:0:
192,192,35280,128,0,35453:0:0:0:0:
64,192,35280,128,0,35800:0:0:0:0:
320,192,35280,128,0,35453:0:0:0:0:
448,192,35280,128,0,35453:0:0:0:0:
448,192,35626,128,0,36147:0:0:0:0:
320,192,35626,128,0,35800:0:0:0:0:
192,192,35626,128,0,35800:0:0:0:0:
192,192,35973,128,0,36493:0:0:0:0:
320,192,35973,128,0,36147:0:0:0:0:
64,192,35973,128,0,36147:0:0:0:0:
320,192,36320,128,0,36840:0:0:0:0:
448,192,36320,128,0,36493:0:0:0:0:
64,192,36320,128,0,36493:0:0:0:0:
64,192,36667,128,0,37187:0:0:0:0:
192,192,36667,128,0,36840:0:0:0:0:
448,192,36667,128,0,36840:0:0:0:0:
192,192,37014,128,0,37534:0:0:0:0:
320,192,37014,128,0,37187:0:0:0:0:
448,192,37014,128,0,37187:0:0:0:0:
320,192,37361,128,0,37881:0:0:0:0:
448,192,37361,128,0,37534:0:0:0:0:
64,192,37361,128,0,37447:0:0:0:0:
64,192,37534,128,0,37881:0:0:0:0:
192,192,37621,128,0,37881:0:0:0:0:
448,192,37707,128,0,38228:0:0:0:0:
192,192,38054,128,0,38574:0:0:0:0:
320,192,38054,128,0,38228:0:0:0:0:
64,192,38054,128,0,38228:0:0:0:0:
64,192,38401,128,0,38921:0:0:0:0:
320,192,38401,128,0,38574:0:0:0:0:
448,192,38401,128,0,38574:0:0:0:0:
448,192,38748,128,0,39268:0:0:0:0:
320,192,38748,128,0,38921:0:0:0:0:
192,192,38748,128,0,38921:0:0:0:0:
320,192,39095,128,0,39615:0:0:0:0:
192,192,39095,128,0,39268:0:0:0:0:
64,192,39095,128,0,39268:0:0:0:0:
64,192,39441,128,0,39962:0:0:0:0:
192,192,39441,128,0,39615:0:0:0:0:
448,192,39441,128,0,39615:0:0:0:0:
192,192,39788,128,0,40308:0:0:0:0:
320,192,39788,128,0,39962:0:0:0:0:
448,192,39788,128,0,39962:0:0:0:0:
320,192,40135,128,0,40655:0:0:0:0:
448,192,40135,128,0,40308:0:0:0:0:
64,192,40135,128,0,40308:0:0:0:0:
192,192,40482,128,0,40655:0:0:0:0:
448,192,40482,128,0,41002:0:0:0:0:
64,192,40482,128,0,40655:0:0:0:0:
320,192,40829,128,0,41349:0:0:0:0:
192,192,40829,128,0,41002:0:0:0:0:
64,192,40829,128,0,41002:0:0:0:0:
192,192,41176,128,0,41696:0:0:0:0:
64,192,41176,128,0,41349:0:0:0:0:
448,192,41176,128,0,41349:0:0:0:0:
64,192,41522,128,0,42043:0:0:0:0:
320,192,41522,128,0,41696:0:0:0:0:
448,192,41522,128,0,41696:0:0:0:0:
192,192,41869,128,0,42043:0:0:0:0:
320,192,41869,128,0,42389:0:0:0:0:
448,192,41869,128,0,42043:0:0:0:0:
64,192,42216,128,0,42736:0:0:0:0:
192,192,42216,128,0,42389:0:0:0:0:
448,192,42216,128,0,42389:0:0:0:0:
448,192,42563,128,0,42996:0:0:0:0:
192,192,42563,128,0,42736:0:0:0:0:
320,192,42563,128,0,42736:0:0:0:0:
64,192,42910,128,0,43170:0:0:0:0:
192,192,42910,128,0,43256:0:0:0:0:
320,192,43083,128,0,43256:0:0:0:0:
448,192,43083,128,0,43256:0:0:0:0:
64,192,43256,128,0,43517:0:0:0:0:
192,192,43343,128,0,43517:0:0:0:0:
320,192,43430,128,0,43777:0:0:0:0:
448,192,43517,128,0,43777:0:0:0:0:
64,192,43603,128,0,44817:0:0:0:0:
192,192,43603,128,0,43777:0:0:0:0:
192,192,44124,128,0,44470:0:0:0:0:
320,192,44297,128,0,44470:0:0:0:0:
448,192,44297,128,0,44470:0:0:0:0:
192,192,44644,128,0,44817:0:0:0:0:
448,192,44817,128,0,45164:0:0:0:0:
320,192,44991,128,0,45164:0:0:0:0:
192,192,45164,128,0,45511:0:0:0:0:
64,192,45337,128,0,45511:0:0:0:0:
320,192,45511,128,0,46031:0:0:0:0:
64,192,45684,128,0,45858:0:0:0:0:
192,192,45684,128,0,45858:0:0:0:0:
448,192,45858,128,0,46031:0:0:0:0:
64,192,46204,128,0,46465:0:0:0:0:
448,192,46204,128,0,46725:0:0:0:0:
192,192,46291,128,0,46465:0:0:0:0:
320,192,46378,128,0,46465:0:0:0:0:
64,192,46551,128,0,46725:0:0:0:0:
320,192,46551,128,0,46725:0:0:0:0:
192,192,46725,128,0,47071:0:0:0:0:
64,192,46898,128,0,47245:0:0:0:0:
320,192,47071,128,0,47245:0:0:0:0:
448,192,47071,128,0,47245:0:0:0:0:
192,192,47245,128,0,47592:0:0:0:0:
448,192,47418,128,0,47592:0:0:0:0:
320,192,47592,128,0,47939:0:0:0:0:
64,192,47592,128,0,47765:0:0:0:0:
64,192,47939,128,0,48112:0:0:0:0:
192,192,47939,128,0,48112:0:0:0:0:
448,192,47939,128,0,48285:0:0:0:0:
320,192,48112,128,0,48806:0:0:0:0:
192,192,48285,128,0,48806:0:0:0:0:
64,192,48459,128,0,48719:0:0:0:0:
448,192,48459,128,0,48719:0:0:0:0:
64,192,48806,128,0,48892:0:0:0:0:
448,192,48806,128,0,48892:0:0:0:0:
192,192,48892,128,0,48979:0:0:0:0:
320,192,48892,128,0,48979:0:0:0:0:
64,192,48979,128,0,49066:0:0:0:0:
448,192,48979,128,0,49066:0:0:0:0:
192,192,49066,128,0,49152:0:0:0:0:
320,192,49066,128,0,49326:0:0:0:0:
64,192,49152,128,0,49759:0:0:0:0:
448,192,49152,128,0,49499:0:0:0:0:
192,192,49326,128,0,49499:0:0:0:0:
320,192,49499,128,0,49933:0:0:0:0:
192,192,49673,128,0,49846:0:0:0:0:
64,192,49846,128,0,50106:0:0:0:0:
448,192,49846,128,0,50019:0:0:0:0:
192,192,49933,128,0,50193:0:0:0:0:
320,192,50019,128,0,50106:0:0:0:0:
448,192,50106,128,0,50280:0:0:0:0:
64,192,50193,128,0,50280:0:0:0:0:
320,192,50193,128,0,50453:0:0:0:0:
192,192,50280,128,0,50366:0:0:0:0:
64,192,50366,128,0,50713:0:0:0:0:
448,192,50366,128,0,50453:0:0:0:0:
192,192,50453,128,0,50713:0:0:0:0:
448,192,50540,128,0,51060:0:0:0:0:
320,192,50540,128,0,50713:0:0:0:0:
64,192,50887,128,0,51407:0:0:0:0:
192,192,50887,128,0,51060:0:0:0:0:
320,192,51233,128,0,51407:0:0:0:0:
448,192,51233,128,0,51754:0:0:0:0:
192,192,51407,128,0,51580:0:0:0:0:
320,192,51580,128,0,52100:0:0:0:0:
64,192,51580,128,0,51754:0:0:0:0:
192,192,51927,128,0,52447:0:0:0:0:
64,192,51927,128,0,52100:0:0:0:0:
448,192,52274,128,0,52447:0:0:0:0:
64,192,52274,128,0,52794:0:0:0:0:
320,192,52621,128,0,52794:0:0:0:0:
448,192,52621,128,0,53141:0:0:0:0:
192,192,52794,128,0,52967:0:0:0:0:
64,192,52967,128,0,53488:0:0:0:0:
320,192,52967,128,0,53141:0:0:0:0:
192,192,53314,128,0,53488:0:0:0:0:
320,192,53314,128,0,53834:0:0:0:0:
448,192,53488,128,0,54008:0:0:0:0:
64,192,53661,128,0,54181:0:0:0:0:
192,192,53661,128,0,53834:0:0:0:0:
320,192,54008,128,0,54181:0:0:0:0:
192,192,54008,128,0,54528:0:0:0:0:
448,192,54181,128,0,54702:0:0:0:0:
64,192,54355,128,0,54528:0:0:0:0:
320,192,54355,128,0,54875:0:0:0:0:
64,192,54702,128,0,55395:0:0:0:0:
192,192,54702,128,0,54875:0:0:0:0:
448,192,55048,128,0,55482:0:0:0:0:
320,192,55048,128,0,55222:0:0:0:0:
192,192,55222,128,0,55569:0:0:0:0:
320,192,55395,128,0,55829:0:0:0:0:
64,192,55569,128,0,55829:0:0:0:0:
448,192,55569,128,0,55655:0:0:0:0:
192,192,55742,128,0,56002:0:0:0:0:
448,192,55742,128,0,56002:0:0:0:0:
64,192,55915,128,0,56089:0:0:0:0:
320,192,55915,128,0,56089:0:0:0:0:
448,192,56089,128,0,56609:0:0:0:0:
192,192,56089,128,0,56262:0:0:0:0:
320,192,56262,128,0,56609:0:0:0:0:
64,192,56436,128,0,56956:0:0:0:0:
192,192,56436,128,0,56609:0:0:0:0:
192,192,56782,128,0,56956:0:0:0:0:
320,192,56782,128,0,57303:0:0:0:0:
448,192,56956,128,0,57129:0:0:0:0:
192,192,57129,128,0,57650:0:0:0:0:
64,192,57129,128,0,57303:0:0:0:0:
448,192,57303,128,0,57476:0:0:0:0:
320,192,57476,128,0,57650:0:0:0:0:
64,192,57476,128,0,57996:0:0:0:0:
448,192,57823,128,0,58170:0:0:0:0:
320,192,57823,128,0,57996:0:0:0:0:
192,192,57996,128,0,58343:0:0:0:0:
64,192,58170,128,0,58690:0:0:0:0:
320,192,58170,128,0,58343:0:0:0:0:
448,192,58343,128,0,58517:0:0:0:0:
192,192,58517,128,0,58690:0:0:0:0:
320,192,58517,128,0,59037:0:0:0:0:
448,192,58690,128,0,59037:0:0:0:0:
192,192,58863,128,0,59384:0:0:0:0:
64,192,58863,128,0,59037:0:0:0:0:
64,192,59210,128,0,59730:0:0:0:0:
320,192,59210,128,0,59384:0:0:0:0:
448,192,59384,128,0,59557:0:0:0:0:
320,192,59557,128,0,60077:0:0:0:0:
192,192,59557,128,0,59730:0:0:0:0:
448,192,59730,128,0,60077:0:0:0:0:
192,192,59904,128,0,60424:0:0:0:0:
64,192,59904,128,0,60077:0:0:0:0:
64,192,60251,128,0,60598:0:0:0:0:
448,192,60251,128,0,60424:0:0:0:0:
320,192,60424,128,0,60598:0:0:0:0:
192,192,60598,128,0,60771:0:0:0:0:
448,192,60598,128,0,61118:0:0:0:0:
320,192,60771,128,0,61204:0:0:0:0:
64,192,60771,128,0,60944:0:0:0:0:
64,192,61118,128,0,61204:0:0:0:0:
192,192,61118,128,0,61204:0:0:0:0:
320,192,61291,128,0,61378:0:0:0:0:
448,192,61291,128,0,61378:0:0:0:0:
64,192,61378,128,0,61638:0:0:0:0:
192,192,61378,128,0,61465:0:0:0:0:
320,192,61465,128,0,61551:0:0:0:0:
448,192,61465,128,0,61551:0:0:0:0:
192,192,61551,128,0,61638:0:0:0:0:
320,192,61638,128,0,61811:0:0:0:0:
448,192,61638,128,0,62158:0:0:0:0:
64,192,61985,128,0,62505:0:0:0:0:
192,192,61985,128,0,62158:0:0:0:0:
320,192,61985,128,0,62158:0:0:0:0:
192,192,62332,128,0,62505:0:0:0:0:
448,192,62332,128,0,62852:0:0:0:0:
320,192,62505,128,0,62678:0:0:0:0:
192,192,62678,128,0,63199:0:0:0:0:
64,192,62678,128,0,62852:0:0:0:0:
320,192,63025,128,0,63545:0:0:0:0:
448,192,63025,128,0,63199:0:0:0:0:
64,192,63372,128,0,63719:0:0:0:0:
192,192,63372,128,0,63545:0:0:0:0:
448,192,63545,128,0,63719:0:0:0:0:
320,192,63719,128,0,64066:0:0:0:0:
192,192,63719,128,0,63892:0:0:0:0:
448,192,63892,128,0,64413:0:0:0:0:
192,192,64066,128,0,64239:0:0:0:0:
64,192,64066,128,0,64586:0:0:0:0:
320,192,64413,128,0,64933:0:0:0:0:
192,192,64413,128,0,64586:0:0:0:0:
448,192,64586,128,0,65106:0:0:0:0:
192,192,64759,128,0,64933:0:0:0:0:
64,192,64759,128,0,65280:0:0:0:0:
192,192,65106,128,0,65626:0:0:0:0:
320,192,65106,128,0,65280:0:0:0:0:
448,192,65280,128,0,65800:0:0:0:0:
320,192,65453,128,0,65973:0:0:0:0:
64,192,65453,128,0,65626:0:0:0:0:
192,192,65800,128,0,65973:0:0:0:0:
64,192,65800,128,0,66493:0:0:0:0:
320,192,66147,128,0,66320:0:0:0:0:
448,192,66147,128,0,66580:0:0:0:0:
192,192,66320,128,0,66667:0:0:0:0:
320,192,66493,128,0,66927:0:0:0:0:
448,192,66667,128,0,66754:0:0:0:0:
64,192,66667,128,0,66927:0:0:0:0:
448,192,66840,128,0,67100:0:0:0:0:
192,192,66840,128,0,67100:0:0:0:0:
320,192,67014,128,0,67187:0:0:0:0:
64,192,67014,128,0,67187:0:0:0:0:
192,192,67187,128,0,67361:0:0:0:0:
448,192,67187,128,0,67707:0:0:0:0:
320,192,67361,128,0,67707:0:0:0:0:
192,192,67534,128,0,67707:0:0:0:0:
64,192,67534,128,0,68054:0:0:0:0:
320,192,67881,128,0,68401:0:0:0:0:
192,192,67881,128,0,68054:0:0:0:0:
448,192,68054,128,0,68228:0:0:0:0:
64,192,68228,128,0,68401:0:0:0:0:
192,192,68228,128,0,68748:0:0:0:0:
448,192,68401,128,0,68574:0:0:0:0:
64,192,68574,128,0,69095:0:0:0:0:
320,192,68574,128,0,68748:0:0:0:0:
320,192,68921,128,0,69095:0:0:0:0:
448,192,68921,128,0,69268:0:0:0:0:
192,192,69095,128,0,69441:0:0:0:0:
320,192,69268,128,0,69441:0:0:0:0:
64,192,69268,128,0,69788:0:0:0:0:
448,192,69441,128,0,69615:0:0:0:0:
320,192,69615,128,0,70135:0:0:0:0:
192,192,69615,128,0,69788:0:0:0:0:
448,192,69788,128,0,70135:0:0:0:0:
64,192,69962,128,0,70135:0:0:0:0:
192,192,69962,128,0,70482:0:0:0:0:
320,192,70308,128,0,70482:0:0:0:0:
64,192,70308,128,0,70829:0:0:0:0:
448,192,70482,128,0,70655:0:0:0:0:
192,192,70655,128,0,70829:0:0:0:0:
320,192,70655,128,0,71176:0:0:0:0:
448,192,70829,128,0,71176:0:0:0:0:
64,192,71002,128,0,71176:0:0:0:0:
192,192,71002,128,0,71522:0:0:0:0:
448,192,71349,128,0,71522:0:0:0:0:
64,192,71349,128,0,71696:0:0:0:0:
320,192,71522,128,0,71696:0:0:0:0:
448,192,71696,128,0,72043:0:0:0:0:
192,192,71696,128,0,72216:0:0:0:0:
64,192,71869,128,0,72043:0:0:0:0:
320,192,71869,128,0,72216:0:0:0:0:
448,192,72216,128,0,72303:0:0:0:0:
64,192,72216,128,0,72303:0:0:0:0:
192,192,72303,128,0,72389:0:0:0:0:
320,192,72389,128,0,72476:0:0:0:0:
448,192,72476,128,0,72563:0:0:0:0:
64,192,72476,128,0,72563:0:0:0:0:
192,192,72563,128,0,72650:0:0:0:0:
320,192,72563,128,0,72650:0:0:0:0:
64,192,72736,128,0,72910:0:0:0:0:
448,192,72736,128,0,73083:0:0:0:0:
320,192,72736,128,0,72910:0:0:0:0:
320,192,73083,128,0,73430:0:0:0:0:
192,192,73256,128,0,73430:0:0:0:0:
64,192,73256,128,0,73603:0:0:0:0:
448,192,73256,128,0,73430:0:0:0:0:
192,192,73603,128,0,73950:0:0:0:0:
448,192,73603,128,0,73777:0:0:0:0:
320,192,73777,128,0,74124:0:0:0:0:
64,192,73777,128,0,73950:0:0:0:0:
448,192,74124,128,0,74297:0:0:0:0:
64,192,74124,128,0,74297:0:0:0:0:
192,192,74124,128,0,74644:0:0:0:0:
320,192,74297,128,0,74470:0:0:0:0:
64,192,74644,128,0,74817:0:0:0:0:
448,192,74644,128,0,74817:0:0:0:0:
320,192,74644,128,0,75077:0:0:0:0:
64,192,74991,128,0,75164:0:0:0:0:
192,192,75077,128,0,75251:0:0:0:0:
320,192,75164,128,0,75337:0:0:0:0:
448,192,75164,128,0,75424:0:0:0:0:
64,192,75251,128,0,75424:0:0:0:0:
192,192,75337,128,0,75424:0:0:0:0:
320,192,75424,128,0,75511:0:0:0:0:
448,192,75511,128,0,75684:0:0:0:0:
64,192,75511,128,0,75684:0:0:0:0:
192,192,75511,128,0,75684:0:0:0:0:
320,192,75858,128,0,76031:0:0:0:0:
448,192,75858,128,0,76031:0:0:0:0:
64,192,75858,128,0,76204:0:0:0:0:
192,192,76204,128,0,76551:0:0:0:0:
320,192,76204,128,0,76378:0:0:0:0:
448,192,76551,128,0,76898:0:0:0:0:
64,192,76551,128,0,76725:0:0:0:0:
320,192,76898,128,0,77592:0:0:0:0:
192,192,76898,128,0,77071:0:0:0:0:
64,192,77245,128,0,77592:0:0:0:0:
448,192,77245,128,0,77418:0:0:0:0:
192,192,77418,128,0,77592:0:0:0:0:
448,192,77592,128,0,77939:0:0:0:0:
192,192,77765,128,0,77939:0:0:0:0:
320,192,77939,128,0,78112:0:0:0:0:
64,192,77939,128,0,78112:0:0:0:0:
192,192,78112,128,0,78285:0:0:0:0:
64,192,78285,128,0,79586:0:0:0:0:
320,192,78285,128,0,78545:0:0:0:0:
448,192,78285,128,0,78459:0:0:0:0:
192,192,78459,128,0,78545:0:0:0:0:
448,192,78632,128,0,78806:0:0:0:0:
192,192,78632,128,0,78719:0:0:0:0:
320,192,78719,128,0,78892:0:0:0:0:
192,192,78806,128,0,78979:0:0:0:0:
320,192,78979,128,0,79066:0:0:0:0:
448,192,78979,128,0,79152:0:0:0:0:
192,192,79066,128,0,79152:0:0:0:0:
320,192,79152,128,0,79326:0:0:0:0:
448,192,79326,128,0,79413:0:0:0:0:
192,192,79326,128,0,79499:0:0:0:0:
320,192,79413,128,0,79586:0:0:0:0:
448,192,79499,128,0,79586:0:0:0:0:
448,192,79673,128,0,80019:0:0:0:0:
192,192,79673,128,0,79846:0:0:0:0:
320,192,79846,128,0,80193:0:0:0:0:
192,192,80019,128,0,80366:0:0:0:0:
64,192,80019,128,0,80193:0:0:0:0:
448,192,80193,128,0,80540:0:0:0:0:
320,192,80366,128,0,80540:0:0:0:0:
64,192,80366,128,0,80626:0:0:0:0:
192,192,80540,128,0,80626:0:0:0:0:
320,192,80626,128,0,80713:0:0:0:0:
448,192,80626,128,0,80713:0:0:0:0:
64,192,80713,128,0,80800:0:0:0:0:
192,192,80713,128,0,80800:0:0:0:0:
320,192,80800,128,0,80887:0:0:0:0:
448,192,80800,128,0,80887:0:0:0:0:
64,192,80887,128,0,80973:0:0:0:0:
192,192,80887,128,0,80973:0:0:0:0:
320,192,80973,128,0,81060:0:0:0:0:
448,192,80973,128,0,82100:0:0:0:0:
192,192,81060,128,0,81407:0:0:0:0:
64,192,81060,128,0,81233:0:0:0:0:
64,192,81407,128,0,81580:0:0:0:0:
64,192,81754,128,0,81927:0:0:0:0:
64,192,82100,128,0,82274:0:0:0:0:
320,192,82100,128,0,82274:0:0:0:0:
192,192,82274,128,0,83141:0:0:0:0:
320,192,82361,128,0,82621:0:0:0:0:
448,192,82447,128,0,82621:0:0:0:0:
448,192,82794,128,0,82967:0:0:0:0:
448,192,83141,128,0,83314:0:0:0:0:
64,192,83314,128,0,83488:0:0:0:0:
448,192,83488,128,0,83661:0:0:0:0:
320,192,83488,128,0,83661:0:0:0:0:
64,192,83661,128,0,84008:0:0:0:0:
192,192,83834,128,0,84008:0:0:0:0:
320,192,83834,128,0,84008:0:0:0:0:
448,192,84008,128,0,84181:0:0:0:0:
192,192,84181,128,0,84355:0:0:0:0:
64,192,84181,128,0,84355:0:0:0:0:
320,192,84355,128,0,84702:0:0:0:0:
192,192,84528,128,0,84702:0:0:0:0:
448,192,84702,128,0,84875:0:0:0:0:
192,192,84875,128,0,85048:0:0:0:0:
64,192,84875,128,0,85048:0:0:0:0:
448,192,85048,128,0,85308:0:0:0:0:
192,192,85222,128,0,85569:0:0:0:0:
320,192,85222,128,0,85395:0:0:0:0:
64,192,85395,128,0,85569:0:0:0:0:
320,192,85569,128,0,85742:0:0:0:0:
448,192,85569,128,0,85742:0:0:0:0:
64,192,85742,128,0,85915:0:0:0:0:
192,192,85829,128,0,86002:0:0:0:0:
320,192,85915,128,0,86089:0:0:0:0:
448,192,86089,128,0,86262:0:0:0:0:
320,192,86262,128,0,86436:0:0:0:0:
64,192,86262,128,0,86436:0:0:0:0:
448,192,86436,128,0,86696:0:0:0:0:
64,192,86609,128,0,86782:0:0:0:0:
320,192,86609,128,0,86869:0:0:0:0:
192,192,86782,128,0,86956:0:0:0:0:
64,192,86956,128,0,87129:0:0:0:0:
448,192,86956,128,0,87129:0:0:0:0:
320,192,87129,128,0,87389:0:0:0:0:
64,192,87303,128,0,87476:0:0:0:0:
192,192,87476,128,0,87650:0:0:0:0:
64,192,87650,128,0,87823:0:0:0:0:
448,192,87650,128,0,87823:0:0:0:0:
320,192,87823,128,0,88170:0:0:0:0:
192,192,87996,128,0,88170:0:0:0:0:
448,192,88170,128,0,88343:0:0:0:0:
64,192,88170,128,0,88343:0:0:0:0:
320,192,88343,128,0,88517:0:0:0:0:
192,192,88430,128,0,88603:0:0:0:0:
64,192,88517,128,0,88690:0:0:0:0:
448,192,88517,128,0,88777:0:0:0:0:
320,192,88690,128,0,89037:0:0:0:0:
64,192,88863,128,0,89037:0:0:0:0:
192,192,89037,128,0,89384:0:0:0:0:
448,192,89037,128,0,89210:0:0:0:0:
64,192,89210,128,0,89384:0:0:0:0:
320,192,89384,128,0,89644:0:0:0:0:
448,192,89384,128,0,89557:0:0:0:0:
64,192,89557,128,0,89730:0:0:0:0:
192,192,89730,128,0,89991:0:0:0:0:
448,192,89730,128,0,89904:0:0:0:0:
64,192,89904,128,0,90164:0:0:0:0:
448,192,90077,128,0,90251:0:0:0:0:
192,192,90251,128,0,90337:0:0:0:0:
64,192,90251,128,0,90598:0:0:0:0:
320,192,90251,128,0,90337:0:0:0:0:
448,192,90337,128,0,90424:0:0:0:0:
192,192,90424,128,0,90511:0:0:0:0:
320,192,90424,128,0,90511:0:0:0:0:
320,192,90598,128,0,90858:0:0:0:0:
448,192,90598,128,0,90771:0:0:0:0:
64,192,90771,128,0,91031:0:0:0:0:
192,192,90771,128,0,90944:0:0:0:0:
448,192,90944,128,0,91118:0:0:0:0:
64,192,91118,128,0,91378:0:0:0:0:
320,192,91118,128,0,91291:0:0:0:0:
192,192,91291,128,0,91551:0:0:0:0:
320,192,91378,128,0,91551:0:0:0:0:
448,192,91465,128,0,91551:0:0:0:0:
64,192,91638,128,0,91725:0:0:0:0:
448,192,91638,128,0,91725:0:0:0:0:
192,192,91725,128,0,91811:0:0:0:0:
320,192,91725,128,0,91811:0:0:0:0:
448,192,91811,128,0,91898:0:0:0:0:
64,192,91811,128,0,91898:0:0:0:0:
192,192,91898,128,0,91985:0:0:0:0:
320,192,91898,128,0,91985:0:0:0:0:
64,192,91985,128,0,92071:0:0:0:0:
448,192,91985,128,0,92071:0:0:0:0:
320,192,92158,128,0,92678:0:0:0:0:
192,192,92158,128,0,92332:0:0:0:0:
64,192,92158,128,0,92332:0:0:0:0:
448,192,92505,128,0,92678:0:0:0:0:
64,192,92505,128,0,93025:0:0:0:0:
192,192,92505,128,0,92678:0:0:0:0:
192,192,92852,128,0,93372:0:0:0:0:
320,192,92852,128,0,93025:0:0:0:0:
64,192,93199,128,0,93372:0:0:0:0:
448,192,93199,128,0,93719:0:0:0:0:
320,192,93372,128,0,93719:0:0:0:0:
64,192,93545,128,0,94066:0:0:0:0:
192,192,93545,128,0,93719:0:0:0:0:
448,192,93892,128,0,94066:0:0:0:0:
320,192,93892,128,0,94413:0:0:0:0:
192,192,94066,128,0,94239:0:0:0:0:
448,192,94239,128,0,94759:0:0:0:0:
64,192,94239,128,0,94413:0:0:0:0:
192,192,94413,128,0,94586:0:0:0:0:
320,192,94586,128,0,95106:0:0:0:0:
64,192,94759,128,0,94933:0:0:0:0:
192,192,94933,128,0,95106:0:0:0:0:
448,192,94933,128,0,95453:0:0:0:0:
64,192,95106,128,0,95280:0:0:0:0:
320,192,95280,128,0,95800:0:0:0:0:
192,192,95366,128,0,95540:0:0:0:0:
64,192,95453,128,0,95626:0:0:0:0:
192,192,95626,128,0,96147:0:0:0:0:
448,192,95626,128,0,95800:0:0:0:0:
64,192,95800,128,0,95973:0:0:0:0:
320,192,95973,128,0,96493:0:0:0:0:
448,192,96147,128,0,96320:0:0:0:0:
64,192,96320,128,0,96840:0:0:0:0:
192,192,96320,128,0,96493:0:0:0:0:
448,192,96667,128,0,97100:0:0:0:0:
320,192,96667,128,0,96840:0:0:0:0:
192,192,96667,128,0,96840:0:0:0:0:
320,192,97014,128,0,97534:0:0:0:0:
192,192,97014,128,0,97100:0:0:0:0:
64,192,97014,128,0,97100:0:0:0:0:
192,192,97187,128,0,97274:0:0:0:0:
448,192,97187,128,0,97274:0:0:0:0:
64,192,97361,128,0,97881:0:0:0:0:
192,192,97361,128,0,97534:0:0:0:0:
448,192,97534,128,0,97881:0:0:0:0:
192,192,97707,128,0,98228:0:0:0:0:
320,192,97707,128,0,97881:0:0:0:0:
448,192,98054,128,0,98574:0:0:0:0:
320,192,98054,128,0,98228:0:0:0:0:
64,192,98228,128,0,98574:0:0:0:0:
320,192,98401,128,0,98574:0:0:0:0:
192,192,98574,128,0,98921:0:0:0:0:
448,192,98748,128,0,98921:0:0:0:0:
64,192,98748,128,0,98921:0:0:0:0:
320,192,98921,128,0,99268:0:0:0:0:
192,192,99095,128,0,99268:0:0:0:0:
64,192,99095,128,0,99615:0:0:0:0:
448,192,99095,128,0,99268:0:0:0:0:
448,192,99441,128,0,99615:0:0:0:0:
192,192,99441,128,0,99615:0:0:0:0:
320,192,99615,128,0,99788:0:0:0:0:
192,192,99788,128,0,100135:0:0:0:0:
64,192,99788,128,0,99962:0:0:0:0:
448,192,99788,128,0,99962:0:0:0:0:
320,192,99962,128,0,100135:0:0:0:0:
448,192,100135,128,0,100308:0:0:0:0:
64,192,100222,128,0,100395:0:0:0:0:
192,192,100308,128,0,100482:0:0:0:0:
320,192,100395,128,0,100569:0:0:0:0:
448,192,100482,128,0,100829:0:0:0:0:
64,192,100482,128,0,100655:0:0:0:0:
192,192,100655,128,0,100915:0:0:0:0:
320,192,100829,128,0,100915:0:0:0:0:
64,192,100829,128,0,101002:0:0:0:0:
448,192,101002,128,0,101089:0:0:0:0:
320,192,101002,128,0,101176:0:0:0:0:
192,192,101089,128,0,101262:0:0:0:0:
64,192,101089,128,0,101436:0:0:0:0:
448,192,101176,128,0,101436:0:0:0:0:
320,192,101262,128,0,101349:0:0:0:0:
192,192,101349,128,0,101609:0:0:0:0:
448,192,101522,128,0,101696:0:0:0:0:
64,192,101522,128,0,101782:0:0:0:0:
320,192,101522,128,0,101696:0:0:0:0:
192,192,101696,128,0,101869:0:0:0:0:
448,192,101782,128,0,101956:0:0:0:0:
320,192,101869,128,0,102129:0:0:0:0:
64,192,101869,128,0,102043:0:0:0:0:
192,192,101956,128,0,102043:0:0:0:0:
448,192,102043,128,0,102303:0:0:0:0:
192,192,102129,128,0,102476:0:0:0:0:
64,192,102216,128,0,102389:0:0:0:0:
320,192,102216,128,0,102303:0:0:0:0:
448,192,102389,128,0,102476:0:0:0:0:
320,192,102389,128,0,102650:0:0:0:0:
64,192,102476,128,0,102650:0:0:0:0:
192,192,102563,128,0,102650:0:0:0:0:
448,192,102650,128,0,102823:0:0:0:0:
320,192,102736,128,0,102823:0:0:0:0:
192,192,102736,128,0,102910:0:0:0:0:
64,192,102736,128,0,102996:0:0:0:0:
448,192,102910,128,0,103083:0:0:0:0:
320,192,102910,128,0,103083:0:0:0:0:
192,192,102996,128,0,103170:0:0:0:0:
64,192,103083,128,0,103170:0:0:0:0:
192,192,103256,128,0,103430:0:0:0:0:
64,192,103256,128,0,103777:0:0:0:0:
320,192,103256,128,0,103430:0:0:0:0:
448,192,103256,128,0,103430:0:0:0:0:
448,192,103603,128,0,104124:0:0:0:0:
320,192,103603,128,0,103777:0:0:0:0:
192,192,103603,128,0,103777:0:0:0:0:
192,192,103950,128,0,104470:0:0:0:0:
320,192,103950,128,0,104124:0:0:0:0:
64,192,103950,128,0,104124:0:0:0:0:
320,192,104297,128,0,104817:0:0:0:0:
448,192,104297,128,0,104470:0:0:0:0:
64,192,104297,128,0,104470:0:0:0:0:
64,192,104644,128,0,105164:0:0:0:0:
192,192,104644,128,0,104817:0:0:0:0:
448,192,104644,128,0,104817:0:0:0:0:
192,192,104991,128,0,105511:0:0:0:0:
320,192,104991,128,0,105164:0:0:0:0:
448,192,104991,128,0,105164:0:0:0:0:
320,192,105337,128,0,105858:0:0:0:0:
448,192,105337,128,0,105511:0:0:0:0:
64,192,105337,128,0,105424:0:0:0:0:
64,192,105511,128,0,105858:0:0:0:0:
192,192,105598,128,0,105858:0:0:0:0:
448,192,105684,128,0,106204:0:0:0:0:
192,192,106031,128,0,106551:0:0:0:0:
320,192,106031,128,0,106204:0:0:0:0:
64,192,106031,128,0,106204:0:0:0:0:
64,192,106378,128,0,106898:0:0:0:0:
320,192,106378,128,0,106551:0:0:0:0:
448,192,106378,128,0,106551:0:0:0:0:
448,192,106725,128,0,107245:0:0:0:0:
320,192,106725,128,0,106898:0:0:0:0:
192,192,106725,128,0,106898:0:0:0:0:
320,192,107071,128,0,107592:0:0:0:0:
192,192,107071,128,0,107245:0:0:0:0:
64,192,107071,128,0,107245:0:0:0:0:
64,192,107418,128,0,107939:0:0:0:0:
192,192,107418,128,0,107592:0:0:0:0:
448,192,107418,128,0,107592:0:0:0:0:
192,192,107765,128,0,108285:0:0:0:0:
320,192,107765,128,0,107939:0:0:0:0:
448,192,107765,128,0,107939:0:0:0:0:
320,192,108112,128,0,108632:0:0:0:0:
448,192,108112,128,0,108285:0:0:0:0:
64,192,108112,128,0,108285:0:0:0:0:
192,192,108459,128,0,108632:0:0:0:0:
448,192,108459,128,0,108979:0:0:0:0:
64,192,108459,128,0,108632:0:0:0:0:
320,192,108806,128,0,109326:0:0:0:0:
192,192,108806,128,0,108979:0:0:0:0:
64,192,108806,128,0,108979:0:0:0:0:
192,192,109152,128,0,109673:0:0:0:0:
64,192,109152,128,0,109326:0:0:0:0:
448,192,109152,128,0,109326:0:0:0:0:
64,192,109499,128,0,110019:0:0:0:0:
320,192,109499,128,0,109673:0:0:0:0:
448,192,109499,128,0,109673:0:0:0:0:
192,192,109846,128,0,110019:0:0:0:0:
320,192,109846,128,0,110366:0:0:0:0:
448,192,109846,128,0,110019:0:0:0:0:
64,192,110193,128,0,110713:0:0:0:0:
192,192,110193,128,0,110366:0:0:0:0:
448,192,110193,128,0,110366:0:0:0:0:
448,192,110540,128,0,110973:0:0:0:0:
192,192,110540,128,0,110713:0:0:0:0:
320,192,110540,128,0,110713:0:0:0:0:
64,192,110887,128,0,111147:0:0:0:0:
192,192,110887,128,0,111233:0:0:0:0:
320,192,111060,128,0,111233:0:0:0:0:
448,192,111060,128,0,111233:0:0:0:0:
64,192,111233,128,0,111493:0:0:0:0:
192,192,111320,128,0,111493:0:0:0:0:
320,192,111407,128,0,111754:0:0:0:0:
448,192,111493,128,0,111754:0:0:0:0:
64,192,111580,128,0,112794:0:0:0:0:
192,192,111580,128,0,111754:0:0:0:0:
192,192,112100,128,0,112447:0:0:0:0:
320,192,112274,128,0,112447:0:0:0:0:
448,192,112274,128,0,112447:0:0:0:0:
192,192,112621,128,0,112794:0:0:0:0:
448,192,112794,128,0,113141:0:0:0:0:
320,192,112967,128,0,113141:0:0:0:0:
192,192,113141,128,0,113488:0:0:0:0:
64,192,113314,128,0,113488:0:0:0:0:
320,192,113488,128,0,114008:0:0:0:0:
64,192,113661,128,0,113834:0:0:0:0:
192,192,113661,128,0,113834:0:0:0:0:
448,192,113834,128,0,114008:0:0:0:0:
64,192,114181,128,0,114441:0:0:0:0:
448,192,114181,128,0,114702:0:0:0:0:
192,192,114268,128,0,114441:0:0:0:0:
320,192,114355,128,0,114441:0:0:0:0:
64,192,114528,128,0,114702:0:0:0:0:
320,192,114528,128,0,114702:0:0:0:0:
192,192,114702,128,0,115048:0:0:0:0:
64,192,114875,128,0,115222:0:0:0:0:
320,192,115048,128,0,115222:0:0:0:0:
448,192,115048,128,0,115222:0:0:0:0:
192,192,115222,128,0,115569:0:0:0:0:
448,192,115395,128,0,115569:0:0:0:0:
320,192,115569,128,0,115915:0:0:0:0:
64,192,115569,128,0,115742:0:0:0:0:
64,192,115915,128,0,116089:0:0:0:0:
192,192,115915,128,0,116089:0:0:0:0:
448,192,115915,128,0,116262:0:0:0:0:
320,192,116089,128,0,116782:0:0:0:0:
192,192,116262,128,0,116782:0:0:0:0:
64,192,116436,128,0,116696:0:0:0:0:
448,192,116436,128,0,116696:0:0:0:0:
64,192,116782,128,0,116869:0:0:0:0:
448,192,116782,128,0,116869:0:0:0:0:
192,192,116869,128,0,116956:0:0:0:0:
320,192,116869,128,0,116956:0:0:0:0:
64,192,116956,128,0,117043:0:0:0:0:
448,192,116956,128,0,117043:0:0:0:0:
192,192,117043,128,0,117389:0:0:0:0:
320,192,117043,128,0,117303:0:0:0:0:
64,192,117129,128,0,117476:0:0:0:0:
448,192,117129,128,0,117216:0:0:0:0:
448,192,117303,128,0,117736:0:0:0:0:
320,192,117389,128,0,117476:0:0:0:0:
192,192,117476,128,0,117563:0:0:0:0:
64,192,117563,128,0,117650:0:0:0:0:
320,192,117563,128,0,117910:0:0:0:0:
192,192,117650,128,0,117823:0:0:0:0:
64,192,117736,128,0,118083:0:0:0:0:
448,192,117823,128,0,117996:0:0:0:0:
192,192,117910,128,0,118170:0:0:0:0:
320,192,117996,128,0,118083:0:0:0:0:
448,192,118083,128,0,118256:0:0:0:0:
64,192,118170,128,0,118256:0:0:0:0:
320,192,118170,128,0,118430:0:0:0:0:
192,192,118256,128,0,118343:0:0:0:0:
64,192,118343,128,0,118690:0:0:0:0:
448,192,118343,128,0,118430:0:0:0:0:
192,192,118430,128,0,118690:0:0:0:0:
