osu file format v14

[General]
AudioFilename: audio.mp3
AudioLeadIn: 0
PreviewTime: 252405
Countdown: 0
SampleSet: Soft
StackLeniency: 0.6
Mode: 0
LetterboxInBreaks: 1
EpilepsyWarning: 1
WidescreenStoryboard: 1

[Editor]
DistanceSpacing: 0.9
BeatDivisor: 4
GridSize: 4
TimelineZoom: 1.4

[Metadata]
Title:DARLING in the FRANXX Ending Collection
TitleUnicode:ダーリン・イン・ザ・フランキス Ending Collection
Artist:XX:me
ArtistUnicode:XX:me
Creator:KwAIMSuckASFuk
Version:Darling
Source:ダーリン・イン・ザ・フランキス
Tags:ditf song compilation Celektus Escape Torikago トリカゴ Manatsu No Setsuna 真夏のセツナ Hitori ひとり Beautiful World キス・ミー ed ゼロツー 戸松遥 イチゴ 市ノ瀬加那 ミク 山下七海 ココロ 早見沙織 イクノ 石上静香 杉山勝彦 ichigo miku kokoro ikuno Zero two Hiro
BeatmapID:1645293
BeatmapSetID:783540

[Difficulty]
HPDrainRate:5
CircleSize:4
OverallDifficulty:8
ApproachRate:9
SliderMultiplier:1.4
SliderTickRate:1

[Events]
//Background and Video events
0,0,"bg.jpg",0,0
//Break Periods
2,84746,94682
2,157703,166317
2,248026,251905
2,311105,315366
//Storyboard Layer 0 (Background)
//Storyboard Layer 1 (Fail)
//Storyboard Layer 2 (Pass)
//Storyboard Layer 3 (Foreground)
//Storyboard Sound Samples

[TimingPoints]
11966,387.096774193548,4,2,1,60,1,0
12256,-100,4,2,1,5,0,0
12353,-100,4,2,1,60,0,0
13127,-83.3333333333333,4,2,1,60,0,0
14578,-83.3333333333333,4,2,1,5,0,0
14675,-83.3333333333333,4,2,1,60,0,0
21159,-83.3333333333333,4,2,1,5,0,0
21256,-83.3333333333333,4,2,1,60,0,0
24643,-83.3333333333333,4,2,1,5,0,0
24740,-83.3333333333333,4,2,1,60,0,0
29288,-83.3333333333333,4,2,1,5,0,0
29385,-83.3333333333333,4,2,1,60,0,0
29482,-83.3333333333333,4,2,1,5,0,0
29578,-66.6666666666667,4,2,1,60,0,0
30546,-83.3333333333333,4,2,1,60,0,0
30836,-83.3333333333333,4,2,1,5,0,0
30933,-83.3333333333333,4,2,1,60,0,0
31611,-83.3333333333333,4,2,1,5,0,0
31707,-83.3333333333333,4,2,1,60,0,0
33933,-83.3333333333333,4,2,1,5,0,0
34030,-83.3333333333333,4,2,1,60,0,0
34707,-83.3333333333333,4,2,1,5,0,0
34804,-83.3333333333333,4,2,1,60,0,0
36740,-83.3333333333333,4,2,1,70,0,1
39836,-100,4,2,1,30,0,0
40998,-133.333333333333,4,2,1,40,0,0
41385,-133.333333333333,4,2,1,40,0,0
46998,-100,4,2,1,30,0,0
47482,-100,4,2,1,5,0,0
47578,-100,4,2,1,55,0,0
48353,-83.3333333333333,4,2,1,50,0,0
49127,-83.3333333333333,4,2,1,60,0,0
50095,-83.3333333333333,4,2,1,70,0,0
53772,-76.9230769230769,4,2,1,70,0,1
61611,-76.9230769230769,4,2,1,5,0,1
61707,-76.9230769230769,4,2,1,70,0,1
62385,-76.9230769230769,4,2,1,5,0,1
62482,-76.9230769230769,4,2,1,70,0,1
66159,-76.9230769230769,4,2,1,55,0,1
70804,-76.9230769230769,4,2,1,45,0,1
70998,-76.9230769230769,4,2,1,50,0,1
71191,-76.9230769230769,4,2,1,55,0,1
71385,-76.9230769230769,4,2,1,60,0,1
71578,-76.9230769230769,4,2,1,65,0,1
71965,-76.9230769230769,4,2,1,70,0,1
72353,-83.3333333333333,4,2,1,70,0,0
83772,-100,4,2,1,50,0,0
84546,-125,4,2,1,50,0,0
85514,-125,4,2,1,5,0,0
95282,370.37037037037,4,2,1,50,1,0
98059,-83.3333333333333,4,2,2,50,0,0
103337,-83.3333333333333,4,2,1,5,0,0
103430,-83.3333333333333,4,2,1,60,0,0
103615,-83.3333333333333,4,2,1,5,0,0
103707,-83.3333333333333,4,2,1,60,0,0
103893,-83.3333333333333,4,2,1,5,0,0
103985,-83.3333333333333,4,2,1,60,0,0
105744,-83.3333333333333,4,2,1,5,0,0
105837,-76.9230769230769,4,2,1,60,0,0
106115,-76.9230769230769,4,2,1,5,0,0
106207,-66.6666666666667,4,2,1,60,0,0
106763,-58.8235294117647,4,2,1,60,0,0
107133,-83.3333333333333,4,2,2,35,0,0
109541,-66.6666666666667,4,2,2,50,0,0
110096,-83.3333333333333,4,2,2,35,0,0
112041,-83.3333333333333,4,2,1,5,0,0
112133,-83.3333333333333,4,2,1,50,0,0
112319,-83.3333333333333,4,2,2,50,0,0
113059,-83.3333333333333,4,2,2,50,0,0
115281,-83.3333333333333,4,2,1,60,0,0
116022,-83.3333333333333,4,2,2,40,0,1
117504,-83.3333333333333,4,2,1,80,0,1
118985,-83.3333333333333,4,2,2,60,0,0
119263,-83.3333333333333,4,2,1,5,0,0
119356,-83.3333333333333,4,2,1,70,0,0
119726,-83.3333333333333,4,2,2,65,0,0
120004,-83.3333333333333,4,2,1,5,0,0
120096,-83.3333333333333,4,2,1,70,0,0
120467,-83.3333333333333,4,2,2,70,0,0
121207,-83.3333333333333,4,2,2,75,0,0
121948,-76.9230769230769,4,2,2,75,0,1
124819,-76.9230769230769,4,2,1,5,0,1
124911,-76.9230769230769,4,2,1,80,0,1
126485,-76.9230769230769,4,2,1,5,0,1
126578,-76.9230769230769,4,2,1,80,0,1
128800,-76.9230769230769,4,2,1,5,0,1
128893,-76.9230769230769,4,2,1,80,0,1
129078,-76.9230769230769,4,2,1,5,0,1
129170,-76.9230769230769,4,2,1,80,0,1
130281,-76.9230769230769,4,2,1,5,0,1
130374,-76.9230769230769,4,2,1,80,0,1
130559,-76.9230769230769,4,2,1,5,0,1
130652,-76.9230769230769,4,2,1,80,0,1
132596,-76.9230769230769,4,2,1,5,0,1
132689,-76.9230769230769,4,2,1,80,0,1
133800,-125,4,2,1,80,0,1
134078,-125,4,2,1,5,0,1
134170,-66.6666666666667,4,2,1,80,0,1
134541,-76.9230769230769,4,2,1,80,0,1
138522,-76.9230769230769,4,2,1,5,0,1
138615,-76.9230769230769,4,2,1,80,0,1
140096,-66.6666666666667,4,2,1,80,0,1
140467,-76.9230769230769,4,2,1,80,0,1
145652,-83.3333333333333,4,2,2,55,0,0
154541,-100,4,2,1,40,0,0
166008,454.545454545455,4,2,1,50,1,0
167826,-100,4,2,2,55,0,0
171803,-100,4,2,1,5,0,0
171917,-100,4,2,1,50,0,0
172712,-100,4,2,1,5,0,0
172826,-100,4,2,1,50,0,0
173281,-83.3333333333333,4,2,1,50,0,0
174190,-76.9230769230769,4,2,1,50,0,0
175099,-83.3333333333333,4,2,1,50,0,0
177031,-83.3333333333333,4,2,1,5,0,0
177144,-83.3333333333333,4,2,1,50,0,0
178735,-83.3333333333333,4,2,2,45,0,0
179076,-83.3333333333333,4,2,1,5,0,0
179190,-83.3333333333333,4,2,1,50,0,0
179531,-83.3333333333333,4,2,1,5,0,0
179644,-83.3333333333333,4,2,1,50,0,0
179872,-83.3333333333333,4,2,1,5,0,0
179985,-83.3333333333333,4,2,1,50,0,0
180212,-83.3333333333333,4,2,1,5,0,0
180326,-83.3333333333333,4,2,1,50,0,0
180781,-83.3333333333333,4,2,1,5,0,0
180894,-83.3333333333333,4,2,1,50,0,0
181122,-83.3333333333333,4,2,1,5,0,0
181235,-83.3333333333333,4,2,1,50,0,0
182712,-83.3333333333333,4,2,1,5,0,0
182826,-83.3333333333333,4,2,1,50,0,0
183508,-83.3333333333333,4,2,1,5,0,0
183622,-83.3333333333333,4,2,1,50,0,0
183849,-83.3333333333333,4,2,1,5,0,0
183962,-83.3333333333333,4,2,1,50,0,0
184417,-83.3333333333333,4,2,1,5,0,0
184531,-83.3333333333333,4,2,1,50,0,0
184758,-83.3333333333333,4,2,1,5,0,0
184872,-83.3333333333333,4,2,1,50,0,0
186349,-83.3333333333333,4,2,1,5,0,0
186462,-83.3333333333333,4,2,1,50,0,0
187144,-83.3333333333333,4,2,1,5,0,0
187258,-83.3333333333333,4,2,1,50,0,0
187485,-83.3333333333333,4,2,1,5,0,0
187599,-83.3333333333333,4,2,1,50,0,0
188053,-83.3333333333333,4,2,1,5,0,0
188167,-83.3333333333333,4,2,1,50,0,0
188394,-83.3333333333333,4,2,1,5,0,0
188508,-83.3333333333333,4,2,1,50,0,0
189872,-83.3333333333333,4,2,1,5,0,0
189985,-83.3333333333333,4,2,1,50,0,0
190212,-83.3333333333333,4,2,1,5,0,0
190326,-83.3333333333333,4,2,1,50,0,0
190781,-83.3333333333333,4,2,1,5,0,0
190894,-83.3333333333333,4,2,1,50,0,0
191122,-83.3333333333333,4,2,1,5,0,0
191235,-83.3333333333333,4,2,1,50,0,0
193622,-83.3333333333333,4,2,1,5,0,0
193735,-83.3333333333333,4,2,1,50,0,0
194417,-83.3333333333333,4,2,1,5,0,0
194531,-83.3333333333333,4,2,1,50,0,0
194758,-83.3333333333333,4,2,1,5,0,0
194872,-83.3333333333333,4,2,1,50,0,0
195326,-83.3333333333333,4,2,1,5,0,0
195440,-83.3333333333333,4,2,1,50,0,0
195667,-83.3333333333333,4,2,1,5,0,0
195781,-83.3333333333333,4,2,1,50,0,0
197258,-83.3333333333333,4,2,1,5,0,0
197372,-83.3333333333333,4,2,1,50,0,0
198053,-83.3333333333333,4,2,1,5,0,0
198167,-83.3333333333333,4,2,1,50,0,0
198394,-83.3333333333333,4,2,1,5,0,0
198508,-83.3333333333333,4,2,1,50,0,0
198962,-83.3333333333333,4,2,1,5,0,0
199076,-83.3333333333333,4,2,1,50,0,0
199303,-83.3333333333333,4,2,1,5,0,0
199417,-83.3333333333333,4,2,1,50,0,0
200894,-83.3333333333333,4,2,1,5,0,0
201008,-83.3333333333333,4,2,1,50,0,0
201690,-83.3333333333333,4,2,1,5,0,0
201803,-83.3333333333333,4,2,1,50,0,0
202031,-83.3333333333333,4,2,1,5,0,0
202144,-83.3333333333333,4,2,1,50,0,0
202599,-83.3333333333333,4,2,1,5,0,0
202712,-83.3333333333333,4,2,1,50,0,0
202940,-83.3333333333333,4,2,1,5,0,0
203053,-83.3333333333333,4,2,1,50,0,0
204190,-76.9230769230769,4,2,2,50,0,0
206008,-76.9230769230769,4,2,2,55,0,0
207826,-76.9230769230769,4,2,2,55,0,0
208053,-76.9230769230769,4,2,1,5,0,0
208167,-76.9230769230769,4,2,1,60,0,0
208281,-100,4,2,2,30,0,0
208394,-76.9230769230769,4,2,1,5,0,0
208508,-76.9230769230769,4,2,1,60,0,0
208735,-100,4,2,2,35,0,0
209190,-100,4,2,2,40,0,0
209644,-76.9230769230769,4,2,2,45,0,0
209872,-76.9230769230769,4,2,1,5,0,0
209985,-76.9230769230769,4,2,1,60,0,0
210099,-76.9230769230769,4,2,2,50,0,0
210212,-76.9230769230769,4,2,1,5,0,0
210326,-76.9230769230769,4,2,1,60,0,0
210553,-100,4,2,2,55,0,0
211008,-100,4,2,2,60,0,0
211462,-83.3333333333333,4,2,2,65,0,0
218735,-76.9230769230769,4,2,1,70,0,1
218962,-76.9230769230769,4,2,1,5,0,1
219076,-76.9230769230769,4,2,1,70,0,1
219303,-76.9230769230769,4,2,1,5,0,1
219417,-76.9230769230769,4,2,1,70,0,1
220781,-76.9230769230769,4,2,1,5,0,1
220894,-76.9230769230769,4,2,1,70,0,1
221122,-76.9230769230769,4,2,1,5,0,1
221235,-76.9230769230769,4,2,1,70,0,1
221690,-76.9230769230769,4,2,1,5,0,1
221803,-76.9230769230769,4,2,1,70,0,1
222031,-76.9230769230769,4,2,1,5,0,1
222144,-76.9230769230769,4,2,1,70,0,1
223508,-76.9230769230769,4,2,1,5,0,1
223622,-76.9230769230769,4,2,1,70,0,1
223849,-76.9230769230769,4,2,1,5,0,1
223962,-76.9230769230769,4,2,1,70,0,1
224417,-76.9230769230769,4,2,1,5,0,1
224531,-76.9230769230769,4,2,1,70,0,1
224758,-76.9230769230769,4,2,1,5,0,1
224872,-76.9230769230769,4,2,1,70,0,1
226235,-76.9230769230769,4,2,1,5,0,1
226349,-76.9230769230769,4,2,1,70,0,1
226576,-76.9230769230769,4,2,1,5,0,1
226690,-76.9230769230769,4,2,1,70,0,1
227144,-76.9230769230769,4,2,1,5,0,1
227258,-76.9230769230769,4,2,1,70,0,1
227485,-76.9230769230769,4,2,1,5,0,1
227599,-76.9230769230769,4,2,1,70,0,1
228053,-76.9230769230769,4,2,1,5,0,1
228167,-76.9230769230769,4,2,1,70,0,1
228394,-76.9230769230769,4,2,1,5,0,1
228508,-76.9230769230769,4,2,1,70,0,1
231690,-76.9230769230769,4,2,1,5,0,1
231803,-76.9230769230769,4,2,1,70,0,1
232031,-76.9230769230769,4,2,1,5,0,1
232144,-76.9230769230769,4,2,1,70,0,1
233508,-76.9230769230769,4,2,1,5,0,1
233622,-76.9230769230769,4,2,1,70,0,1
233849,-76.9230769230769,4,2,1,5,0,1
233962,-76.9230769230769,4,2,1,70,0,1
235326,-76.9230769230769,4,2,1,5,0,1
235440,-76.9230769230769,4,2,1,70,0,1
235667,-76.9230769230769,4,2,1,5,0,1
235781,-76.9230769230769,4,2,1,70,0,1
236235,-76.9230769230769,4,2,1,5,0,1
236349,-76.9230769230769,4,2,1,70,0,1
236576,-76.9230769230769,4,2,1,5,0,1
236690,-76.9230769230769,4,2,1,70,0,1
238053,-76.9230769230769,4,2,1,5,0,1
238167,-76.9230769230769,4,2,1,70,0,1
238394,-76.9230769230769,4,2,1,5,0,1
238508,-76.9230769230769,4,2,1,70,0,1
238962,-76.9230769230769,4,2,1,5,0,1
239076,-76.9230769230769,4,2,1,70,0,1
239303,-76.9230769230769,4,2,1,5,0,1
239417,-76.9230769230769,4,2,1,70,0,1
244189,-83.3333333333333,4,2,1,70,0,0
245781,-125,4,2,1,60,0,0
246917,-125,4,2,1,30,0,0
251705,400,4,2,1,55,1,0
252505,-133.333333333333,4,2,1,55,0,0
253305,-100,4,2,1,55,0,0
253605,-100,4,2,1,5,0,0
253705,-100,4,2,1,55,0,0
254405,-100,4,2,1,5,0,0
254505,-100,4,2,1,55,0,0
255205,-100,4,2,1,5,0,0
255305,-100,4,2,1,55,0,0
255705,-83.3333333333333,4,2,1,50,0,0
256105,-100,4,2,1,50,0,0
256405,-100,4,2,1,5,0,0
256505,-100,4,2,1,50,0,0
256805,-100,4,2,1,5,0,0
256905,-100,4,2,1,50,0,0
257605,-100,4,2,1,5,0,0
257705,-100,4,2,1,50,0,0
258805,-100,4,2,1,5,0,0
258905,-83.3333333333333,4,2,1,50,0,0
259305,-100,4,2,1,50,0,0
260005,-100,4,2,1,5,0,0
260105,-100,4,2,1,50,0,0
260505,-83.3333333333333,4,2,1,50,0,0
260805,-83.3333333333333,4,2,1,5,0,0
260905,-100,4,2,1,50,0,0
261605,-100,4,2,1,5,0,0
261705,-100,4,2,1,50,0,0
262105,-83.3333333333333,4,2,1,50,0,0
262305,-83.3333333333333,4,2,1,5,0,0
262505,-100,4,2,1,50,0,0
262905,-100,4,2,1,50,0,0
263705,-83.3333333333333,4,2,1,50,0,0
264105,-100,4,2,1,50,0,0
264405,-100,4,2,1,5,0,0
264505,-100,4,2,1,50,0,0
266405,-100,4,2,1,5,0,0
266505,-100,4,2,1,50,0,0
267205,-100,4,2,1,5,0,0
267305,-100,4,2,1,50,0,0
268405,-100,4,2,1,5,0,0
268505,-83.3333333333333,4,2,1,50,0,0
268905,-100,4,2,1,50,0,0
269205,-100,4,2,1,5,0,0
269305,-100,4,2,1,50,0,0
269605,-100,4,2,1,5,0,0
269705,-100,4,2,1,50,0,0
270405,-100,4,2,1,5,0,0
270505,-100,4,2,1,50,0,0
271605,-100,4,2,1,5,0,0
271705,-83.3333333333333,4,2,1,50,0,0
272105,-100,4,2,1,50,0,0
272405,-100,4,2,1,5,0,0
272505,-100,4,2,1,50,0,0
272805,-100,4,2,1,5,0,0
272905,-100,4,2,1,50,0,0
273305,-83.3333333333333,4,2,1,50,0,0
273705,-100,4,2,1,50,0,0
274405,-100,4,2,1,5,0,0
274505,-100,4,2,1,50,0,0
275205,-100,4,2,1,5,0,0
275305,-100,4,2,1,50,0,0
276005,-100,4,2,1,5,0,0
276105,-100,4,2,1,50,0,0
278805,-100,4,2,1,5,0,0
278905,-100,4,2,1,50,0,0
280905,-100,4,2,1,60,0,0
282105,-83.3333333333333,4,2,1,70,0,1
283305,-100,4,2,1,40,0,1
283505,-100,4,2,1,5,0,1
283705,-100,4,2,1,40,0,1
284905,-83.3333333333333,4,2,1,70,0,1
285605,-83.3333333333333,4,2,1,5,0,1
285705,-83.3333333333333,4,2,1,70,0,1
286205,-83.3333333333333,4,2,1,5,0,1
286305,-83.3333333333333,4,2,1,70,0,1
286905,-83.3333333333333,4,2,1,5,0,1
287105,-100,4,2,1,70,0,1
288505,-83.3333333333333,4,2,1,70,0,1
288805,-83.3333333333333,4,2,1,5,0,1
288905,-83.3333333333333,4,2,1,70,0,1
289605,-83.3333333333333,4,2,1,5,0,1
289705,-83.3333333333333,4,2,1,70,0,1
290805,-83.3333333333333,4,2,1,5,0,1
290905,-83.3333333333333,4,2,1,70,0,1
291205,-83.3333333333333,4,2,1,5,0,1
291305,-83.3333333333333,4,2,1,70,0,1
292805,-83.3333333333333,4,2,1,5,0,1
292905,-83.3333333333333,4,2,1,70,0,1
294905,-100,4,2,1,60,0,0
295205,-100,4,2,1,5,0,0
295305,-100,4,2,1,60,0,0
296005,-100,4,2,1,5,0,0
296105,-100,4,2,1,60,0,0
299205,-100,4,2,1,5,0,0
299305,-100,4,2,1,60,0,0
300805,-100,4,2,1,5,0,0
300905,-100,4,2,1,60,0,0
301605,-100,4,2,1,5,0,0
301705,-100,4,2,1,60,0,0
303605,-100,4,2,1,5,0,0
303705,-100,4,2,1,60,0,0
304505,-76.9230769230769,4,2,1,70,0,0
305605,-76.9230769230769,4,2,1,5,0,0
305705,-76.9230769230769,4,2,1,70,0,0
307305,-100,4,2,1,60,0,0
307705,-100,4,2,1,55,0,0
308105,-100,4,2,1,60,0,0
308505,-100,4,2,1,65,0,0
308905,-100,4,2,1,70,0,0
309305,-100,4,2,1,75,0,0
309705,-100,4,2,1,50,0,0
310505,-100,4,2,1,40,0,0
310905,-100,4,2,1,30,0,0
315966,291.26213592233,6,2,1,80,1,0
317713,-100,6,2,1,80,0,1
318586,-83.3333333333333,6,2,1,80,0,1
324703,-76.9230769230769,6,2,1,80,0,1
331694,-100,6,2,1,70,0,0
338683,-100,6,2,1,60,0,0
345673,-83.3333333333333,6,2,1,60,0,0
348295,-83.3333333333333,6,2,1,50,0,0
354412,-58.8235294117647,6,2,1,50,0,0
354994,-100,6,2,1,50,0,0
356161,375,4,2,1,50,1,0
357286,-100,4,2,1,40,0,0
358036,-100,4,2,1,20,0,0
358786,-100,4,2,1,5,0,0

[Colours]
Combo1 : 255,202,40
Combo2 : 255,38,87
Combo3 : 255,106,158
Combo4 : 43,43,255
Combo5 : 128,128,255
Combo6 : 247,80,0
Combo7 : 255,125,55
Combo8 : 234,164,0

[HitObjects]
100,32,11966,38,0,B|112:76|112:76|104:140,1,105,4|0,3:2|0:0,0:0:0:0:
99,160,12354,1,2,3:2:0:0:
268,215,12547,1,2,0:2:0:0:
115,307,12741,2,0,L|127:225,1,70,2|0,3:2|0:0,0:0:0:0:
210,308,13128,1,2,3:2:0:0:
180,105,13321,6,0,P|119:122|90:152,1,83.9999974365235,2|0,0:2|3:2,0:0:0:0:
268,215,13708,2,0,P|322:196|353:150,1,83.9999974365235,2|0,0:2|3:2,0:0:0:0:
136,247,14096,1,2,0:2:0:0:
296,335,14289,2,0,P|341:310|413:329,1,125.999996154785,2|0,3:2|0:0,0:0:0:0:
462,375,14676,2,0,P|454:326|462:279,1,83.9999974365235,2|0,3:2|0:0,0:0:0:0:
433,222,14966,1,0,0:0:0:0:
433,222,15063,102,0,P|366:234|321:225,1,83.9999974365235,4|2,3:2|0:2,0:0:0:0:
241,74,15450,1,2,3:2:0:0:
381,122,15644,1,2,0:2:0:0:
177,160,15837,2,0,P|229:175|278:179,1,83.9999974365235,2|0,3:2|0:0,0:0:0:0:
66,223,16225,1,2,3:2:0:0:
190,342,16418,6,0,P|203:300|195:244,1,83.9999974365235,2|0,0:2|3:2,0:0:0:0:
75,140,16805,2,0,P|63:186|71:242,1,83.9999974365235,2|0,0:2|3:2,0:0:0:0:
227,169,17192,1,2,0:2:0:0:
103,52,17386,2,0,L|3:76,1,83.9999974365235,2|2,3:2|0:3,0:0:0:0:
227,169,17773,2,0,L|327:145,1,83.9999974365235,0|2,3:2|0:3,0:0:0:0:
112,240,18160,101,6,3:2:0:0:
300,283,18354,1,2,0:2:0:0:
227,169,18547,1,2,3:2:0:0:
211,356,18741,2,0,P|191:312|184:276,1,83.9999974365235,2|0,0:2|3:2,0:0:0:0:
300,283,19128,1,2,0:2:0:0:
145,164,19321,1,2,3:2:0:0:
360,202,19515,6,0,P|377:159|382:112,1,83.9999974365235,2|4,0:2|3:2,0:0:0:0:
226,254,19902,1,2,0:2:0:0:
447,216,20096,1,2,3:2:0:0:
268,46,20289,2,0,P|267:117|278:166,2,83.9999974365235,2|0|0,0:2|3:2|0:0,0:0:0:0:
447,216,20870,2,0,P|388:186|316:226,1,125.999996154785,2|0,3:2|0:0,0:0:0:0:
261,202,21257,102,0,P|304:237|262:338,1,167.999994873047,6|0,3:2|3:2,0:0:0:0:
137,285,21837,1,2,0:2:0:0:
261,118,22031,2,0,L|261:214,1,83.9999974365235,2|0,3:2|0:0,0:0:0:0:
90,157,22418,2,0,P|134:172|182:169,1,83.9999974365235,0|2,3:2|0:3,0:0:0:0:
137,285,22805,5,6,3:2:0:0:
261,118,22999,1,2,0:2:0:0:
335,324,23192,1,2,1:2:0:0:
171,171,23386,2,0,P|134:191|93:199,1,83.9999974365235,6|0,3:2|0:0,0:0:0:0:
277,276,23773,1,2,1:2:0:0:
346,76,23966,2,0,P|337:120|338:158,1,83.9999974365235,2|0,1:2|0:0,0:0:0:0:
426,280,24354,102,0,L|300:276,1,125.999996154785,4|0,3:2|0:0,0:0:0:0:
277,276,24741,1,2,1:2:0:0:
420,170,24934,1,2,0:2:0:0:
228,106,25128,2,0,P|228:147|236:189,1,83.9999974365235,2|0,3:2|0:0,0:0:0:0:
307,37,25515,1,2,1:2:0:0:
97,120,25708,6,0,P|61:105|-1:104,1,83.9999974365235,2|0,0:2|3:2,0:0:0:0:
159,219,26096,2,0,P|205:208|249:175,1,83.9999974365235,2|0,0:2|1:2,0:0:0:0:
74,291,26483,1,2,0:2:0:0:
276,361,26676,2,0,L|276:277,1,83.9999974365235,2|0,3:2|0:0,0:0:0:0:
170,318,27063,1,2,1:2:0:0:
379,257,27257,1,0,0:0:0:0:
379,257,27354,1,0,0:0:0:0:
379,257,27450,101,4,3:2:0:0:
184,187,27644,1,2,0:2:0:0:
276,361,27837,1,2,1:2:0:0:
327,133,28031,1,2,0:2:0:0:
145,268,28225,2,0,P|151:311|176:357,1,83.9999974365235,2|0,3:2|0:0,0:0:0:0:
276,267,28612,1,2,1:2:0:0:
87,187,28805,1,2,0:2:0:0:
296,66,28999,6,0,P|305:140|296:194,1,125.999996154785,6|0,3:2|0:0,0:0:0:0:
340,160,29386,2,0,L|382:160,1,41.9999987182618,2|0,1:2|0:0,0:0:0:0:
342,286,29579,2,0,P|262:267|219:278,1,105.000004005432,4|0,3:2|3:2,0:0:0:0:
473,188,29966,1,2,1:2:0:0:
296,351,30160,1,2,1:2:0:0:
274,336,30256,1,0,1:2:0:0:
256,317,30353,1,8,0:3:0:0:
244,293,30450,1,4,0:3:0:0:
240,270,30547,102,0,P|241:203|284:149,1,125.999996154785,4|0,3:2|0:0,0:0:0:0:
298,141,30934,1,2,1:2:0:0:
381,271,31128,1,2,0:2:0:0:
161,207,31321,2,0,P|112:208|26:254,1,125.999996154785,0|0,3:2|0:0,0:0:0:0:
66,194,31708,2,0,P|88:130|91:89,1,83.9999974365235,2|2,1:2|0:2,0:0:0:0:
95,88,31999,1,2,0:2:0:0:
95,88,32096,5,2,3:2:0:0:
347,127,32289,1,2,0:2:0:0:
114,93,32483,1,2,1:2:0:0:
267,224,32676,1,2,0:2:0:0:
203,30,32870,1,2,3:2:0:0:
126,187,33063,2,0,P|185:175|232:148,1,83.9999974365235,2|0,0:2|1:2,0:0:0:0:
98,313,33450,1,2,0:2:0:0:
380,262,33644,102,0,P|299:221|236:235,1,125.999996154785,6|0,3:2|0:0,0:0:0:0:
241,232,34031,1,6,1:2:0:0:
301,371,34225,1,2,0:2:0:0:
358,157,34418,2,0,P|392:112|468:86,1,125.999996154785,0|0,3:2|0:0,0:0:0:0:
450,128,34805,2,0,P|462:172|456:218,1,83.9999974365235,2|2,1:2|0:2,0:0:0:0:
448,232,35096,1,0,0:0:0:0:
448,232,35192,5,2,3:2:0:0:
241,161,35386,1,0,0:0:0:0:
455,86,35579,1,2,1:2:0:0:
326,237,35773,2,0,P|324:282|342:345,1,83.9999974365235,2|0,0:2|3:2,0:0:0:0:
142,205,36160,1,2,1:2:0:0:
142,205,36257,1,0,0:0:0:0:
142,205,36354,1,2,1:2:0:0:
354,142,36547,1,8,0:3:0:0:
230,337,36741,101,4,1:2:0:0:
197,111,36934,1,0,0:0:0:0:
405,232,37128,1,4,1:2:0:0:
142,205,37321,1,0,0:0:0:0:
345,59,37515,2,0,P|355:110|352:153,1,83.9999974365235,4|2,1:2|0:2,0:0:0:0:
219,41,37902,1,6,1:2:0:0:
446,80,38096,1,2,0:2:0:0:
228,223,38289,5,4,1:2:0:0:
310,0,38483,1,0,0:0:0:0:
379,252,38676,1,6,1:2:0:0:
312,23,38870,1,2,0:2:0:0:
187,212,39063,101,0,1:2:0:0:
208,217,39160,1,0,1:2:0:0:
228,223,39257,1,8,0:3:0:0:
359,354,39450,1,4,0:3:0:0:
338,359,39547,1,4,0:3:0:0:
318,365,39644,1,4,0:3:0:0:
465,276,39837,6,0,B|481:220|449:164|385:164|385:164|329:188|321:248|353:284|353:284|385:272|394:239,1,350,6|0,1:2|0:0,0:0:0:0:
292,140,40999,2,0,L|224:126,1,52.5000020027161
103,57,41386,102,0,P|119:97|111:165,1,105.000004005432,2|2,0:2|0:2,0:0:0:0:
68,220,41966,1,0,0:0:0:0:
136,268,42160,2,0,P|168:260|204:276,1,52.5000020027161,2|0,0:2|0:0,0:0:0:0:
256,304,42547,1,2,0:2:0:0:
376,220,42741,6,0,P|336:240|272:216,1,105.000004005432,2|2,0:2|0:2,0:0:0:0:
325,125,43515,1,2,0:2:0:0:
376,220,43708,1,2,0:2:0:0:
376,220,44096,2,0,L|376:292,1,52.5000020027161,2|0,0:2|0:0,0:0:0:0:
428,336,44483,102,0,P|388:316|324:336,1,105.000004005432,2|2,0:2|0:2,0:0:0:0:
260,372,45063,1,0,0:0:0:0:
200,320,45257,2,0,P|168:328|132:316,1,52.5000020027161,2|0,0:2|0:0,0:0:0:0:
80,280,45644,1,2,0:2:0:0:
29,195,45837,6,0,P|78:180|138:199,1,105.000004005432,2|2,0:2|0:2,0:0:0:0:
284,226,46612,1,2,0:2:0:0:
364,194,46805,1,2,0:2:0:0:
292,132,46999,102,0,P|324:196|332:128,1,175,0|0,3:0|0:0,0:0:0:0:
232,88,47579,6,0,B|164:128|148:68|88:96,1,140,6|0,3:2|0:0,0:0:0:0:
120,168,48160,1,2,0:2:0:0:
147,285,48354,102,0,P|181:216|104:170,1,167.999994873047,6|0,3:2|0:0,0:0:0:0:
254,177,48934,2,0,P|308:205|346:208,1,83.9999974365235,6|0,3:2|0:0,0:0:0:0:
248,293,49321,1,2,0:2:0:0:
330,96,49515,1,2,0:2:0:0:
334,323,49708,2,0,P|298:361|257:380,1,83.9999974365235,6|0,3:2|0:0,0:0:0:0:
419,332,50096,1,2,1:2:0:0:
248,293,50289,1,2,1:2:0:0:
460,181,50483,1,8,0:3:0:0:
460,181,50579,1,8,0:3:0:0:
460,181,50676,6,0,B|468:221|468:221|456:281,1,83.9999974365235,6|0,3:2|0:0,0:0:0:0:
377,100,51063,1,2,1:2:0:0:
334,323,51257,2,0,B|326:283|326:283|338:223,1,83.9999974365235,6|0,3:2|0:0,0:0:0:0:
213,360,51644,1,6,3:2:0:0:
411,282,51837,1,2,1:2:0:0:
193,231,52031,1,2,1:2:0:0:
193,231,52128,1,0,1:2:0:0:
193,231,52225,102,0,P|150:237|97:270,1,83.9999974365235,2|2,3:2|3:2,0:0:0:0:
375,149,52612,1,2,1:2:0:0:
284,321,52805,1,2,0:2:0:0:
216,104,52999,1,0,1:2:0:0:
183,77,53096,1,0,1:2:0:0:
143,68,53192,1,2,1:2:0:0:
102,76,53289,1,0,1:2:0:0:
64,100,53386,2,0,P|44:120|32:144,1,41.9999987182618,2|0,1:2|1:2,0:0:0:0:
79,240,53579,2,0,P|86:223|88:200,1,41.9999987182618,2|0,1:2|1:2,0:0:0:0:
121,338,53773,6,0,B|166:305|166:305|306:333,1,181.999991668702,6|0,3:2|1:2,0:0:0:0:
225,234,54354,1,2,3:2:0:0:
88,199,54547,1,2,3:2:0:0:
121,338,54741,1,0,0:0:0:0:
188,104,54934,1,2,1:2:0:0:
344,152,55128,102,0,L|252:152,1,90.9999958343508,2|0,3:2|0:0,0:0:0:0:
439,133,55515,2,0,P|441:169|412:226,2,90.9999958343508,2|0|0,3:2|1:2|0:0,0:0:0:0:
292,72,56096,1,0,3:2:0:0:
342,282,56289,2,0,P|382:306|433:313,1,90.9999958343508,2|2,3:2|1:2,0:0:0:0:
277,154,56676,1,2,0:2:0:0:
259,337,56870,6,0,B|217:366|217:366|77:331,1,181.999991668702,6|0,3:2|1:2,0:0:0:0:
126,172,57450,1,2,3:2:0:0:
1,310,57644,1,2,3:2:0:0:
160,351,57837,1,0,0:0:0:0:
42,205,58031,1,2,1:2:0:0:
277,154,58225,102,0,L|277:245,1,90.9999958343508,2|0,3:2|0:0,0:0:0:0:
281,61,58612,2,0,P|225:75|193:110,2,90.9999958343508,2|0|0,3:2|1:2|0:0,0:0:0:0:
398,173,59192,2,0,P|445:193|490:191,1,90.9999958343508,0|2,3:2|3:2,0:0:0:0:
319,278,59579,2,0,P|273:295|226:292,1,90.9999958343508,2|2,1:2|1:2,0:0:0:0:
210,280,59870,1,0,1:2:0:0:
210,280,59966,6,0,B|216:248|216:248|206:173,1,90.9999958343508,6|0,3:2|0:0,0:0:0:0:
115,310,60354,1,0,1:2:0:0:
298,204,60547,1,2,3:2:0:0:
56,189,60741,2,0,L|68:93,1,90.9999958343508,2|0,3:2|0:0,0:0:0:0:
115,310,61128,1,2,1:2:0:0:
166,179,61321,102,0,P|220:193|313:151,1,136.499993751526,6|0,3:2|0:0,0:0:0:0:
315,141,61708,1,0,3:2:0:0:
226,280,61902,1,0,1:2:0:0:
123,77,62096,2,0,P|82:112|56:198,1,136.499993751526,6|0,0:2|0:0,0:0:0:0:
63,218,62483,1,2,3:2:0:0:
170,337,62676,1,2,1:2:0:0:
227,107,62870,6,0,P|222:55|209:19,1,90.9999958343508,2|4,0:2|3:2,0:0:0:0:
353,233,63257,1,2,0:2:0:0:
157,180,63450,1,2,1:2:0:0:
360,109,63644,2,0,P|396:124|464:130,1,90.9999958343508,2|0,3:2|0:0,0:0:0:0:
262,192,64031,1,2,3:2:0:0:
208,18,64225,2,0,P|157:43|115:80,1,90.9999958343508,2|2,1:2|3:2,0:0:0:0:
72,265,64612,101,4,1:2:0:0:
130,64,64805,1,0,0:0:0:0:
199,295,64999,1,0,1:2:0:0:
199,295,65096,1,0,0:0:0:0:
199,295,65192,1,0,0:0:0:0:
274,116,65386,1,0,1:2:0:0:
91,144,65579,1,2,0:2:0:0:
320,257,65773,2,0,P|336:308|333:370,1,90.9999958343508,2|2,1:2|3:2,0:0:0:0:
223,46,66160,5,4,3:2:0:0:
170,271,66354,1,8,0:3:0:0:
295,149,66547,1,0,3:2:0:0:
295,149,66644,1,0,0:0:0:0:
295,149,66741,1,8,0:3:0:0:
65,218,66934,101,0,3:2:0:0:
256,277,67128,1,8,0:3:0:0:
30,302,67321,1,0,3:2:0:0:
192,168,67515,1,8,0:3:0:0:
192,168,67612,1,8,0:3:0:0:
192,168,67708,6,0,P|245:173|296:198,1,90.9999958343508,0|8,3:2|0:3,0:0:0:0:
122,259,68096,1,0,3:2:0:0:
243,94,68289,1,8,0:3:0:0:
243,94,68386,1,0,0:0:0:0:
243,94,68483,2,0,P|249:38|233:-11,2,90.9999958343508,0|8|0,3:2|0:3|3:2,0:0:0:0:
353,192,69063,1,8,0:3:0:0:
140,151,69257,101,0,3:2:0:0:
362,103,69450,1,8,0:3:0:0:
289,320,69644,1,0,3:2:0:0:
243,94,69837,1,8,0:3:0:0:
440,291,70031,1,0,3:2:0:0:
205,250,70225,1,8,0:3:0:0:
470,125,70418,1,0,3:2:0:0:
164,70,70612,1,8,0:3:0:0:
164,70,70708,1,8,0:3:0:0:
164,70,70805,5,4,1:3:0:0:
289,320,70999,1,4,1:3:0:0:
428,59,71192,1,4,1:3:0:0:
159,191,71386,1,4,1:3:0:0:
440,240,71579,101,4,1:3:0:0:
417,240,71676,1,0,1:0:0:0:
394,240,71773,1,0,1:0:0:0:
371,240,71870,1,0,1:0:0:0:
348,240,71966,2,0,L|292:240,1,45.4999979171754,4|8,1:3|0:3,0:0:0:0:
220,128,72160,2,0,L|284:128,1,45.4999979171754,4|4,0:3|0:3,0:0:0:0:
332,80,72354,6,0,P|348:120|328:180,1,83.9999974365235,6|2,3:2|0:2,0:0:0:0:
124,152,72741,1,2,1:2:0:0:
248,229,72934,1,2,0:2:0:0:
92,364,73128,2,0,B|71:331|71:331|54:189,1,167.999994873047,2|2,3:2|1:2,0:0:0:0:
220,128,73708,102,0,P|169:158|86:72,1,167.999994873047,6|2,3:2|3:2,0:0:0:0:
248,229,74289,1,2,1:2:0:0:
284,51,74483,2,0,P|324:63|366:94,1,83.9999974365235,6|0,3:2|0:0,0:0:0:0:
124,152,74870,1,2,3:2:0:0:
350,200,75063,1,2,1:2:0:0:
174,270,75257,1,2,0:2:0:0:
287,324,75450,6,0,P|277:284|283:240,1,83.9999974365235,6|2,3:2|0:2,0:0:0:0:
473,179,75837,1,2,1:2:0:0:
359,272,76031,1,2,0:2:0:0:
372,101,76225,1,2,3:2:0:0:
512,279,76418,1,0,3:2:0:0:
291,226,76612,1,2,1:2:0:0:
411,332,76805,102,0,P|431:295|434:254,1,83.9999974365235,6|0,3:2|0:0,0:0:0:0:
372,101,77192,1,2,3:2:0:0:
291,226,77386,1,2,1:2:0:0:
201,31,77579,2,0,B|192:68|216:100|216:100|244:140|224:192,1,167.999994873047,6|2,3:2|3:2,0:0:0:0:
152,152,78160,2,0,L|111:147,1,41.9999987182618,2|0,1:2|1:2,0:0:0:0:
88,244,78354,2,0,L|131:249,1,41.9999987182618,8|4,0:3|0:3,0:0:0:0:
298,297,78547,6,0,P|292:255|304:216,1,83.9999974365235,6|2,3:2|0:2,0:0:0:0:
491,279,78934,1,2,1:2:0:0:
376,260,79128,1,2,0:2:0:0:
488,108,79321,2,0,B|440:140|440:140|312:112,1,167.999994873047,2|2,3:2|1:2,0:0:0:0:
162,132,79902,102,0,P|229:89|218:11,1,167.999994873047,6|2,3:2|3:2,0:0:0:0:
227,211,80483,1,2,1:2:0:0:
56,65,80676,2,0,B|84:121|84:121|87:226,1,167.999994873047,6|2,3:2|3:2,0:0:0:0:
158,61,81257,1,2,1:2:0:0:
87,226,81450,1,2,0:2:0:0:
260,74,81644,5,6,3:2:0:0:
82,135,81837,1,2,0:2:0:0:
294,217,82031,2,0,L|305:311,1,83.9999974365235,2|2,1:2|0:2,0:0:0:0:
442,127,82418,2,0,P|398:147|350:123,1,83.9999974365235,2|0,3:2|3:2,0:0:0:0:
498,246,82805,1,2,1:2:0:0:
256,221,82999,102,0,P|292:149|248:65,1,167.999994873047,6|2,3:2|3:2,0:0:0:0:
207,147,83579,1,0,1:2:0:0:
72,147,83773,2,0,B|107:167|143:147|143:147|184:127|233:161,1,140,6|6,3:2|3:2,0:0:0:0:
256,221,84354,1,2,1:2:0:0:
304,54,84546,1,4,3:2:0:0:
111,174,95282,22,0,P|168:193|257:166,1,140,2|0,3:2|1:2,0:2:0:0:
294,71,95837,1,2,0:2:0:0:
356,168,96022,2,0,L|353:270,1,70,2|0,3:2|0:2,0:2:0:0:
436,115,96393,1,2,1:2:0:0:
257,162,96578,1,2,0:2:0:0:
408,316,96763,6,0,P|430:272|427:230,1,70,0|0,3:2|0:2,0:2:0:0:
235,279,97133,2,0,P|242:322|266:347,1,70,0|0,1:2|0:2,0:2:0:0:
331,272,97504,1,0,3:2:0:0:
155,273,97689,1,0,0:2:0:0:
272,178,97874,1,0,1:2:0:0:
133,157,98059,1,2,0:2:0:0:
296,78,98244,102,0,L|304:174,1,83.9999974365235,2|0,3:2|0:0,0:0:0:0:
394,61,98615,1,0,1:2:0:0:
212,124,98800,1,2,0:2:0:0:
407,176,98985,2,0,P|455:192|499:180,1,83.9999974365235,2|0,3:2|0:0,0:0:0:0:
321,248,99356,2,0,P|273:236|229:248,1,83.9999974365235,2|2,1:2|0:2,0:0:0:0:
252,43,99726,5,0,3:2:0:0:
302,163,99911,1,0,0:0:0:0:
381,5,100096,2,0,L|369:101,1,83.9999974365235,0|0,1:2|0:0,0:0:0:0:
203,157,100467,1,0,3:2:0:0:
361,223,100652,1,0,0:0:0:0:
131,275,100837,2,0,L|123:191,1,83.9999974365235,0|0,1:2|0:0,0:0:0:0:
69,73,101207,102,0,P|113:89|169:69,1,83.9999974365235,2|2,3:2|0:2,0:0:0:0:
241,248,101578,1,2,1:2:0:0:
364,196,101763,2,0,B|329:210|288:176|288:176|249:150|206:167,1,167.999994873047,2|0,0:2|0:0,0:0:0:0:
51,152,102319,1,2,1:2:0:0:
115,274,102504,1,2,0:2:0:0:
206,82,102689,6,0,L|206:182,1,83.9999974365235,0|0,3:2|0:0,0:0:0:0:
440,148,103059,2,0,P|384:84|320:92,1,125.999996154785,2|0,1:2|0:0,0:0:0:0:
360,160,103430,2,0,P|321:182|296:248,1,83.9999974365235,2|0,3:2|0:0,0:0:0:0:
317,295,103707,2,0,P|347:321|409:319,1,83.9999974365235,2|0,0:2|0:0,0:0:0:0:
379,240,103985,1,2,0:2:0:0:
206,82,104170,102,0,P|172:160|216:244,1,167.999994873047,6|0,3:2|0:0,0:0:0:0:
270,156,104726,1,2,3:2:0:0:
202,232,104911,2,0,L|202:340,2,83.9999974365235,2|0|2,3:2|0:0|1:2,0:0:0:0:
55,135,105467,6,0,P|115:163|179:131,1,125.999996154785,6|0,3:2|0:0,0:0:0:0:
168,19,105837,102,0,P|144:71|176:151,1,136.499993751526,6|0,3:2|0:0,0:0:0:0:
240,80,106207,1,6,3:2:0:0:
334,89,106393,6,0,B|302:107|302:107|237:78,1,105.000004005432,2|0,0:2|3:2,0:0:0:0:
260,197,106763,102,0,L|237:63,1,119.000002269745,2|0,1:2|0:0,0:0:0:0:
420,232,107133,6,0,P|376:208|448:168,1,167.999994873047,6|0,3:2|0:0,0:0:0:0:
304,288,107689,1,2,3:2:0:0:
238,79,107874,1,2,3:2:0:0:
167,223,108059,1,8,0:2:0:0:
167,223,108152,1,0,0:0:0:0:
167,223,108244,2,0,L|259:223,1,83.9999974365235,2|2,1:2|0:2,0:0:0:0:
459,291,108615,102,0,P|363:263|295:295,1,167.999994873047,2|2,3:2|0:2,0:0:0:0:
180,320,109170,1,0,3:2:0:0:
219,183,109356,1,2,3:2:0:0:
352,352,109541,1,2,1:1:0:0:
296,100,109726,2,0,L|296:228,1,105.000004005432,2|0,1:1|0:0,0:0:0:0:
64,180,110096,6,0,P|160:208|228:176,1,167.999994873047,2|0,3:2|0:0,0:0:0:0:
348,27,110651,1,2,3:2:0:0:
296,205,110837,1,2,3:2:0:0:
237,61,111022,1,8,0:2:0:0:
237,61,111115,1,0,0:0:0:0:
237,61,111207,2,0,L|321:61,1,83.9999974365235,2|2,1:2|0:2,0:0:0:0:
496,192,111578,102,0,B|448:252|376:207|376:207|376:160|420:136,1,209.999993591309,2|0,3:2|0:0,0:0:0:0:
435,132,112133,1,2,3:2:0:0:
348,289,112319,1,2,3:1:0:0:
212,100,112504,1,2,1:1:0:0:
236,312,112689,1,2,1:1:0:0:
268,168,112874,1,2,1:1:0:0:
68,252,113059,6,0,P|60:300|72:348,1,83.9999974365235,6|0,3:2|0:0,0:0:0:0:
116,144,113430,1,0,1:2:0:0:
116,144,113615,1,2,0:2:0:0:
164,282,113800,2,0,P|189:244|192:190,1,83.9999974365235,2|0,3:2|0:0,0:0:0:0:
320,284,114170,1,2,1:2:0:0:
268,168,114356,1,2,0:2:0:0:
272,348,114541,102,0,P|320:364|372:352,1,83.9999974365235,2|0,3:2|0:0,0:0:0:0:
480,280,114911,2,0,P|432:264|380:276,1,83.9999974365235,2|0,1:2|0:0,0:0:0:0:
335,113,115281,2,0,P|349:154|351:199,1,83.9999974365235,2|0,3:2|0:0,0:0:0:0:
274,53,115652,1,2,1:2:0:0:
443,130,115837,1,2,0:2:0:0:
215,217,116022,6,0,P|207:189|212:122,1,83.9999974365235,4|0,3:2|0:0,0:0:0:0:
80,221,116393,1,4,1:3:0:0:
244,308,116578,2,0,P|203:313|165:298,1,83.9999974365235,0|4,0:0|3:3,0:0:0:0:
331,220,116948,2,0,P|375:244|407:288,1,83.9999974365235,8|4,0:3|1:3,0:0:0:0:
281,373,117319,1,8,0:3:0:0:
248,184,117504,101,4,3:3:0:0:
164,376,117689,1,0,0:0:0:0:
92,192,117874,1,4,1:3:0:0:
299,285,118059,1,8,0:3:0:0:
168,88,118244,2,0,P|160:132|172:184,1,83.9999974365235,4|8,3:3|0:3,0:0:0:0:
287,363,118615,1,4,1:3:0:0:
248,184,118800,1,8,0:3:0:0:
121,312,118985,6,0,B|102:278|102:278|89:168,1,125.999996154785,4|0,3:2|0:0,0:0:0:0:
84,117,119356,1,0,1:0:0:0:
114,123,119448,1,0,1:0:0:0:
145,130,119541,1,0,1:0:0:0:
176,136,119633,1,0,1:0:0:0:
208,144,119726,2,0,B|244:152|244:152|304:148|304:148|340:160,1,125.999996154785,4|0,3:2|0:0,0:0:0:0:
352,189,120096,102,0,P|337:229|334:250,1,41.9999987182618,8|8,0:3|0:3,0:0:0:0:
444,308,120281,2,0,P|424:270|408:255,1,41.9999987182618,8|8,0:3|0:3,0:0:0:0:
262,252,120467,6,0,P|218:296|302:300,1,167.999994873047,4|4,3:2|0:3,0:0:0:0:
316,310,120930,1,4,0:3:0:0:
316,310,121022,1,4,0:3:0:0:
160,143,121207,2,0,P|176:191|160:235,1,83.9999974365235,4|2,3:2|1:1,0:0:0:0:
148,243,121485,1,0,1:0:0:0:
116,251,121577,1,0,1:0:0:0:
84,240,121670,1,0,1:0:0:0:
65,213,121762,1,0,1:0:0:0:
65,180,121855,1,0,1:0:0:0:
84,153,121948,102,0,P|32:167|-8:147,1,90.9999958343508,6|0,3:2|0:0,0:0:0:0:
208,48,122319,2,0,P|260:34|300:54,1,90.9999958343508,2|0,1:2|0:0,0:0:0:0:
328,279,122689,1,0,3:2:0:0:
252,116,122874,1,2,0:2:0:0:
212,228,123059,1,2,1:2:0:0:
459,148,123244,6,0,P|404:136|348:164,1,90.9999958343508,2|0,0:2|3:2,0:0:0:0:
366,304,123615,2,0,P|406:255|412:204,2,90.9999958343508,2|2|0,0:2|1:2|0:0,0:0:0:0:
183,305,124170,1,2,3:2:0:0:
321,224,124356,1,0,0:0:0:0:
133,212,124541,2,0,B|121:220|121:220|121:236|121:236|121:208|80:188|104:117,1,136.499993751526,2|0,1:2|0:0,0:0:0:0:
79,64,124911,102,0,P|112:93|165:104,1,90.9999958343508,6|0,3:2|0:0,0:0:0:0:
317,158,125281,2,0,P|282:177|220:189,1,90.9999958343508,2|0,1:2|0:0,0:0:0:0:
228,215,125559,1,2,0:2:0:0:
228,215,125652,2,0,P|256:259|252:315,2,90.9999958343508,2|2|2,3:2|0:2|1:2,0:0:0:0:
105,164,126207,6,0,P|111:105|149:64,1,90.9999958343508,2|2,1:0|0:1,0:0:0:0:
108,264,126578,1,2,0:1:0:0:
284,132,126763,2,0,P|232:144|184:144,1,90.9999958343508,2|2,1:1|0:1,0:0:0:0:
320,228,127133,1,0,3:2:0:0:
380,56,127319,2,0,P|400:96|406:154,1,90.9999958343508,2|0,0:1|1:2,0:0:0:0:
240,220,127689,1,0,1:2:0:0:
240,220,127781,1,0,1:2:0:0:
240,220,127874,101,4,3:2:0:0:
396,264,128059,2,0,P|444:252|492:272,2,90.9999958343508,2|2|2,0:2|1:2|0:2,0:0:0:0:
153,190,128615,2,0,P|155:236|169:290,1,90.9999958343508,2|0,3:2|0:0,0:0:0:0:
240,220,128893,2,0,P|256:175|260:120,1,90.9999958343508,2|0,0:2|0:0,0:0:0:0:
336,189,129170,6,0,P|371:171|451:164,1,90.9999958343508,2|0,0:2|3:2,0:0:0:0:
153,190,129541,2,0,P|105:202|57:182,2,90.9999958343508,2|2|2,0:2|1:2|0:2,0:0:0:0:
356,262,130096,2,0,P|354:307|341:351,1,90.9999958343508,2|0,3:2|0:0,0:0:0:0:
268,278,130374,2,0,P|253:234|250:188,1,90.9999958343508,2|0,0:2|0:0,0:0:0:0:
153,190,130651,102,0,P|165:150|156:96,1,90.9999958343508,2|4,0:2|3:2,0:0:0:0:
440,252,131022,2,0,L|440:156,2,90.9999958343508,2|2|2,0:2|1:2|0:2,0:0:0:0:
352,124,131578,1,2,3:2:0:0:
309,317,131763,1,2,0:2:0:0:
217,192,131948,1,2,1:2:0:0:
360,217,132133,1,2,0:2:0:0:
292,57,132319,6,0,B|260:85|260:85|160:53,1,136.499993751526,2|0,3:1|0:0,0:0:0:0:
136,70,132689,2,0,L|152:174,1,90.9999958343508,2|0,1:1|0:0,0:0:0:0:
28,268,133059,1,2,3:1:0:0:
179,232,133244,1,0,1:1:0:0:
44,376,133430,1,0,1:1:0:0:
94,164,133615,1,4,0:3:0:0:
184,327,133800,102,0,P|235:317|276:327,1,84,4|0,0:3|0:0,0:0:0:0:
305,383,134170,6,0,P|312:331|359:296,1,105.000004005432,6|0,1:2|0:0,0:0:0:0:
163,199,134541,1,0,3:2:0:0:
344,165,134726,1,2,0:2:0:0:
270,265,134911,1,2,1:2:0:0:
376,84,135096,102,0,P|312:84|268:128,1,90.9999958343508,2|0,0:2|3:2,0:0:0:0:
163,199,135467,2,0,P|135:143|135:91,2,90.9999958343508,2|2|0,0:2|1:2|0:0,0:0:0:0:
368,237,136022,2,0,L|368:328,1,90.9999958343508,2|0,3:2|0:0,0:0:0:0:
411,171,136393,1,2,1:2:0:0:
368,328,136578,1,2,0:2:0:0:
240,176,136763,6,0,B|285:201|325:169|325:169|365:145|412:172,1,181.999991668702,6|2,3:2|1:2,0:0:0:0:
272,88,137319,1,2,0:2:0:0:
160,244,137504,2,0,P|136:196|164:108,2,136.499993751526,2|2|2,3:2|0:2|0:2,0:0:0:0:
392,256,138244,102,0,B|350:285|350:285|244:278,1,136.499993751526,2|2,3:2|0:2,0:0:0:0:
236,212,138615,2,0,P|240:260|227:315,1,90.9999958343508,0|2,1:2|0:2,0:0:0:0:
60,244,138985,2,0,P|116:232|168:264,1,90.9999958343508,2|0,3:2|0:0,0:0:0:0:
172,108,139356,1,2,1:2:0:0:
231,301,139541,1,0,1:2:0:0:
231,301,139633,1,0,1:2:0:0:
231,301,139726,5,6,3:2:0:0:
280,148,139911,1,0,0:0:0:0:
384,336,140096,2,0,P|344:304|312:256,1,105.000004005432,6|0,1:2|0:0,0:0:0:0:
448,188,140467,1,2,3:2:0:0:
384,336,140652,1,0,0:0:0:0:
280,148,140837,2,0,P|328:172|368:176,1,90.9999958343508,2|0,1:2|0:0,0:0:0:0:
156,268,141207,101,6,3:2:0:0:
208,88,141393,1,0,0:0:0:0:
264,324,141578,2,0,P|272:276|252:220,1,90.9999958343508,2|0,1:2|0:0,0:0:0:0:
120,96,141948,2,0,P|112:144|132:200,1,90.9999958343508,2|0,3:2|0:0,0:0:0:0:
300,116,142319,1,2,1:2:0:0:
300,116,142411,1,8,0:3:0:0:
300,116,142504,1,4,0:3:0:0:
156,16,142689,5,6,3:2:0:0:
392,148,142874,1,0,0:0:0:0:
127,183,143059,1,2,3:2:0:0:
320,24,143244,1,0,1:2:0:0:
320,24,143337,1,0,1:2:0:0:
320,24,143430,101,2,3:2:0:0:
236,312,143615,1,2,1:2:0:0:
168,96,143800,1,2,3:2:0:0:
380,204,143985,2,0,L|324:216,1,45.4999979171754,2|0,1:2|1:2,0:0:0:0:
112,248,144170,1,6,3:2:0:0:
240,36,144356,6,0,L|256:100,1,45.4999979171754,0|0,1:2|1:2,0:0:0:0:
320,320,144541,1,2,3:2:0:0:
48,184,144726,1,0,1:2:0:0:
48,184,144819,1,0,1:2:0:0:
48,184,144911,2,0,P|36:268|80:348,2,136.499993751526,6|8|4,3:2|0:3|0:3,0:0:0:0:
92,32,145652,102,0,L|260:32,1,167.999994873047,6|0,3:2|0:0,0:0:0:0:
300,112,146208,1,2,3:2:0:0:
300,112,146393,2,0,L|216:112,1,83.9999974365235,2|0,3:2|0:0,0:0:0:0:
128,232,146763,1,0,1:0:0:0:
292,272,146948,6,0,L|384:272,1,83.9999974365235,2|0,3:2|0:0,0:0:0:0:
300,192,147319,2,0,L|212:192,1,83.9999974365235,2|0,3:2|0:0,0:0:0:0:
128,352,147689,1,2,3:2:0:0:
128,352,147874,2,0,L|224:352,1,83.9999974365235,2|8,3:2|0:2,0:0:0:0:
280,312,148245,2,0,L|384:312,1,83.9999974365235,0|0,1:0|0:0,0:0:0:0:
480,64,148615,102,0,B|476:160|476:160|504:256,1,167.999994873047,6|0,3:2|0:0,0:0:0:0:
412,216,149170,1,2,3:2:0:0:
412,216,149356,2,0,B|400:172|400:172|400:108,1,83.9999974365235,2|0,3:2|0:0,0:0:0:0:
288,56,149726,1,0,1:0:0:0:
236,208,149911,6,0,B|220:256|220:256|224:320,1,83.9999974365235,6|0,3:2|0:0,0:0:0:0:
312,236,150281,2,0,B|324:203|324:203|324:124,1,83.9999974365235,6|0,3:2|0:0,0:0:0:0:
136,72,150652,1,6,3:2:0:0:
136,72,150837,2,0,B|148:120|148:120|136:184,1,83.9999974365235,2|8,3:2|1:2,0:0:0:0:
68,128,151207,2,0,B|56:176|56:176|68:240,1,83.9999974365235,0|4,1:0|0:3,0:0:0:0:
128,308,151578,102,0,P|176:292|296:292,1,167.999994873047,6|0,3:2|0:0,0:0:0:0:
348,360,152134,1,2,3:2:0:0:
348,360,152319,2,0,P|296:368|244:352,1,83.9999974365235,2|0,3:2|0:0,0:0:0:0:
172,260,152689,1,0,1:0:0:0:
360,208,152874,6,0,P|292:204|256:228,1,83.9999974365235,2|0,3:2|0:0,0:0:0:0:
336,104,153244,2,0,P|388:120|428:112,1,83.9999974365235,2|0,3:2|0:0,0:0:0:0:
460,28,153615,1,2,3:2:0:0:
460,28,153800,2,0,P|408:40|368:32,1,83.9999974365235,2|8,3:2|0:2,0:0:0:0:
300,32,154170,2,0,P|264:24|204:36,1,83.9999974365235,0|0,1:0|0:0,0:0:0:0:
40,128,154541,102,0,L|56:280,1,140,6|0,3:2|0:0,0:0:0:0:
152,324,155096,1,2,3:2:0:0:
152,324,155281,2,0,L|142:233,1,70,2|2,3:2|3:2,0:0:0:0:
135,169,155652,1,0,0:0:0:0:
261,110,155837,6,0,L|233:262,2,140,2|0|0,3:2|3:0|0:0,0:0:0:0:
279,24,156763,1,4,3:2:0:0:
409,135,156948,1,0,1:0:0:0:
409,135,157041,1,0,1:0:0:0:
409,135,157133,2,0,P|394:211|334:223,1,140,0|4,3:0|3:0,0:0:0:0:
240,226,166917,21,8,0:3:0:0:
140,106,167144,1,8,3:3:0:0:
56,298,167372,1,4,1:3:0:0:
154,193,167599,1,4,1:3:0:0:
154,193,167712,1,0,1:3:0:0:
154,193,167826,102,0,L|154:313,2,105,4|2|2,3:2|0:2|0:2,0:0:0:0:
336,314,168735,1,0,3:2:0:0:
236,174,168962,1,2,3:2:0:0:
240,282,169190,1,2,1:2:0:0:
392,218,169417,1,2,0:2:0:0:
236,174,169644,6,0,L|236:64,2,105,2|2|2,3:2|0:2|0:2,0:0:0:0:
308,42,170553,1,2,3:2:0:0:
156,82,170781,1,0,3:2:0:0:
312,174,171008,1,0,1:2:0:0:
92,194,171235,1,2,0:2:0:0:
92,194,171349,1,0,1:2:0:0:
92,194,171462,102,0,P|140:174|208:206,1,105,6|0,3:2|0:0,0:0:0:0:
143,254,171917,1,0,1:2:0:0:
156,82,172144,1,2,0:2:0:0:
360,238,172372,2,0,P|320:254|256:230,1,105,2|0,3:2|0:0,0:0:0:0:
312,174,172826,1,0,1:2:0:0:
220,314,173053,1,2,0:2:0:0:
220,314,173281,6,0,P|284:290|344:314,2,125.999996154785,6|2|2,3:2|0:2|0:2,0:0:0:0:
141,341,174190,2,0,B|126:313|138:279|138:279|156:234|124:186,2,136.499993751526,6|6|6,3:2|0:3|3:2,0:0:0:0:
404,150,175326,102,0,P|358:164|314:147,1,83.9999974365235,4|0,0:3|3:0,0:0:0:0:
232,106,175781,1,8,0:3:0:0:
256,270,176008,1,0,3:0:0:0:
368,246,176235,1,4,0:3:0:0:
332,350,176462,1,0,3:0:0:0:
140,246,176690,6,0,B|192:234|192:234|264:272,1,125.999996154785,4|0,1:2|0:0,0:0:0:0:
204,334,177144,1,8,0:3:0:0:
56,274,177372,1,0,3:0:0:0:
112,342,177599,1,8,0:3:0:0:
28,122,177826,1,0,3:0:0:0:
56,274,178053,1,2,1:3:0:0:
124,82,178281,101,4,1:3:0:0:
124,82,178394,1,0,0:0:0:0:
124,82,178508,1,4,0:3:0:0:
124,82,178622,1,0,0:0:0:0:
124,82,178735,6,0,P|188:106|260:82,1,125.999996154785,6|0,3:2|0:0,0:0:0:0:
320,50,179190,2,0,L|320:186,1,125.999996154785,2|0,1:2|0:0,0:0:0:0:
280,266,179644,2,0,P|324:250|380:262,1,83.9999974365235,2|0,3:2|3:2,0:0:0:0:
420,319,179985,2,0,P|376:335|324:323,1,83.9999974365235,2|0,0:2|0:0,0:0:0:0:
252,347,180326,1,2,0:2:0:0:
157,180,180553,102,0,P|165:228|149:284,1,83.9999974365235,2|0,3:2|0:0,0:0:0:0:
80,210,180894,2,0,P|72:166|88:110,1,83.9999974365235,2|0,0:2|0:0,0:0:0:0:
159,95,181235,1,2,0:2:0:0:
311,121,181462,1,2,3:2:0:0:
157,180,181690,1,2,3:2:0:0:
224,41,181917,1,2,1:2:0:0:
306,248,182144,1,0,0:0:0:0:
119,187,182372,6,0,B|153:172|183:186|183:186|227:203|267:183,1,125.999996154785,2|0,3:2|0:0,0:0:0:0:
155,263,182826,1,2,1:2:0:0:
36,178,183053,1,2,0:2:0:0:
88,350,183281,2,0,P|130:346|180:362,1,83.9999974365235,2|0,3:2|3:2,0:0:0:0:
232,303,183622,2,0,P|275:307|328:287,1,83.9999974365235,2|0,0:2|0:0,0:0:0:0:
370,242,183962,1,2,0:2:0:0:
264,26,184190,102,0,P|262:78|252:114,1,83.9999974365235,2|0,3:2|0:0,0:0:0:0:
180,154,184531,2,0,P|179:199|192:242,1,83.9999974365235,2|0,0:2|0:0,0:0:0:0:
232,303,184872,1,2,0:2:0:0:
156,81,185099,1,2,3:2:0:0:
80,222,185326,1,2,3:3:0:0:
268,186,185553,1,2,1:2:0:0:
125,321,185781,1,2,0:2:0:0:
125,321,185894,1,0,1:2:0:0:
125,321,186008,6,0,P|185:329|255:275,1,125.999996154785,2|0,3:2|0:0,0:0:0:0:
284,234,186462,1,2,1:2:0:0:
156,174,186690,1,2,0:2:0:0:
324,106,186917,2,0,P|376:98|428:126,1,83.9999974365235,2|0,3:2|3:2,0:0:0:0:
365,176,187258,2,0,P|381:208|365:268,1,83.9999974365235,2|0,0:2|0:0,0:0:0:0:
284,178,187599,1,2,0:2:0:0:
88,116,187826,102,0,P|80:156|97:194,1,83.9999974365235,2|0,3:2|0:0,0:0:0:0:
63,270,188167,2,0,P|103:278|141:263,1,83.9999974365235,2|0,0:2|0:0,0:0:0:0:
188,193,188508,1,2,0:2:0:0:
140,350,188735,1,2,3:2:0:0:
143,263,188962,1,0,3:2:0:0:
257,357,189190,1,2,1:2:0:0:
140,350,189417,1,2,0:2:0:0:
308,244,189644,6,0,P|344:261|392:264,1,83.9999974365235,2|0,3:2|0:0,0:0:0:0:
269,173,189985,2,0,P|229:189|185:193,1,83.9999974365235,2|0,0:2|0:0,0:0:0:0:
357,161,190326,1,2,0:2:0:0:
175,269,190553,2,0,P|127:267|91:249,1,83.9999974365235,2|0,3:2|3:2,0:0:0:0:
232,334,190894,2,0,P|272:335|316:314,1,83.9999974365235,2|0,0:2|0:0,0:0:0:0:
257,254,191235,1,2,0:3:0:0:
420,224,191462,102,0,P|443:273|387:381,1,167.999994873047,2|0,3:2|1:2,0:0:0:0:
252,171,192144,1,2,0:2:0:0:
347,292,192372,1,2,3:2:0:0:
228,326,192599,1,2,3:3:0:0:
339,189,192826,1,2,1:2:0:0:
252,242,193053,1,0,1:2:0:0:
252,242,193167,1,0,1:2:0:0:
252,242,193281,6,0,L|252:110,1,125.999996154785,6|0,3:2|0:0,0:0:0:0:
300,54,193735,1,2,1:2:0:0:
339,189,193962,1,2,0:2:0:0:
144,46,194190,2,0,P|188:34|236:50,1,83.9999974365235,2|0,3:2|3:2,0:0:0:0:
63,42,194531,2,0,P|107:54|155:38,1,83.9999974365235,2|0,0:2|0:0,0:0:0:0:
224,42,194872,1,2,0:2:0:0:
340,238,195099,102,0,P|296:250|248:234,1,83.9999974365235,2|0,3:2|0:0,0:0:0:0:
420,241,195440,2,0,P|376:229|328:245,1,83.9999974365235,2|0,0:2|0:0,0:0:0:0:
260,242,195781,1,2,0:2:0:0:
372,330,196008,1,2,3:2:0:0:
232,342,196235,1,2,3:2:0:0:
272,146,196462,1,2,1:2:0:0:
300,298,196690,1,0,0:0:0:0:
150,148,196917,6,0,P|206:132|282:152,1,125.999996154785,2|0,3:2|0:0,0:0:0:0:
264,222,197372,1,2,1:2:0:0:
160,290,197599,1,2,0:2:0:0:
217,101,197826,2,0,P|185:133|133:149,1,83.9999974365235,2|0,3:2|3:2,0:0:0:0:
36,126,198167,2,0,P|68:94|120:78,1,83.9999974365235,2|0,0:2|0:0,0:0:0:0:
149,147,198508,1,2,0:2:0:0:
304,274,198735,102,0,P|300:226|324:174,1,83.9999974365235,2|0,3:2|0:0,0:0:0:0:
400,122,199076,2,0,P|404:162|380:214,1,83.9999974365235,2|0,0:2|0:0,0:0:0:0:
311,192,199417,1,2,0:2:0:0:
356,342,199644,1,2,3:2:0:0:
248,318,199872,1,2,3:3:0:0:
400,226,200099,1,2,1:2:0:0:
204,146,200326,1,2,0:2:0:0:
204,146,200440,1,0,1:2:0:0:
204,146,200553,6,0,P|144:126|76:154,1,125.999996154785,2|0,3:2|0:0,0:0:0:0:
144,207,201008,1,2,1:2:0:0:
96,58,201235,1,2,0:2:0:0:
168,279,201462,2,0,P|187:320|195:367,1,83.9999974365235,2|0,3:2|3:2,0:0:0:0:
293,234,201803,2,0,P|270:284|267:323,1,83.9999974365235,2|0,0:2|0:0,0:0:0:0:
195,358,202144,1,2,0:2:0:0:
304,131,202372,102,0,P|282:87|280:47,1,83.9999974365235,2|0,3:2|0:0,0:0:0:0:
179,162,202712,2,0,P|198:124|203:83,1,83.9999974365235,2|0,0:2|0:0,0:0:0:0:
280,53,203053,1,2,0:2:0:0:
218,231,203281,1,2,3:2:0:0:
396,151,203508,1,0,3:2:0:0:
242,109,203735,2,0,P|209:115|181:111,1,41.9999987182618,2|0,1:2|1:2,1:2:0:0:
108,42,203962,1,2,0:2:0:0:
108,42,204076,1,2,0:2:0:0:
108,42,204190,6,0,P|84:118|108:178,2,136.499993751526,6|2|2,3:2|0:2|0:2,0:0:0:0:
172,110,205099,1,2,3:2:0:0:
20,50,205326,1,0,3:2:0:0:
88,242,205553,1,0,1:2:0:0:
172,110,205781,2,0,P|193:109|216:98,1,45.4999979171754,2|2,0:3|0:2,0:0:0:0:
311,151,206008,102,0,P|328:86|304:23,2,136.499993751526,6|2|2,3:2|0:2|0:2,0:0:0:0:
188,194,206917,1,2,3:2:0:0:
398,237,207144,1,2,3:3:0:0:
163,305,207372,1,2,1:3:0:0:
355,125,207599,1,2,1:3:0:0:
355,125,207712,1,2,0:2:0:0:
355,125,207826,6,0,P|405:127|457:163,1,90.9999958343508,6|0,3:2|0:0,0:0:0:0:
370,206,208167,2,0,P|324:210|281:234,1,90.9999958343508,2|0,0:0|0:0,0:0:0:0:
440,145,208508,1,4,0:3:0:0:
260,150,208735,101,0,3:0:0:0:
418,21,208962,1,4,0:3:0:0:
370,206,209190,1,0,3:0:0:0:
263,38,209417,1,4,0:3:0:0:
263,38,209531,1,4,0:3:0:0:
263,38,209644,6,0,P|249:88|263:134,1,90.9999958343508,2|4,3:0|0:3,0:0:0:0:
220,217,209985,2,0,P|179:171|172:125,1,90.9999958343508,2|0,0:0|0:0,0:0:0:0:
258,124,210326,1,4,0:3:0:0:
88,186,210553,101,0,3:0:0:0:
296,50,210781,1,4,1:3:0:0:
27,101,211008,1,0,1:0:0:0:
272,190,211235,1,0,1:0:0:0:
12,306,211462,6,0,P|68:270|180:322,1,167.999994873047,6|0,1:2|3:0,0:0:0:0:
316,257,212144,2,0,P|272:273|220:249,1,83.9999974365235,4|0,1:3|3:0,0:0:0:0:
272,106,212599,2,0,L|272:202,1,83.9999974365235,4|0,1:3|3:0,0:0:0:0:
152,34,213053,1,4,1:3:0:0:
356,134,213281,101,0,0:0:0:0:
192,178,213508,1,2,0:2:0:0:
364,210,213735,1,2,3:2:0:0:
116,166,213962,1,4,1:3:0:0:
272,106,214190,1,0,3:0:0:0:
156,326,214417,1,4,1:3:0:0:
116,166,214644,1,4,1:3:0:0:
300,306,214872,1,4,1:3:0:0:
300,306,214985,1,2,0:2:0:0:
300,306,215099,6,0,P|344:274|456:314,1,167.999994873047,6|0,1:2|3:0,0:0:0:0:
232,242,215781,2,0,P|180:258|132:234,1,83.9999974365235,4|0,1:3|3:0,0:0:0:0:
188,90,216235,2,0,L|188:182,1,83.9999974365235,4|0,1:3|3:0,0:0:0:0:
300,54,216690,1,4,1:2:0:0:
68,94,216917,101,0,3:0:0:0:
264,154,217144,1,12,0:3:0:0:
108,198,217372,1,2,3:2:0:0:
332,134,217599,1,0,1:0:0:0:
68,38,217826,5,2,3:2:0:0:
68,66,217940,1,0,1:0:0:0:
68,94,218053,1,0,1:0:0:0:
68,122,218167,1,0,1:0:0:0:
68,150,218281,1,2,3:2:0:0:
68,178,218394,1,0,1:2:0:0:
68,206,218508,2,0,L|68:274,1,41.9999987182618,2|0,1:2|1:2,0:0:0:0:
140,326,218735,102,0,P|188:310|240:330,1,90.9999958343508,6|0,3:2|0:0,0:0:0:0:
352,246,219076,2,0,P|304:262|252:242,1,90.9999958343508,2|0,0:2|0:0,0:0:0:0:
196,210,219417,1,2,0:2:0:0:
308,86,219644,2,0,L|308:182,1,90.9999958343508,2|0,3:2|3:2,0:0:0:0:
352,246,220099,1,0,1:2:0:0:
221,81,220326,1,2,0:2:0:0:
221,81,220440,1,0,0:0:0:0:
221,81,220553,6,0,P|264:69|321:97,1,90.9999958343508,2|0,3:2|0:0,0:0:0:0:
160,143,220894,2,0,P|116:159|60:127,1,90.9999958343508,2|0,0:2|0:0,0:0:0:0:
117,77,221235,1,2,0:2:0:0:
163,338,221462,2,0,P|163:282|179:234,1,90.9999958343508,2|0,3:2|3:2,0:0:0:0:
240,170,221803,2,0,P|259:214|267:269,1,90.9999958343508,2|0,0:2|0:0,0:0:0:0:
265,336,222144,1,2,0:2:0:0:
398,177,222372,102,0,P|341:138|233:178,1,181.999991668702,2|0,3:2|1:2,0:0:0:0:
147,209,223053,1,2,0:2:0:0:
186,361,223281,2,0,P|200:312|186:265,1,90.9999958343508,2|0,3:2|3:2,0:0:0:0:
153,123,223622,2,0,P|137:171|153:219,1,90.9999958343508,2|0,0:2|0:0,0:0:0:0:
224,168,223962,1,2,0:2:0:0:
223,49,224190,6,0,P|261:66|319:69,1,90.9999958343508,2|0,3:2|0:0,0:0:0:0:
391,126,224531,2,0,P|343:148|299:150,1,90.9999958343508,2|0,0:2|0:0,0:0:0:0:
224,168,224872,1,2,0:2:0:0:
143,222,225099,2,0,P|219:266|307:214,1,181.999991668702,2|0,3:2|1:2,0:0:0:0:
112,306,225781,1,2,1:2:0:0:
112,306,225894,1,0,1:2:0:0:
112,306,226008,102,0,P|60:295|16:314,1,90.9999958343508,6|0,3:2|0:0,0:0:0:0:
22,217,226349,2,0,P|30:262|22:317,1,90.9999958343508,2|0,0:2|0:0,0:0:0:0:
71,373,226690,1,2,0:2:0:0:
196,190,226917,2,0,P|242:202|292:182,1,90.9999958343508,2|0,3:2|3:2,0:0:0:0:
285,278,227258,2,0,P|276:232|285:178,1,90.9999958343508,2|0,0:2|0:0,0:0:0:0:
236,122,227599,1,2,0:2:0:0:
438,115,227826,6,0,P|456:166|442:215,1,90.9999958343508,2|0,3:2|0:0,0:0:0:0:
362,192,228167,2,0,P|398:206|466:192,1,90.9999958343508,2|0,0:2|0:0,0:0:0:0:
359,112,228508,1,2,0:2:0:0:
265,327,228735,2,0,B|245:271|277:195|277:195|276:229|292:253,1,181.999991668702,2|0,3:2|1:2,0:0:0:0:
365,324,229417,1,2,0:2:0:0:
303,114,229644,102,0,P|303:166|351:106,1,181.999991668702,2|0,3:2|1:2,0:0:0:0:
174,52,230326,1,0,0:0:0:0:
232,196,230553,1,0,3:2:0:0:
303,114,230781,1,2,3:2:0:0:
213,279,231008,1,0,1:2:0:0:
164,77,231235,1,2,0:2:0:0:
164,77,231349,1,0,1:2:0:0:
164,77,231462,6,0,P|145:124|144:165,1,90.9999958343508,6|0,3:2|0:0,0:0:0:0:
43,215,231803,2,0,P|61:166|63:127,1,90.9999958343508,2|0,0:2|0:0,0:0:0:0:
143,163,232144,2,0,P|209:138|283:170,1,136.499993751526,6|0,3:2|0:0,0:0:0:0:
307,88,232599,1,0,1:2:0:0:
337,73,232712,1,0,1:2:0:0:
368,84,232826,1,8,0:3:0:0:
384,113,232940,1,8,0:3:0:0:
376,145,233053,2,0,P|360:165|330:174,1,45.4999979171754,6|4,0:3|0:3,0:0:0:0:
219,227,233281,102,0,P|264:253|323:247,1,90.9999958343508,6|0,3:2|0:0,0:0:0:0:
397,232,233622,2,0,P|376:284|393:341,1,90.9999958343508,2|0,0:2|0:0,0:0:0:0:
458,359,233962,1,2,0:2:0:0:
256,310,234190,1,2,3:2:0:0:
397,232,234417,1,0,3:2:0:0:
191,258,234644,1,0,1:2:0:0:
380,317,234872,1,2,0:2:0:0:
279,99,235099,6,0,P|282:149|267:191,1,90.9999958343508,2|0,3:2|0:0,0:0:0:0:
274,285,235440,2,0,P|233:260|181:260,1,90.9999958343508,2|0,0:2|0:0,0:0:0:0:
114,300,235781,1,2,0:2:0:0:
251,369,236008,2,0,P|272:332|271:277,1,90.9999958343508,2|0,3:2|3:2,0:0:0:0:
269,187,236349,2,0,P|315:213|367:213,1,90.9999958343508,2|0,0:2|0:0,0:0:0:0:
424,168,236690,1,2,0:2:0:0:
217,270,236917,102,0,P|185:222|229:102,1,181.999991668702,2|0,3:2|1:2,0:0:0:0:
310,316,237599,1,2,0:2:0:0:
406,184,237826,2,0,P|347:187|306:168,1,90.9999958343508,2|0,3:2|3:2,0:0:0:0:
238,200,238167,2,0,P|197:230|150:236,1,90.9999958343508,2|0,0:2|0:0,0:0:0:0:
78,209,238508,1,2,0:2:0:0:
280,277,238735,6,0,P|248:239|238:182,1,90.9999958343508,2|0,3:2|0:0,0:0:0:0:
175,141,239076,2,0,P|183:91|167:33,1,90.9999958343508,2|0,0:2|0:0,0:0:0:0:
109,2,239417,1,2,0:2:0:0:
291,69,239644,1,2,3:2:0:0:
175,141,239872,1,0,3:2:0:0:
354,181,240099,1,0,1:2:0:0:
156,226,240326,1,2,1:2:0:0:
156,226,240440,1,0,1:2:0:0:
156,226,240553,101,6,3:2:0:0:
355,305,240781,1,0,0:0:0:0:
136,338,241008,1,4,1:2:0:0:
253,249,241235,1,2,0:2:0:0:
51,294,241462,5,2,3:2:0:0:
247,351,241690,1,0,3:2:0:0:
192,140,241917,1,4,1:2:0:0:
157,263,242144,1,2,0:2:0:0:
200,33,242372,101,2,3:2:0:0:
253,249,242599,1,2,1:3:0:0:
41,172,242826,1,2,1:3:0:0:
278,107,243053,1,2,1:3:0:0:
156,355,243281,5,0,3:2:0:0:
156,332,243394,1,0,1:2:0:0:
157,309,243508,1,0,1:2:0:0:
157,286,243622,1,8,0:3:0:0:
157,263,243735,2,0,L|157:207,1,45.4999979171754,8|8,0:3|0:3,0:0:0:0:
100,106,243962,2,0,L|100:162,1,45.4999979171754,4|4,0:3|0:3,0:0:0:0:
350,150,244190,102,0,P|270:194|198:138,1,167.999994873047,4|0,3:2|1:2,0:0:0:0:
280,106,244872,1,0,3:2:0:0:
384,274,245099,2,0,P|412:306|420:358,2,83.9999974365235,0|0|8,1:2|0:0|0:3,0:0:0:0:
351,281,245780,2,0,B|327:305|303:283|303:283|304:245|338:240|338:240|313:211|331:181|331:181|373:190|379:225|379:225|405:192|439:209|439:209|443:245|408:254,1,377.999988464356,4|0,3:0|0:0,0:0:0:0:
311,368,246917,6,0,L|243:364,1,56,2|0,0:2|3:2,0:2:0:0:
193,273,247371,2,0,L|112:287,1,56,2|0,0:2|0:2,0:2:0:0:
74,345,247826,1,4,0:2:0:0:
34,194,252505,22,0,P|45:248|42:310,1,105.000004005432,6|2,3:2|0:2,0:0:0:0:
44,298,253305,102,0,P|92:318|148:314,1,105,6|0,3:2|0:0,0:0:0:0:
201,268,253705,2,0,P|209:232|201:180,1,70,2|2,0:2|3:2,0:0:0:0:
144,118,254105,2,0,P|188:94|248:102,1,105,8|0,0:2|0:0,0:0:0:0:
299,143,254505,2,0,P|311:179|307:231,1,70,2|2,0:2|0:2,0:0:0:0:
260,342,254905,6,0,B|296:350|296:350|380:330,1,105,0|0,3:2|0:0,0:0:0:0:
400,275,255305,2,0,P|408:327|420:355,1,70,2|0,3:3|0:0,0:0:0:0:
490,179,255705,2,0,P|434:171|386:195,1,83.9999974365235,8|0,0:2|0:0,0:0:0:0:
322,315,256105,102,0,P|337:340|340:399,1,70,2|2,0:2|0:2,0:0:0:0:
268,262,256505,2,0,P|220:245|162:262,1,105,2|0,3:2|0:0,0:0:0:0:
119,310,256905,5,2,0:2:0:0:
119,310,257105,1,2,3:2:0:0:
138,113,257305,2,0,P|93:141|69:192,1,105,8|0,0:2|0:0,0:0:0:0:
74,258,257705,102,0,P|93:291|140:317,1,70,2|2,0:2|0:2,0:0:0:0:
204,354,258105,1,0,3:2:0:0:
292,286,258305,1,0,3:2:0:0:
204,354,258505,2,0,L|220:238,1,105,2|0,0:3|0:0,0:0:0:0:
292,202,258905,2,0,L|292:314,1,83.9999974365235,8|0,0:2|0:0,0:0:0:0:
424,226,259305,6,0,P|455:242|490:245,1,70,2|2,0:2|0:2,0:0:0:0:
362,173,259705,2,0,P|338:113|354:49,1,105,2|0,3:2|0:0,0:0:0:0:
382,14,260105,1,2,0:2:0:0:
382,14,260305,1,2,3:2:0:0:
489,52,260505,2,0,P|465:104|372:129,1,125.999996154785,8|0,0:2|0:0,0:0:0:0:
339,100,260905,102,0,P|367:124|387:166,1,70,2|2,0:2|0:2,0:0:0:0:
262,86,261305,2,0,P|210:110|178:158,1,105,2|0,3:2|0:0,0:0:0:0:
180,221,261705,2,0,P|200:259|238:281,1,70,2|2,3:2|0:2,0:0:0:0:
380,324,262105,2,0,P|356:272|316:244,1,83.9999974365235,8|0,0:2|0:0,0:0:0:0:
336,110,262505,6,0,P|344:146|336:190,1,70,2|2,0:2|0:2,0:0:0:0:
200,213,262905,2,0,P|234:205|268:214,1,70,2|0,3:2|0:0,0:0:0:0:
128,262,263305,1,0,0:0:0:0:
128,262,263505,1,0,3:2:0:0:
56,318,263705,2,0,P|36:266|52:214,1,83.9999974365235,10|0,0:2|0:0,0:0:0:0:
64,94,264105,102,0,P|100:146|116:206,1,105,2|0,0:2|0:0,0:0:0:0:
152,150,264505,2,0,P|196:122|216:90,1,70,2|0,3:2|3:2,0:0:0:0:
276,162,264905,2,0,P|292:110|284:70,1,70,2|2,0:2|0:2,0:0:0:0:
388,134,265305,1,8,0:2:0:0:
472,50,265505,1,8,0:3:0:0:
388,134,265705,6,0,P|376:74|360:50,1,70,4|0,0:3|0:0,0:0:0:0:
308,230,266105,2,0,P|356:250|432:222,1,105,6|0,3:2|0:0,0:0:0:0:
464,195,266505,1,2,0:2:0:0:
464,195,266705,1,2,3:2:0:0:
276,314,266905,2,0,P|232:270|220:210,1,105,8|0,0:2|0:0,0:0:0:0:
224,159,267305,102,0,P|240:119|268:95,1,70,2|2,0:2|0:2,0:0:0:0:
366,72,267705,1,0,3:2:0:0:
466,126,267905,1,0,0:0:0:0:
366,72,268105,2,0,L|394:196,1,105,2|0,3:3|0:0,0:0:0:0:
466,206,268505,2,0,L|466:110,1,83.9999974365235,8|0,0:2|0:0,0:0:0:0:
337,281,268905,6,0,P|388:285|423:277,1,70,2|2,0:2|0:2,0:0:0:0:
232,322,269305,2,0,P|256:254|240:198,1,105,2|0,3:2|0:0,0:0:0:0:
226,156,269705,1,2,0:2:0:0:
226,156,269905,1,2,3:2:0:0:
356,170,270105,2,0,P|332:122|264:78,1,105,8|0,0:2|0:0,0:0:0:0:
220,66,270505,102,0,P|176:78|144:114,1,70,2|2,0:2|0:2,0:0:0:0:
108,178,270905,1,0,3:2:0:0:
174,282,271105,1,0,3:2:0:0:
108,178,271305,2,0,L|224:198,1,105,2|0,0:3|0:0,0:0:0:0:
256,262,271705,2,0,L|144:290,1,83.9999974365235,8|0,0:2|0:0,0:0:0:0:
292,174,272105,6,0,P|336:206|396:214,1,105,2|0,0:2|0:0,0:0:0:0:
364,166,272505,2,0,P|352:122|292:70,1,105,6|0,3:2|0:0,0:0:0:0:
244,58,272905,1,2,0:2:0:0:
244,58,273105,1,10,3:2:0:0:
147,106,273305,2,0,P|135:58|151:10,1,83.9999974365235,8|0,0:2|0:0,0:0:0:0:
220,174,273705,102,0,P|179:182|152:202,1,70,2|2,0:2|0:2,0:0:0:0:
296,194,274105,2,0,P|328:226|336:298,1,105,6|0,3:2|0:0,0:0:0:0:
309,350,274505,1,2,3:2:0:0:
309,350,274705,1,2,0:2:0:0:
268,106,274905,2,0,P|324:110|380:158,1,105,8|0,0:2|0:0,0:0:0:0:
405,196,275305,6,0,P|417:240|413:280,1,70,2|2,0:2|0:2,0:0:0:0:
156,335,275705,2,0,P|204:315|228:259,1,105,6|0,3:2|0:0,0:0:0:0:
231,196,276105,1,0,0:0:0:0:
231,196,276305,1,0,3:2:0:0:
328,223,276505,2,0,P|316:155|252:99,1,140,8|0,0:2|0:0,0:0:0:0:
268,106,277305,102,0,P|220:86|184:94,1,70,2|0,3:2|3:2,0:0:0:0:
100,86,277705,2,0,P|124:42|156:18,1,70,2|0,0:2|0:0,0:0:0:0:
40,182,278105,1,10,0:2:0:0:
152,178,278305,1,8,0:3:0:0:
9,92,278505,1,4,0:3:0:0:
42,288,278705,1,2,0:2:0:0:
152,178,278905,6,0,P|204:158|244:166,1,70,4|2,0:2|0:2,0:0:0:0:
368,197,279305,2,0,P|344:229|312:249,1,70,2|0,0:2|0:0,0:0:0:0:
209,246,279705,2,0,P|213:302|229:326,2,70,8|0|8,1:3|0:0|1:3,0:0:0:0:
209,246,280505,1,4,1:3:0:0:
209,246,280905,101,4,1:3:0:0:
303,45,281105,1,0,1:0:0:0:
348,286,281305,1,4,1:3:0:0:
237,145,281505,1,4,0:3:0:0:
432,222,281705,2,0,P|432:258|426:302,1,70,2|2,0:2|0:2,0:0:0:0:
336,202,282105,6,0,P|352:162|484:142,1,167.999994873047,6|0,3:2|0:0,0:0:0:0:
432,222,282705,1,2,3:2:0:0:
300,330,282905,1,0,1:0:0:0:
260,162,283105,1,2,1:2:0:0:
367,335,283305,102,0,P|311:335|283:319,1,70,6|0,3:2|0:0,0:0:0:0:
192,301,283705,2,0,P|232:265|264:257,1,70,0|8,0:0|0:3,0:0:0:0:
156,373,284105,1,4,0:3:0:0:
156,373,284305,1,4,0:3:0:0:
96,222,284505,2,0,P|108:254|104:298,1,70,0|8,1:3|0:3,0:0:0:0:
124,131,284905,6,0,P|83:128|46:147,1,83.9999974365235,4|4,0:3|0:3,0:0:0:0:
176,198,285305,2,0,P|164:142|176:66,1,125.999996154785,6|0,3:2|0:0,0:0:0:0:
228,22,285705,1,0,1:0:0:0:
324,102,285905,2,0,P|272:118|192:106,1,125.999996154785,2|0,3:2|0:0,0:0:0:0:
132,74,286305,1,2,1:2:0:0:
260,194,286505,2,0,P|332:182|412:126,1,167.999994873047,6|0,3:2|0:0,0:0:0:0:
380,202,287105,102,0,P|388:246|384:290,2,70,2|2|2,1:2|0:3|3:2,0:0:0:0:
332,362,287705,1,4,1:3:0:0:
196,254,287905,1,4,1:3:0:0:
352,178,288105,5,4,1:3:0:0:
296,366,288305,1,4,1:3:0:0:
196,222,288505,2,0,B|228:206|260:218|260:218|292:230|332:206,1,125.999996154785,4|0,3:2|0:0,0:0:0:0:
376,162,288905,1,0,0:0:0:0:
376,162,289105,1,0,3:0:0:0:
452,134,289305,2,0,P|420:94|344:82,1,125.999996154785,0|0,1:0|0:0,0:0:0:0:
276,106,289705,1,0,0:0:0:0:
276,106,289905,1,0,1:0:0:0:
148,238,290105,101,0,3:0:0:0:
196,66,290305,1,0,1:0:0:0:
312,202,290505,2,0,P|316:258|284:330,1,125.999996154785,0|0,3:0|0:0,0:0:0:0:
268,282,290905,2,0,P|204:274|148:302,1,125.999996154785,0|0,1:0|0:0,0:0:0:0:
100,362,291305,1,0,0:0:0:0:
100,362,291505,1,0,0:0:0:0:
196,202,291705,5,0,3:0:0:0:
56,298,291905,1,0,1:0:0:0:
196,370,292105,1,0,0:0:0:0:
196,370,292305,1,0,3:0:0:0:
48,172,292505,102,0,B|44:220|44:220|56:304|56:304,1,125.999996154785,4|0,1:2|0:0,0:0:0:0:
100,366,292905,1,0,0:0:0:0:
160,230,293105,1,0,1:0:0:0:
220,310,293305,5,0,3:0:0:0:
48,246,293505,1,0,1:0:0:0:
208,118,293705,1,0,3:0:0:0:
160,230,293905,1,8,0:3:0:0:
92,142,294105,1,0,1:0:0:0:
132,42,294305,1,4,0:3:0:0:
208,118,294505,102,0,P|236:170|236:218,1,83.9999974365235,4|0,0:3|0:0,0:0:0:0:
300,102,294905,2,0,P|348:62|412:66,1,105,4|0,3:2|0:0,0:0:0:0:
460,86,295305,1,0,0:0:0:0:
460,86,295505,1,0,3:0:0:0:
456,286,295705,2,0,P|392:238|384:198,1,105,0|0,1:0|0:0,0:0:0:0:
372,142,296105,1,0,0:0:0:0:
372,142,296305,1,0,1:0:0:0:
216,210,296505,5,0,3:0:0:0:
308,66,296705,1,0,1:0:0:0:
385,217,296905,1,2,3:3:0:0:
385,217,297105,1,0,0:0:0:0:
320,278,297305,2,0,P|296:234|300:190,1,70,0|0,1:0|0:0,0:0:0:0:
168,286,297705,102,0,P|220:294|252:278,1,70,0|0,0:0|1:0,0:0:0:0:
100,242,298105,1,4,3:2:0:0:
100,242,298305,1,0,1:0:0:0:
96,102,298505,2,0,P|80:134|80:190,1,70,0|0,0:0|3:0,0:0:0:0:
268,166,298905,2,0,L|148:166,1,105,4|0,1:2|0:0,0:0:0:0:
180,122,299305,6,0,P|168:74|136:34,1,70,0|0,0:0|1:0,0:0:0:0:
260,82,299705,1,0,3:0:0:0:
204,246,299905,1,0,1:0:0:0:
388,198,300105,2,0,P|376:246|348:274,1,70,2|0,3:3|0:0,0:0:0:0:
284,318,300505,2,0,P|332:306|400:318,1,105,0|0,1:0|0:0,0:0:0:0:
460,338,300905,1,0,1:0:0:0:
460,338,301105,1,0,1:0:0:0:
284,234,301305,102,0,P|216:266|184:314,1,105,4|0,3:2|0:0,0:0:0:0:
172,362,301705,1,0,0:0:0:0:
172,362,301905,1,0,3:0:0:0:
68,246,302105,2,0,P|116:254|156:250,1,70,0|0,1:0|0:0,0:0:0:0:
72,166,302505,2,0,P|20:182|-12:210,1,70,0|0,0:0|1:0,0:0:0:0:
144,106,302905,5,0,3:0:0:0:
256,154,303105,1,0,1:0:0:0:
144,106,303305,2,0,P|180:58|228:34,1,105,2|0,3:3|0:0,0:0:0:0:
296,34,303705,2,0,P|356:50|412:122,1,140,0|0,1:0|0:0,0:0:0:0:
406,106,304505,101,4,3:2:0:0:
368,198,304705,2,0,P|324:158|344:34,1,181.999991668702,0|0,1:0|3:0,0:0:0:0:
280,114,305305,2,0,P|236:142|220:234,1,136.499993751526,4|0,1:2|0:0,0:0:0:0:
244,294,305705,1,0,0:0:0:0:
244,294,305905,1,0,1:0:0:0:
73,243,306105,5,0,3:0:0:0:
306,204,306305,1,0,1:0:0:0:
73,123,306505,1,0,3:0:0:0:
154,331,306705,1,8,0:3:0:0:
263,38,306905,1,0,1:0:0:0:
153,202,307105,1,4,0:3:0:0:
143,34,307305,1,4,0:3:0:0:
73,123,307505,1,4,0:3:0:0:
47,14,307705,102,0,B|62:46|62:46|58:89|71:122|71:122|55:110|39:110,1,140,4|4,3:2|1:3,0:0:0:0:
204,282,308505,1,4,1:3:0:0:
60,266,308905,1,4,1:3:0:0:
150,140,309305,1,4,1:3:0:0:
213,301,309705,2,0,B|145:289|145:289|61:295,1,140,4|4,1:3|1:3,0:0:0:0:
166,144,310505,1,4,1:0:0:0:
256,192,310905,1,4,3:2:0:0:
347,155,315966,6,0,P|312:154|279:167,2,70,4|0|0,3:2|0:2|0:2,0:2:0:0:
302,278,316402,2,2,P|336:278|369:265,2,70,2|2|2,1:2|0:2|0:2,0:2:0:0:
100,143,316839,2,0,L|177:137,1,70,4|0,3:2|0:2,0:2:0:0:
265,187,317130,1,0,0:2:0:0:
82,238,317276,2,0,L|1:229,1,70,4|0,3:2|0:2,0:2:0:0:
76,345,317567,1,0,3:2:0:0:
198,279,317713,22,0,P|212:226|182:149,1,140,2|2,3:2|3:2,0:0:0:0:
183,150,318295,1,2,3:2:0:0:
183,150,318586,2,0,P|239:190|333:172,1,167.999994873047,2|0,1:2|3:2,0:0:0:0:
265,97,319023,1,2,0:2:0:0:
349,259,319169,2,0,B|336:307|336:307|346:362,1,83.9999974365235,2|0,3:2|0:0,0:0:0:0:
131,283,319460,86,0,L|114:192,1,83.9999974365235,2|0,3:2|0:0,0:0:0:0:
71,108,319752,2,0,B|176:119,1,83.9999974365235,0|0,3:2|0:0,0:0:0:0:
257,133,320043,2,0,B|193:207,1,83.9999974365235,0|0,3:2|0:0,0:0:0:0:
338,82,320333,1,2,1:2:0:0:
457,186,320479,1,0,0:0:0:0:
333,169,320626,1,2,3:2:0:0:
419,110,320770,1,0,1:2:0:0:
421,271,320917,2,0,B|381:248|381:248|343:253,1,83.9999974365235,2|0,3:2|0:0,0:0:0:0:
100,345,321208,22,0,B|76:313|93:228|93:228|98:265|121:280,1,167.999994873047,6|0,3:2|3:2,0:0:0:0:
176,217,321645,1,2,0:2:0:0:
261,230,321790,2,0,P|248:265|200:301,1,83.9999974365235,2|0,3:2|0:0,0:0:0:0:
147,56,322081,2,0,B|133:86|161:137|161:137|188:186|169:241,1,167.999994873047,6|0,1:2|3:2,0:0:0:0:
226,80,322518,1,0,0:0:0:0:
265,150,322664,2,0,P|296:122|311:68,1,83.9999974365235,2|0,3:2|0:0,0:0:0:0:
428,190,322955,86,0,B|449:226|449:226|453:273,1,83.9999974365235,2|0,3:2|1:2,0:0:0:0:
268,321,323247,2,0,B|365:301,1,83.9999974365235,0|2,1:2|0:2,0:0:0:0:
315,210,323538,1,2,1:2:0:0:
248,313,323683,1,2,1:2:0:0:
205,203,323829,1,2,1:2:0:0:
356,311,323975,2,0,L|344:356,2,41.9999987182618,0|0|0,1:2|1:2|3:2,0:0:0:0:
174,343,324266,1,0,1:2:0:0:
174,343,324339,1,0,1:2:0:0:
174,343,324412,2,0,B|142:308|142:308|81:294,1,83.9999974365235,0|4,3:2|0:3,0:0:0:0:
243,29,324703,22,0,B|256:131,1,90.9999958343508,6|0,3:2|0:0,0:0:0:0:
218,224,324994,2,0,P|258:197|304:193,1,90.9999958343508,2|0,3:2|0:0,0:0:0:0:
386,288,325286,2,0,P|342:293|295:271,1,90.9999958343508,2|0,3:2|0:0,0:0:0:0:
87,302,325576,2,0,P|182:294|218:219,1,181.999991668702,2|0,1:2|3:2,0:0:0:0:
123,219,326013,1,2,0:2:0:0:
233,356,326159,2,0,B|276:345|276:345|314:302,1,90.9999958343508,2|0,3:2|0:0,0:0:0:0:
403,145,326451,86,0,L|432:239,1,90.9999958343508,2|0,3:2|0:0,0:0:0:0:
306,310,326742,2,0,B|347:217,1,90.9999958343508,0|0,3:2|0:0,0:0:0:0:
494,304,327033,2,0,B|389:313,1,90.9999958343508,0|0,3:2|0:0,0:0:0:0:
153,280,327324,1,2,1:2:0:0:
298,156,327470,1,0,0:0:0:0:
136,108,327615,1,2,3:2:0:0:
201,193,327761,1,0,1:2:0:0:
65,270,327907,2,0,P|114:265|173:298,1,90.9999958343508,2|8,3:2|0:3,0:0:0:0:
279,272,328198,22,0,P|231:336|115:364,1,181.999991668702,6|0,3:2|3:2,0:0:0:0:
303,189,328635,1,2,0:2:0:0:
199,177,328781,2,0,P|222:131|256:100,1,90.9999958343508,2|8,3:2|0:3,0:0:0:0:
303,189,329072,2,0,P|280:280|326:355,1,181.999991668702,6|0,1:2|3:2,0:0:0:0:
477,180,329508,1,0,0:0:0:0:
378,264,329655,1,2,3:2:0:0:
498,322,329800,1,0,0:0:0:0:
320,180,329946,86,0,L|216:188,1,90.9999958343508,0|0,3:2|1:2,0:0:0:0:
69,239,330237,2,0,B|56:191|56:191|64:140,1,90.9999958343508,2|0,1:2|0:0,0:0:0:0:
166,293,330529,1,2,1:2:0:0:
117,88,330674,1,0,1:2:0:0:
61,325,330820,1,2,1:2:0:0:
117,70,330966,2,0,L|114:21,2,45.4999979171754,0|0|2,1:2|1:2|3:2,0:0:0:0:
238,239,331257,1,0,1:2:0:0:
238,239,331330,1,0,1:2:0:0:
238,239,331402,2,0,P|255:295|237:352,1,90.9999958343508,2|4,3:2|0:3,0:0:0:0:
368,186,331694,21,4,3:2:0:0:
368,186,331985,2,0,B|372:99,1,70,0|0,3:2|0:0,0:0:0:0:
343,270,332276,2,0,P|394:271|421:253,1,70,2|0,3:2|0:0,0:0:0:0:
278,64,332567,1,2,1:2:0:0:
278,64,332859,2,0,L|274:144,1,70,0|0,3:2|0:0,0:0:0:0:
327,193,333150,2,0,P|301:211|257:212,1,70,2|0,3:2|0:0,0:0:0:0:
144,158,333441,86,0,B|156:200|156:200|156:247,1,70,2|0,3:2|0:0,0:0:0:0:
90,333,333732,2,0,B|78:296|78:296|84:242,1,70,0|0,3:2|0:0,0:0:0:0:
242,286,334024,2,0,B|206:303|206:303|162:301,1,70,2|0,3:2|0:0,0:0:0:0:
334,292,334315,2,0,B|323:327|323:327|291:365,1,70,2|0,1:2|0:0,0:0:0:0:
244,265,334606,2,0,B|257:225|257:225|290:193,1,70,0|0,3:2|1:2,0:0:0:0:
403,285,334898,2,0,L|312:294,1,70,8|8,0:3|0:3,0:0:0:0:
263,103,335189,21,6,3:2:0:0:
136,90,335334,1,2,0:2:0:0:
194,209,335480,2,0,P|246:213|279:202,1,70,2|0,3:2|0:0,0:0:0:0:
426,207,335771,1,2,3:2:0:0:
370,120,335917,1,0,0:0:0:0:
333,291,336063,2,0,P|295:288|250:311,1,70,6|0,1:2|0:0,0:0:0:0:
122,340,336353,2,0,P|162:349|201:336,1,70,2|0,3:2|0:0,0:0:0:0:
156,189,336645,2,0,L|156:268,1,70,2|8,3:2|0:3,0:0:0:0:
142,76,336936,85,6,3:2:0:0:
62,209,337081,1,2,1:2:0:0:
236,196,337227,2,0,P|260:148|265:106,1,70,2|0,1:2|0:0,0:0:0:0:
401,256,337518,1,2,1:2:0:0:
256,209,337664,1,0,1:2:0:0:
397,143,337810,2,0,P|440:142|484:166,1,70,6|0,3:2|1:2,0:0:0:0:
484,164,338028,1,0,1:2:0:0:
484,164,338101,1,2,3:2:0:0:
418,333,338246,1,0,1:2:0:0:
418,333,338319,1,0,1:2:0:0:
418,333,338392,2,0,B|386:301|386:301|377:253,1,70,0|8,3:2|0:3,0:0:0:0:
136,98,338683,22,0,L|144:266,1,140,6|0,3:2|3:2,0:0:0:0:
228,278,339121,1,0,0:0:0:0:
156,334,339267,1,0,3:2:0:0:
72,306,339412,1,0,0:0:0:0:
256,190,339558,2,0,P|300:198|324:230,1,70,2|0,1:2|0:0,0:0:0:0:
348,356,339849,2,0,P|346:319|364:284,1,70,2|0,3:2|0:0,0:0:0:0:
469,197,340141,2,0,B|438:225|379:218,1,70,2|0,3:2|0:0,0:0:0:0:
205,288,340432,86,0,P|253:296|293:276,1,70,2|0,3:2|1:2,0:0:0:0:
238,213,340723,1,0,1:2:0:0:
238,213,341013,1,2,1:2:0:0:
107,177,341160,1,0,1:2:0:0:
229,107,341306,2,0,P|289:99|325:115,1,70,10|8,0:3|0:3,0:0:0:0:
346,250,341597,2,0,P|334:210|346:158,1,70,10|8,0:3|0:3,0:0:0:0:
421,52,341888,2,0,B|416:84|382:113,1,70,6|4,0:3|0:3,0:0:0:0:
260,354,342180,21,6,3:2:0:0:
268,270,342325,1,2,0:2:0:0:
232,190,342471,1,2,3:2:0:0:
240,106,342616,1,2,0:2:0:0:
212,30,342762,2,0,L|148:62,1,70,2|2,3:2|0:2,0:0:0:0:
48,130,343053,2,0,B|83:142|83:142|136:134,1,70,6|0,1:2|0:0,0:0:0:0:
14,231,343344,2,0,B|54:227|54:227|98:207,1,70,2|0,3:2|0:0,0:0:0:0:
24,327,343636,2,0,B|60:317|60:317|92:287,1,70,2|0,3:2|0:0,0:0:0:0:
188,338,343927,85,2,3:2:0:0:
272,310,344073,1,0,1:2:0:0:
356,346,344218,1,0,1:2:0:0:
444,310,344364,1,2,0:2:0:0:
476,230,344509,2,0,L|452:146,1,70,2|0,1:2|1:2,0:0:0:0:
304,178,344801,102,0,P|260:195|209:184,1,70,6|0,3:2|0:0,0:0:0:0:
364,109,345092,2,0,P|359:83|378:25,1,70,6|0,3:2|1:0,0:0:0:0:
392,26,345310,1,0,1:0:0:0:
392,26,345383,1,8,0:3:0:0:
256,74,345529,1,4,0:3:0:0:
392,198,345674,38,0,P|376:326|324:358,1,167.999994873047,6|0,3:2|3:2,0:0:0:0:
192,204,346111,1,0,0:0:0:0:
304,255,346257,1,0,3:2:0:0:
202,330,346403,1,0,0:0:0:0:
178,218,346548,2,0,P|130:234|82:214,1,83.9999974365235,2|0,1:2|0:0,0:0:0:0:
154,67,346839,2,0,P|153:118|107:164,1,83.9999974365235,2|0,3:2|0:0,0:0:0:0:
26,158,347131,2,0,P|42:113|96:81,1,83.9999974365235,2|0,3:2|0:0,0:0:0:0:
246,152,347422,86,0,L|267:244,1,83.9999974365235,2|0,3:2|1:2,0:0:0:0:
305,376,347713,1,0,1:2:0:0:
305,376,348005,1,2,1:2:0:0:
352,290,348150,1,0,1:2:0:0:
420,362,348296,2,0,P|436:306|425:270,1,83.9999974365235,6|0,3:2|1:2,0:0:0:0:
352,290,348587,2,0,B|328:266|328:266|260:266,1,83.9999974365235,10|0,0:3|1:2,0:0:0:0:
248,282,348806,1,0,1:2:0:0:
248,282,348878,2,0,L|156:282,1,83.9999974365235,6|0,0:3|0:0,0:0:0:0:
389,80,349170,21,6,3:2:0:0:
389,80,349461,1,2,3:2:0:0:
252,50,349752,1,2,3:2:0:0:
252,50,349898,1,0,0:0:0:0:
252,50,350043,1,6,1:2:0:0:
132,98,350335,1,2,3:2:0:0:
132,98,350626,1,2,3:2:0:0:
348,233,350917,85,6,3:2:0:0:
348,233,351209,1,2,3:2:0:0:
230,295,351500,1,2,3:2:0:0:
230,295,351646,1,0,0:0:0:0:
230,295,351791,1,6,1:2:0:0:
117,255,352082,2,0,L|118:352,1,83.9999974365235,2|0,3:2|1:0,0:0:0:0:
249,219,352374,1,8,0:3:0:0:
384,290,352665,21,6,3:2:0:0:
384,290,352956,1,2,3:2:0:0:
444,174,353246,1,2,3:2:0:0:
444,174,353393,1,0,0:0:0:0:
444,174,353539,1,6,1:2:0:0:
406,56,353830,1,2,3:2:0:0:
406,56,354121,1,2,3:2:0:0:
188,384,354412,85,6,3:2:0:0:
88,299,354558,1,0,1:0:0:0:
88,299,354704,2,0,L|110:172,1,119.000002269745,0|0,1:0|0:0,0:0:0:0:
292,239,354995,1,0,1:0:0:0:
171,282,355140,1,0,1:0:0:0:
253,54,355286,21,6,1:2:0:0:
300,210,355431,1,2,1:2:0:0:
170,112,355576,1,10,0:3:0:0:
334,115,355722,1,2,1:2:0:0:
200,210,355868,1,6,0:3:0:0:
253,54,356013,1,4,0:3:0:0:
252,286,356159,85,6,3:2:0:0:
256,192,356348,12,0,359161,0:0:0:0:
