osu file format v14

[General]
AudioFilename: audio.mp3
AudioLeadIn: 0
PreviewTime: 194784
Countdown: 0
SampleSet: Soft
StackLeniency: 0.7
Mode: 0
LetterboxInBreaks: 0
WidescreenStoryboard: 1

[Editor]
DistanceSpacing: 1.6
BeatDivisor: 8
GridSize: 4
TimelineZoom: 1.9

[Metadata]
Title:Beautiful World
TitleUnicode:Beautiful World
Artist:XX:me
ArtistUnicode:XX:me
Creator:Rin Sa
Version:Paradise
Source:ダーリン・イン・ザ・フランキス
Tags:japanese anime Jval93700 daring in the Franxx op
BeatmapID:1900525
BeatmapSetID:909211

[Difficulty]
HPDrainRate:6
CircleSize:4.2
OverallDifficulty:7.5
ApproachRate:8.7
SliderMultiplier:1.4
SliderTickRate:1

[Events]
//Background and Video events
0,0,"932284.jpg",0,0
//Break Periods
//Storyboard Layer 0 (Background)
//Storyboard Layer 1 (Fail)
//Storyboard Layer 2 (Pass)
//Storyboard Layer 3 (Foreground)
//Storyboard Sound Samples

[TimingPoints]
580,454.545454545455,4,2,1,70,1,0
580,-83.3333333333333,4,2,1,70,0,0
18761,-90.9090909090909,4,2,1,60,0,0
58764,-71.4285714285714,4,2,1,90,0,1
71148,-71.4285714285714,4,2,1,5,0,1
71261,-71.4285714285714,4,2,1,90,0,1
72511,-71.4285714285714,4,2,1,5,0,1
72625,-71.4285714285714,4,2,1,90,0,1
87852,-90.9090909090909,4,2,1,60,0,0
102398,-90.9090909090909,4,2,1,70,0,0
127852,-71.4285714285714,4,2,1,90,0,1
140239,-71.4285714285714,4,2,1,5,0,1
140352,-71.4285714285714,4,2,1,90,0,1
141602,-71.4285714285714,4,2,1,5,0,1
141716,-71.4285714285714,4,2,1,90,0,1
153307,-90.9090909090909,4,2,1,70,0,0
160580,-83.3333333333333,4,2,1,70,0,0
195125,-71.4285714285714,4,2,1,90,0,1
208875,-71.4285714285714,4,2,1,5,0,1
208989,-71.4285714285714,4,2,1,90,0,1
227852,-83.3333333333333,4,2,1,80,0,0
246031,-100,4,2,1,60,0,0
247625,483.870967741935,4,2,1,50,1,0
248350,535.714285714286,4,2,1,45,1,0
248617,444.444444444444,4,2,1,45,1,0
248831,600,4,2,1,45,1,0
249231,500,4,2,1,45,1,0
249564,600,4,2,1,45,1,0
250164,-100,4,2,1,5,0,0
250264,-100,4,2,1,45,0,0
250364,-250,4,2,1,45,0,0
255964,-250,4,2,1,5,0,0

[Colours]
Combo1 : 179,109,255
Combo2 : 81,255,239

[HitObjects]
26,175,352,5,0,0:1:0:0:
44,200,580,6,0,B|94:247|85:324|85:324|210:266,1,251.999992309571,4|0,0:0|0:0,0:0:0:0:
326,228,1489,2,0,P|392:226|454:282,2,125.999996154785
360,338,2398,6,0,L|401:190,1,125.999996154785,4|0,0:0|0:0,0:0:0:0:
331,91,3080,2,0,B|288:132|288:132|152:98,1,167.999994873047
61,155,3761,2,0,L|74:250,1,83.9999974365235
201,111,4216,6,0,B|148:64|166:-7|166:-7|31:25,1,251.999992309571,6|0,0:0|0:0,0:0:0:0:
61,155,5125,2,0,L|73:285,2,125.999996154785,0|0|2,0:0|0:0|0:0,0:0:0:0:
218,188,6034,6,0,P|276:209|354:179,2,125.999996154785,4|0|0,0:0|0:0|0:0,0:0:0:0:
156,48,6943,1,0,0:0:0:0:
280,124,7170,1,2,0:0:0:0:
151,131,7398,1,2,0:0:0:0:
264,25,7625,1,8,0:0:0:0:
264,25,7739,1,8,0:0:0:0:
264,25,7852,6,0,P|376:19|416:30,1,125.999996154785,4|0,0:0|0:0,0:0:0:0:
458,79,8307,2,0,L|451:181,1,83.9999974365235,8|0,0:0|0:0,0:0:0:0:
370,284,8761,1,2,0:0:0:0:
480,353,8989,1,0,0:0:0:0:
359,381,9216,1,8,0:0:0:0:
457,262,9443,1,0,0:0:0:0:
283,310,9670,6,0,P|171:316|131:305,1,125.999996154785
92,251,10125,2,0,L|99:149,1,83.9999974365235,8|0,0:0|0:0,0:0:0:0:
202,63,10580,1,2,0:0:0:0:
287,173,10807,1,0,0:0:0:0:
170,149,11034,1,8,0:0:0:0:
319,69,11261,1,0,0:0:0:0:
319,69,11375,1,0,0:0:0:0:
319,69,11489,6,0,P|388:132|377:236,1,167.999994873047,2|8,0:0|0:0,0:0:0:0:
291,312,12170,1,0,0:0:0:0:
172,237,12398,2,0,P|176:172|187:143,1,83.9999974365235,2|0,0:0|0:0,0:0:0:0:
300,229,12852,2,0,P|296:294|285:323,1,83.9999974365235,8|0,0:0|0:0,0:0:0:0:
98,320,13307,6,0,P|66:269|76:181,1,125.999996154785,2|0,0:0|0:0,0:0:0:0:
116,143,13761,2,0,P|64:186|25:185,1,83.9999974365235,8|0,0:0|0:0,0:0:0:0:
133,50,14216,2,0,P|199:51|257:84,1,125.999996154785
287,109,14670,1,8,0:0:0:0:
171,208,14898,6,0,P|218:130|326:117,1,167.999994873047,4|0,0:0|0:0,0:0:0:0:
397,174,15580,1,2,0:0:0:0:
290,228,15807,1,0,0:0:0:0:
415,149,16034,2,0,P|421:211|412:237,1,83.9999974365235,2|0,0:0|0:0,0:0:0:0:
305,317,16489,1,0,0:0:0:0:
199,212,16716,6,0,P|192:149|201:123,1,83.9999974365235,8|0,0:0|0:0,0:0:0:0:
287,42,17170,1,0,0:0:0:0:
197,130,17398,2,0,P|153:157|112:156,1,83.9999974365235
47,17,17852,2,0,P|92:41|112:77,1,83.9999974365235,2|0,0:0|0:0,0:0:0:0:
166,200,18307,1,0,0:0:0:0:
182,238,18420,1,0,0:0:0:0:
188,279,18534,1,0,0:0:0:0:
180,321,18647,1,0,0:0:0:0:
162,358,18761,6,0,L|257:354,1,77.0000023498536,4|0,0:0|0:0,0:0:0:0:
358,269,19216,2,0,L|263:273,1,77.0000023498536,8|0,0:0|0:0,0:0:0:0:
412,186,19670,2,0,P|451:229|455:295,2,115.50000352478
308,115,20580,6,0,L|317:-13,2,115.50000352478
209,195,21489,2,0,P|148:190|125:181,1,77.0000023498536
103,87,21943,2,0,P|122:195|87:256,1,154.000004699707,8|0,0:0|0:0,0:0:0:0:
16,318,22625,1,0,0:0:0:0:
160,295,22852,6,0,P|167:343|154:381,1,77.0000023498536
16,318,23307,2,0,P|7:261|23:183,2,115.50000352478
160,295,24216,2,0,L|304:294,2,115.50000352478
110,196,25125,6,0,P|114:127|127:102,1,77.0000023498536
249,58,25580,2,0,P|245:127|232:152,1,77.0000023498536,8|0,0:0|0:0,0:0:0:0:
228,181,25920,1,8,0:0:0:0:
228,181,26034,6,0,P|273:179|314:184,1,77.0000023498536
375,290,26489,2,0,P|330:292|289:287,1,77.0000023498536,8|0,0:0|0:0,0:0:0:0:
459,232,26943,2,0,P|476:293|455:354,2,115.50000352478
303,234,27852,6,0,P|286:295|307:356,2,115.50000352478
406,171,28761,2,0,P|446:174|492:159,1,77.0000023498536
394,50,29216,1,8,0:0:0:0:
306,153,29443,1,0,0:0:0:0:
158,115,29670,6,0,L|149:-3,2,115.50000352478
229,252,30580,2,0,L|220:370,2,115.50000352478
306,153,31489,6,0,P|348:144|401:160,1,77.0000023498536
470,264,31943,1,8,0:0:0:0:
335,249,32170,1,0,0:0:0:0:
434,181,32398,1,2,0:0:0:0:
399,317,32625,1,2,0:0:0:0:
277,337,32852,1,8,0:0:0:0:
164,262,33080,1,8,0:0:0:0:
161,253,33193,1,8,0:0:0:0:
158,244,33307,6,0,P|154:193|155:154,1,77.0000023498536,4|0,0:0|0:0,0:0:0:0:
281,94,33761,2,0,P|285:145|284:184,1,77.0000023498536,8|0,0:0|0:0,0:0:0:0:
217,32,34216,2,0,P|276:8|346:32,2,115.50000352478
118,130,35125,2,0,P|59:154|-11:130,2,115.50000352478
222,173,36034,2,0,L|221:263,1,77.0000023498536
348,326,36489,2,0,L|349:236,1,77.0000023498536,8|0,0:0|0:0,0:0:0:0:
407,132,36943,6,0,P|457:138|497:173,1,77.0000023498536
293,192,37398,2,0,P|243:186|203:151,1,77.0000023498536,8|0,0:0|0:0,0:0:0:0:
330,62,37852,2,0,P|385:39|464:62,2,115.50000352478
221,172,38761,6,0,L|221:305,2,115.50000352478
93,115,39670,2,0,P|91:164|110:200,1,77.0000023498536
131,29,40125,2,0,P|89:2|48:1,1,77.0000023498536,8|0,0:0|0:0,0:0:0:0:
189,107,40580,6,0,P|225:87|247:52,1,77.0000023498536
382,33,41034,2,0,L|483:41,1,77.0000023498536,8|0,0:0|0:0,0:0:0:0:
493,161,41489,2,0,L|482:310,2,115.50000352478
385,110,42398,6,0,L|318:238,2,115.50000352478
293,38,43307,2,0,P|218:57|186:54,1,77.0000023498536
85,79,43761,1,8,0:0:0:0:
102,112,43874,1,8,0:0:0:0:
106,150,43989,2,0,P|99:192|94:201,1,38.5000011749268,8|0,0:0|0:0,0:0:0:0:
38,239,44216,6,0,L|164:226,1,115.50000352478,4|0,0:0|0:0,0:0:0:0:
201,221,44670,1,8,0:0:0:0:
325,150,44898,1,0,0:0:0:0:
443,257,45125,2,0,P|444:315|423:360,1,77.0000023498536,2|0,0:0|0:0,0:0:0:0:
312,283,45580,1,8,0:0:0:0:
325,150,45807,2,0,P|331:102|335:96,1,38.5000011749268
385,59,46034,6,0,L|252:78,1,115.50000352478,4|0,0:0|0:0,0:0:0:0:
221,84,46489,1,8,0:0:0:0:
99,181,46716,1,0,0:0:0:0:
250,171,46944,1,2,0:0:0:0:
122,91,47171,1,8,0:0:0:0:
180,231,47398,1,8,0:0:0:0:
221,84,47625,2,0,L|292:89,1,38.5000011749268
286,18,47852,6,0,P|294:81|356:129,1,115.50000352478,4|0,0:0|0:0,0:0:0:0:
369,145,48307,1,2,0:0:0:0:
501,61,48534,1,0,0:0:0:0:
370,42,48761,1,2,0:0:0:0:
485,156,48989,1,0,0:0:0:0:
349,225,49216,1,2,0:0:0:0:
212,143,49443,2,0,P|212:87|214:77,1,38.5000011749268
223,29,49670,6,0,P|188:108|146:136,1,115.50000352478
121,147,50125,1,2,0:0:0:0:
0,34,50352,1,0,0:0:0:0:
133,44,50580,1,2,0:0:0:0:
32,176,50807,1,0,0:0:0:0:
204,113,51034,2,0,P|206:161|195:194,1,77.0000023498536
96,257,51489,6,0,P|189:229|264:244,1,154.000004699707,6|0,0:0|0:0,0:0:0:0:
358,368,52170,2,0,P|306:356|282:336,1,77.0000023498536,8|0,0:0|0:0,0:0:0:0:
464,213,52625,2,0,P|480:269|478:301,1,77.0000023498536,8|0,0:0|0:0,0:0:0:0:
311,182,53080,6,0,P|311:135|331:89,1,77.0000023498536
403,0,53534,1,0,0:0:0:0:
456,122,53761,1,2,0:0:0:0:
311,182,53989,2,0,B|270:209|270:209|134:172,1,154.000004699707,8|8,0:0|0:0,0:0:0:0:
37,123,54670,1,8,0:0:0:0:
194,69,54898,1,8,0:0:0:0:
197,84,55011,1,8,0:0:0:0:
199,98,55125,6,0,P|206:178|188:260,1,154.000004699707,4|0,0:0|0:0,0:0:0:0:
22,335,55807,2,0,P|27:261|39:233,1,77.0000023498536,8|0,0:0|0:0,0:0:0:0:
203,338,56261,2,0,P|156:382|120:385,1,77.0000023498536,8|0,0:0|0:0,0:0:0:0:
162,214,56716,6,0,B|212:193|212:193|339:235,1,154.000004699707,12|0,0:0|0:0,0:0:0:0:
453,306,57398,1,2,0:0:0:0:
423,181,57625,1,8,0:0:0:0:
451,45,57852,5,8,0:0:0:0:
425,49,57965,1,8,0:0:0:0:
399,52,58079,1,8,0:0:0:0:
372,53,58192,1,8,0:0:0:0:
346,52,58306,1,8,0:0:0:0:
320,49,58420,1,8,0:0:0:0:
294,44,58533,1,8,0:0:0:0:
192,172,58761,6,0,P|204:251|184:308,1,115.50000352478,6|0,0:0|0:0,0:0:0:0:
108,341,59216,2,0,P|180:326|222:338,1,97.9999970092774,8|0,0:0|0:0,0:0:0:0:
341,313,59670,1,2,0:0:0:0:
488,266,59898,1,2,0:0:0:0:
408,384,60125,1,8,0:0:0:0:
397,223,60352,1,0,0:0:0:0:
397,223,60466,1,0,0:0:0:0:
397,223,60580,6,0,P|391:137|439:73,1,146.999995513916,2|0,0:0|0:0,0:0:0:0:
502,173,61034,2,0,P|507:225|477:276,1,97.9999970092774,8|0,0:0|0:0,0:0:0:0:
303,316,61489,2,0,P|292:262|306:209,1,97.9999970092774,2|0,0:0|0:0,0:0:0:0:
335,141,61830,1,0,0:0:0:0:
335,141,61943,2,0,P|311:182|236:201,1,97.9999970092774,8|0,0:0|0:0,0:0:0:0:
248,20,62398,6,0,P|338:-14|426:26,1,195.999994018555,2|8,0:0|0:0,0:0:0:0:
335,141,63080,1,0,0:0:0:0:
175,185,63307,2,0,B|131:203|131:203|20:148,1,146.999995513916,2|0,0:0|0:0,0:0:0:0:
79,73,63761,2,0,P|64:135|38:161,1,97.9999970092774,8|0,0:0|0:0,0:0:0:0:
175,185,64216,6,0,P|175:250|146:327,1,146.999995513916,2|0,0:0|0:0,0:0:0:0:
78,258,64670,2,0,P|127:294|152:343,1,97.9999970092774,8|0,0:0|0:0,0:0:0:0:
264,384,65125,1,2,0:0:0:0:
370,259,65352,1,2,0:0:0:0:
274,254,65580,1,8,0:0:0:0:
436,339,65807,1,8,0:0:0:0:
436,339,65920,1,8,0:0:0:0:
436,339,66034,6,0,P|466:268|430:167,1,146.999995513916,6|0,0:0|0:0,0:0:0:0:
354,205,66489,2,0,P|423:191|446:163,1,97.9999970092774,8|0,0:0|0:0,0:0:0:0:
283,54,66943,2,0,P|214:68|191:96,1,97.9999970092774,2|0,0:0|0:0,0:0:0:0:
167,175,67284,1,0,0:0:0:0:
167,175,67398,2,0,P|220:207|271:194,1,97.9999970092774,8|0,0:0|0:0,0:0:0:0:
82,97,67852,6,0,P|54:172|87:242,1,146.999995513916,2|0,0:0|0:0,0:0:0:0:
170,246,68307,2,0,P|102:226|66:235,1,97.9999970092774,8|0,0:0|0:0,0:0:0:0:
161,384,68761,2,0,P|206:385|254:359,1,97.9999970092774,8|0,0:0|0:0,0:0:0:0:
291,332,69102,1,0,0:0:0:0:
291,332,69216,1,8,0:0:0:0:
170,246,69443,1,0,0:0:0:0:
310,221,69670,6,0,P|358:212|410:195,1,97.9999970092774,2|0,0:0|0:0,0:0:0:0:
447,74,70125,2,0,P|439:185|525:217,1,195.999994018555,8|2,0:0|0:0,0:0:0:0:
512,12,70807,2,0,B|464:21|405:8|405:8|451:59,1,146.999995513916
347,171,71261,1,8,0:0:0:0:
347,171,71375,1,8,0:0:0:0:
347,171,71489,6,0,L|464:161,1,97.9999970092774,4|0,0:0|0:0,0:0:0:0:
231,69,71830,2,0,L|127:56,1,97.9999970092774
244,206,72170,2,0,P|250:343|263:382,1,146.999995513916,2|0,0:0|0:0,0:0:0:0:
283,372,72625,1,0,0:0:0:0:
312,373,72739,1,0,0:0:0:0:
335,370,72852,1,0,0:0:0:0:
363,366,72966,1,0,0:0:0:0:
385,358,73080,1,0,0:0:0:0:
472,205,73307,6,0,P|483:118|456:50,1,146.999995513916,6|0,0:0|0:0,0:0:0:0:
360,16,73761,2,0,P|358:66|389:112,1,97.9999970092774,8|0,0:0|0:0,0:0:0:0:
472,205,74216,1,2,0:0:0:0:
319,226,74443,1,2,0:0:0:0:
393,128,74670,1,8,0:0:0:0:
390,315,74898,1,0,0:0:0:0:
390,315,75011,1,0,0:0:0:0:
390,315,75125,6,0,P|316:338|249:313,1,146.999995513916,2|0,0:0|0:0,0:0:0:0:
223,225,75580,2,0,P|250:274|248:334,1,97.9999970092774,8|0,0:0|0:0,0:0:0:0:
95,226,76034,2,0,P|103:173|146:126,1,97.9999970092774,2|0,0:0|0:0,0:0:0:0:
214,102,76375,1,0,0:0:0:0:
214,102,76489,2,0,P|181:130|121:136,1,97.9999970092774,8|0,0:0|0:0,0:0:0:0:
35,15,76943,6,0,B|82:-17|82:-17|247:13,1,195.999994018555,2|8,0:0|0:0,0:0:0:0:
368,39,77625,1,0,0:0:0:0:
437,180,77852,2,0,L|422:326,1,146.999995513916,2|0,0:0|0:0,0:0:0:0:
342,277,78307,2,0,P|396:296|430:347,1,97.9999970092774,8|0,0:0|0:0,0:0:0:0:
279,379,78761,6,0,P|224:383|178:357,1,97.9999970092774,2|0,0:0|0:0,0:0:0:0:
134,291,79102,1,0,0:0:0:0:
134,291,79216,2,0,P|182:332|180:386,1,97.9999970092774,8|0,0:0|0:0,0:0:0:0:
3,324,79670,2,0,P|-1:271|37:201,1,97.9999970092774,2|0,0:0|0:0,0:0:0:0:
134,127,80125,1,8,0:0:0:0:
82,263,80352,1,8,0:0:0:0:
53,247,80466,1,8,0:0:0:0:
28,213,80580,6,0,P|1:138|38:54,1,146.999995513916,2|0,0:0|0:0,0:0:0:0:
162,36,81034,2,0,P|157:91|125:133,1,97.9999970092774,12|0,0:0|0:0,0:0:0:0:
274,0,81489,2,0,P|295:52|280:122,1,97.9999970092774,2|0,0:0|0:0,0:0:0:0:
222,168,81830,1,0,0:0:0:0:
222,168,81943,2,0,P|263:131|320:131,1,97.9999970092774,12|0,0:0|0:0,0:0:0:0:
453,204,82398,5,2,0:0:0:0:
320,280,82625,1,8,0:0:0:0:
371,155,82852,1,8,0:0:0:0:
404,319,83080,1,8,0:0:0:0:
229,342,83307,1,8,0:0:0:0:
184,335,83420,1,8,0:0:0:0:
145,312,83534,1,8,0:0:0:0:
117,277,83647,1,8,0:0:0:0:
105,233,83761,2,0,P|106:168|124:134,1,97.9999970092774,8|0,0:0|0:0,0:0:0:0:
348,115,84216,6,0,P|298:187|193:192,1,195.999994018555,4|8,0:0|0:0,0:0:0:0:
230,69,84898,1,0,0:0:0:0:
373,23,85125,1,8,0:0:0:0:
347,181,85352,1,0,0:0:0:0:
301,180,85466,1,0,0:0:0:0:
260,161,85579,1,0,0:0:0:0:
451,111,85807,6,0,P|458:211|399:306,1,195.999994018555,4|0,0:0|0:0,0:0:0:0:
270,211,86489,1,0,0:0:0:0:
270,352,86716,1,0,0:0:0:0:
270,352,86830,1,0,0:0:0:0:
270,352,86943,2,0,P|196:356|165:342,1,97.9999970092774
270,211,87398,2,0,P|344:207|374:220,1,97.9999970092774
144,261,87852,6,0,P|139:200|155:163,1,77.0000023498536,4|0,0:0|0:0,0:0:0:0:
266,113,88307,2,0,P|271:174|255:211,1,77.0000023498536
110,123,88761,2,0,P|110:56|151:-15,2,115.50000352478
175,246,89670,6,0,P|175:313|134:384,2,115.50000352478
258,152,90580,2,0,P|318:144|356:155,1,77.0000023498536
354,251,91034,2,0,P|361:158|421:111,1,154.000004699707
460,216,91716,5,0,0:0:0:0:
404,334,91943,2,0,P|362:343|302:328,1,77.0000023498536
177,303,92398,2,0,P|68:314|36:338,2,115.50000352478
281,241,93307,6,0,L|279:110,2,115.50000352478
286,359,94216,1,0,0:0:0:0:
176,283,94443,1,0,0:0:0:0:
281,241,94670,1,0,0:0:0:0:
196,366,94898,1,0,0:0:0:0:
95,266,95125,6,0,P|115:229|161:205,1,77.0000023498536
281,165,95580,2,0,P|286:222|267:267,1,77.0000023498536
219,89,96034,2,0,P|280:70|358:101,2,115.50000352478
227,229,96943,6,0,P|283:239|337:220,2,115.50000352478
89,173,97852,2,0,P|81:132|96:86,1,77.0000023498536
170,14,98307,1,0,0:0:0:0:
239,136,98534,1,0,0:0:0:0:
239,136,98648,1,0,0:0:0:0:
239,136,98761,6,0,L|234:268,2,115.50000352478
350,72,99670,2,0,L|345:204,2,115.50000352478
491,41,100580,6,0,P|430:79|335:64,1,154.000004699707,6|0,0:0|0:0,0:0:0:0:
193,114,101261,1,0,0:0:0:0:
272,5,101489,1,0,0:0:0:0:
272,140,101716,1,0,0:0:0:0:
193,31,101943,1,0,0:0:0:0:
320,72,102170,1,8,0:0:0:0:
320,72,102284,1,8,0:0:0:0:
320,72,102398,6,0,P|351:112|351:164,1,77.0000023498536,4|0,0:0|0:0,0:0:0:0:
223,207,102852,2,0,P|192:167|192:115,1,77.0000023498536,8|0,0:0|0:0,0:0:0:0:
300,256,103307,2,0,L|283:398,2,115.50000352478
390,148,104216,6,0,P|444:119|512:137,2,115.50000352478,2|0|0,0:0|0:0|0:0,0:0:0:0:
300,256,105125,1,2,0:0:0:0:
174,192,105352,1,0,0:0:0:0:
283,156,105580,1,8,0:0:0:0:
205,283,105807,1,0,0:0:0:0:
91,188,106034,6,0,P|111:137|150:110,1,77.0000023498536
276,81,106489,2,0,P|285:148|269:185,1,77.0000023498536,8|0,0:0|0:0,0:0:0:0:
126,122,106943,2,0,P|115:69|142:-2,2,115.50000352478
212,234,107852,6,0,L|203:370,2,115.50000352478
302,108,108761,1,2,0:0:0:0:
420,174,108989,1,0,0:0:0:0:
304,195,109216,1,8,0:0:0:0:
410,94,109443,1,0,0:0:0:0:
410,94,109557,1,0,0:0:0:0:
410,94,109670,6,0,P|457:104|493:145,1,77.0000023498536,4|0,0:0|0:0,0:0:0:0:
372,222,110125,2,0,P|325:212|289:171,1,77.0000023498536,8|0,0:0|0:0,0:0:0:0:
467,269,110580,2,0,L|461:401,2,115.50000352478
374,142,111489,6,0,L|368:10,2,115.50000352478
299,251,112398,1,2,0:0:0:0:
198,189,112625,1,0,0:0:0:0:
273,93,112852,1,8,0:0:0:0:
311,92,112965,1,8,0:0:0:0:
350,112,113080,2,0,P|374:142|379:164,1,38.5000011749268,8|0,0:0|0:0,0:0:0:0:
325,200,113307,6,0,L|465:181,1,115.50000352478,4|0,0:0|0:0,0:0:0:0:
486,178,113761,1,8,0:0:0:0:
424,321,113989,1,0,0:0:0:0:
281,263,114216,2,0,P|255:228|252:181,1,77.0000023498536,2|0,0:0|0:0,0:0:0:0:
321,68,114670,1,8,0:0:0:0:
199,104,114898,2,0,P|196:71|209:31,1,38.5000011749268
256,5,115125,6,0,L|124:34,1,115.50000352478,4|0,0:0|0:0,0:0:0:0:
99,45,115580,1,8,0:0:0:0:
0,145,115807,1,0,0:0:0:0:
137,118,116034,1,2,0:0:0:0:
12,58,116261,1,8,0:0:0:0:
78,182,116489,1,8,0:0:0:0:
185,272,116716,2,0,L|255:277,1,38.5000011749268,8|0,0:0|0:0,0:0:0:0:
249,203,116943,6,0,P|260:265|325:310,1,115.50000352478,4|0,0:0|0:0,0:0:0:0:
337,323,117398,1,2,0:0:0:0:
472,247,117625,1,0,0:0:0:0:
352,214,117852,1,2,0:0:0:0:
443,330,118080,1,0,0:0:0:0:
310,384,118307,1,2,0:0:0:0:
199,295,118534,2,0,P|199:239|201:229,1,38.5000011749268
215,182,118761,6,0,P|193:252|138:289,1,115.50000352478,2|0,0:0|0:0,0:0:0:0:
115,293,119216,1,2,0:0:0:0:
0,175,119443,1,0,0:0:0:0:
118,193,119671,1,2,0:0:0:0:
24,317,119898,1,8,0:0:0:0:
206,252,120125,2,0,P|212:299|204:333,1,77.0000023498536,8|0,0:0|0:0,0:0:0:0:
215,115,120580,6,0,P|288:145|325:242,1,154.000004699707,6|0,0:0|0:0,0:0:0:0:
281,369,121261,2,0,P|214:370|183:353,1,77.0000023498536,8|0,0:0|0:0,0:0:0:0:
423,295,121716,2,0,P|477:301|510:330,1,77.0000023498536,8|0,0:0|0:0,0:0:0:0:
320,184,122170,6,0,P|320:137|340:91,1,77.0000023498536
417,0,122624,1,0,0:0:0:0:
474,121,122851,1,2,0:0:0:0:
320,184,123080,2,0,B|278:214|278:214|157:175,1,154.000004699707,8|8,0:0|0:0,0:0:0:0:
32,141,123761,1,2,0:0:0:0:
195,92,123989,1,8,0:0:0:0:
195,92,124102,1,8,0:0:0:0:
195,92,124216,6,0,L|174:275,1,154.000004699707,4|0,0:0|0:0,0:0:0:0:
302,335,124898,2,0,P|375:317|393:291,1,77.0000023498536,8|0,0:0|0:0,0:0:0:0:
352,149,125352,2,0,P|319:201|325:238,1,77.0000023498536,8|0,0:0|0:0,0:0:0:0:
497,194,125807,6,0,P|499:110|452:31,1,154.000004699707,12|0,0:0|0:0,0:0:0:0:
316,14,126489,1,2,0:0:0:0:
200,94,126716,1,8,0:0:0:0:
48,70,126943,5,8,0:0:0:0:
43,96,127056,1,8,0:0:0:0:
40,122,127170,1,8,0:0:0:0:
39,148,127284,1,8,0:0:0:0:
40,175,127397,1,8,0:0:0:0:
43,201,127511,1,8,0:0:0:0:
47,227,127624,1,8,0:0:0:0:
170,303,127852,6,0,P|256:296|336:315,1,146.999995513916,6|0,0:0|0:0,0:0:0:0:
326,220,128307,2,0,P|326:279|365:328,1,97.9999970092774,8|0,0:0|0:0,0:0:0:0:
505,323,128761,1,2,0:0:0:0:
480,161,128989,1,2,0:0:0:0:
405,255,129216,1,8,0:0:0:0:
501,127,129443,1,0,0:0:0:0:
501,127,129557,1,0,0:0:0:0:
501,127,129670,6,0,P|423:119|353:145,1,146.999995513916,2|0,0:0|0:0,0:0:0:0:
304,226,130125,2,0,P|330:168|316:99,1,97.9999970092774,8|0,0:0|0:0,0:0:0:0:
166,99,130580,2,0,P|196:143|250:157,1,97.9999970092774,2|0,0:0|0:0,0:0:0:0:
301,73,130920,1,0,0:0:0:0:
301,73,131034,2,0,P|271:29|217:15,1,97.9999970092774,8|0,0:0|0:0,0:0:0:0:
45,32,131489,6,0,B|24:87|24:87|58:226,1,195.999994018555,2|8,0:0|0:0,0:0:0:0:
141,334,132170,1,0,0:0:0:0:
246,195,132398,2,0,P|216:103|145:69,1,146.999995513916,2|0,0:0|0:0,0:0:0:0:
148,166,132852,2,0,P|178:109|168:50,1,97.9999970092774,8|0,0:0|0:0,0:0:0:0:
210,291,133307,6,0,P|289:300|354:235,1,146.999995513916,2|0,0:0|0:0,0:0:0:0:
308,174,133761,2,0,P|332:254|372:278,1,97.9999970092774,8|0,0:0|0:0,0:0:0:0:
505,296,134216,1,2,0:0:0:0:
397,188,134443,1,2,0:0:0:0:
401,321,134670,1,8,0:0:0:0:
488,159,134898,1,8,0:0:0:0:
488,159,135011,1,8,0:0:0:0:
488,159,135125,6,0,P|470:43|439:8,1,146.999995513916,6|0,0:0|0:0,0:0:0:0:
392,90,135580,2,0,P|444:54|455:10,1,97.9999970092774,8|0,0:0|0:0,0:0:0:0:
263,93,136034,2,0,P|268:191|287:215,1,97.9999970092774,2|0,0:0|0:0,0:0:0:0:
334,246,136375,1,0,0:0:0:0:
334,246,136489,2,0,P|279:231|226:240,1,97.9999970092774,8|0,0:0|0:0,0:0:0:0:
80,353,136943,6,0,P|155:359|225:310,1,146.999995513916,2|0,0:0|0:0,0:0:0:0:
142,270,137398,2,0,P|178:317|222:321,1,97.9999970092774,8|0,0:0|0:0,0:0:0:0:
192,160,137852,2,0,P|156:113|112:109,1,97.9999970092774,2|0,0:0|0:0,0:0:0:0:
88,108,138193,1,0,0:0:0:0:
88,108,138307,1,8,0:0:0:0:
45,264,138534,1,0,0:0:0:0:
192,161,138761,6,0,P|200:103|188:48,1,97.9999970092774,2|0,0:0|0:0,0:0:0:0:
260,242,139216,2,0,P|333:240|442:144,1,195.999994018555,8|2,0:0|0:0,0:0:0:0:
150,202,139898,2,0,B|145:321|145:321|189:271,1,146.999995513916
267,144,140352,1,8,0:0:0:0:
267,144,140466,1,8,0:0:0:0:
267,144,140580,6,0,P|255:73|237:46,1,97.9999970092774,4|0,0:0|0:0,0:0:0:0:
359,238,140920,2,0,P|449:205|465:185,1,97.9999970092774
307,74,141261,2,0,P|201:50|139:68,1,146.999995513916,2|0,0:0|0:0,0:0:0:0:
120,71,141716,1,0,0:0:0:0:
123,96,141830,1,0,0:0:0:0:
125,119,141943,1,0,0:0:0:0:
129,144,142057,1,0,0:0:0:0:
133,169,142170,1,0,0:0:0:0:
187,349,142398,6,0,P|249:350|332:309,1,146.999995513916,6|0,0:0|0:0,0:0:0:0:
317,221,142852,2,0,P|319:305|340:333,1,97.9999970092774,8|0,0:0|0:0,0:0:0:0:
476,229,143307,1,2,0:0:0:0:
389,109,143534,1,2,0:0:0:0:
386,264,143761,1,8,0:0:0:0:
472,139,143988,1,0,0:0:0:0:
286,141,144216,6,0,P|292:64|342:14,1,146.999995513916,2|0,0:0|0:0,0:0:0:0:
423,80,144670,2,0,P|413:126|372:163,1,97.9999970092774,8|0,0:0|0:0,0:0:0:0:
216,177,145125,2,0,P|175:156|143:112,1,97.9999970092774,2|0,0:0|0:0,0:0:0:0:
142,22,145466,1,0,0:0:0:0:
142,22,145580,2,0,P|125:83|94:115,1,97.9999970092774,8|0,0:0|0:0,0:0:0:0:
41,238,146034,6,0,P|99:190|218:177,1,195.999994018555,2|8,0:0|0:0,0:0:0:0:
335,257,146716,1,0,0:0:0:0:
458,158,146943,2,0,P|467:90|453:0,1,146.999995513916,2|0,0:0|0:0,0:0:0:0:
382,69,147398,2,0,P|429:49|462:-12,1,97.9999970092774,8|0,0:0|0:0,0:0:0:0:
246,25,147852,6,0,P|235:83|257:133,1,97.9999970092774,2|0,0:0|0:0,0:0:0:0:
333,168,148193,1,0,0:0:0:0:
333,168,148307,2,0,P|280:161|223:184,1,97.9999970092774,8|0,0:0|0:0,0:0:0:0:
107,293,148761,2,0,P|160:300|217:277,1,97.9999970092774,2|0,0:0|0:0,0:0:0:0:
81,182,149216,1,8,0:0:0:0:
60,356,149443,1,8,0:0:0:0:
86,366,149557,1,8,0:0:0:0:
114,370,149670,6,0,P|203:362|256:335,1,146.999995513916,2|0,0:0|0:0,0:0:0:0:
312,232,150125,2,0,P|255:209|211:218,1,97.9999970092774,12|0,0:0|0:0,0:0:0:0:
446,269,150580,2,0,P|448:211|413:151,1,97.9999970092774,2|0,0:0|0:0,0:0:0:0:
338,144,150920,1,0,0:0:0:0:
338,144,151034,2,0,P|420:143|451:124,1,97.9999970092774,12|0,0:0|0:0,0:0:0:0:
372,22,151489,5,2,0:0:0:0:
217,112,151716,1,8,0:0:0:0:
245,0,151943,1,8,0:0:0:0:
338,144,152170,1,8,0:0:0:0:
216,243,152398,1,8,0:0:0:0:
171,236,152511,1,8,0:0:0:0:
132,213,152625,1,8,0:0:0:0:
104,178,152738,1,8,0:0:0:0:
92,134,152852,2,0,P|93:69|110:38,1,97.9999970092774,8|0,0:0|0:0,0:0:0:0:
237,114,153307,6,0,P|242:195|218:291,1,154.000004699707,4|0,0:0|0:0,0:0:0:0:
149,320,153989,2,0,P|269:293|324:309,1,154.000004699707
396,369,154670,2,0,P|351:338|374:231,1,154.000004699707
470,201,155352,2,0,B|435:222|435:222|301:199,1,154.000004699707
232,104,156034,2,0,P|234:56|250:14,1,77.0000023498536
357,82,156489,1,0,0:0:0:0:
323,202,156716,1,0,0:0:0:0:
323,202,156830,1,0,0:0:0:0:
323,202,156943,6,0,P|246:228|157:205,1,154.000004699707
198,72,157625,2,0,P|205:166|148:235,1,154.000004699707
107,31,158307,2,0,P|172:99|172:168,1,154.000004699707
76,249,158989,1,0,0:0:0:0:
77,263,159102,1,0,0:0:0:0:
77,275,159216,1,0,0:0:0:0:
142,372,159443,1,0,0:0:0:0:
264,265,159670,5,12,0:0:0:0:
259,383,159898,1,2,0:0:0:0:
177,248,160125,1,8,0:0:0:0:
189,211,160238,1,8,0:0:0:0:
216,184,160352,1,8,0:0:0:0:
252,171,160465,1,8,0:0:0:0:
289,174,160580,6,0,B|326:205|326:205|467:166,1,167.999994873047,12|0,0:0|0:0,0:0:0:0:
366,53,161261,2,0,P|393:116|512:118,1,167.999994873047,12|0,0:0|0:0,0:0:0:0:
482,0,161943,2,0,L|402:151,1,167.999994873047,12|0,0:0|0:0,0:0:0:0:
270,223,162625,6,0,P|282:155|305:128,1,83.9999974365235,12|0,0:0|0:0,0:0:0:0:
372,277,163080,2,0,P|416:253|467:251,1,83.9999974365235,2|0,0:0|0:0,0:0:0:0:
294,380,163534,1,2,0:0:0:0:
154,289,163761,1,8,0:0:0:0:
197,279,163874,1,8,0:0:0:0:
242,288,163988,1,8,0:0:0:0:
91,372,164216,6,0,P|60:297|105:205,1,167.999994873047,6|2,0:0|0:0,0:0:0:0:
219,168,164898,1,2,0:0:0:0:
154,289,165125,1,2,0:0:0:0:
117,138,165352,1,2,0:0:0:0:
252,256,165580,1,8,0:0:0:0:
293,260,165693,1,8,0:0:0:0:
334,253,165807,1,8,0:0:0:0:
371,233,165920,1,8,0:0:0:0:
401,203,166034,6,0,L|411:296,1,83.9999974365235,2|0,0:0|0:0,0:0:0:0:
512,106,166489,2,0,L|507:204,1,83.9999974365235,8|0,0:0|0:0,0:0:0:0:
378,7,166943,2,0,L|391:101,1,83.9999974365235,2|0,0:0|0:0,0:0:0:0:
251,61,167398,1,8,0:0:0:0:
152,147,167625,1,8,0:0:0:0:
120,149,167739,1,8,0:0:0:0:
85,130,167852,6,0,P|92:210|88:304,1,167.999994873047,6|0,0:0|0:0,0:0:0:0:
208,347,168534,2,0,P|242:282|362:267,1,167.999994873047,6|0,0:0|0:0,0:0:0:0:
396,344,169216,2,0,P|366:258|415:175,1,167.999994873047,6|0,0:0|0:0,0:0:0:0:
512,130,169898,5,2,0:0:0:0:
463,262,170125,1,8,0:0:0:0:
327,172,170352,1,0,0:0:0:0:
419,55,170580,1,8,0:0:0:0:
457,39,170693,1,8,0:0:0:0:
499,41,170807,2,0,L|491:159,1,83.9999974365235,2|0,0:0|0:0,0:0:0:0:
378,219,171261,1,2,0:0:0:0:
348,201,171375,1,2,0:0:0:0:
327,172,171489,6,0,P|322:70|362:9,1,167.999994873047,6|0,0:0|0:0,0:0:0:0:
439,116,172170,2,0,B|253:82,1,167.999994873047,6|0,0:0|0:0,0:0:0:0:
123,147,172852,2,0,B|163:189|163:189|295:160,1,167.999994873047,6|0,0:0|0:0,0:0:0:0:
172,65,173534,6,0,P|131:54|60:75,1,83.9999974365235,2|8,0:0|0:0,0:0:0:0:
32,184,173989,1,8,0:0:0:0:
32,199,174102,1,8,0:0:0:0:
32,212,174216,1,8,0:0:0:0:
110,320,174443,1,8,0:0:0:0:
217,252,174670,1,8,0:0:0:0:
144,147,174898,1,8,0:0:0:0:
116,146,175011,1,8,0:0:0:0:
91,153,175125,6,0,L|110:323,1,167.999994873047,6|0,0:0|0:0,0:0:0:0:
295,330,175807,2,0,P|320:236|273:156,1,167.999994873047,6|0,0:0|0:0,0:0:0:0:
167,117,176489,2,0,B|216:159|216:159|336:114,1,167.999994873047,6|0,0:0|0:0,0:0:0:0:
391,91,177057,1,8,0:0:0:0:
391,91,177170,6,0,L|389:194,1,83.9999974365235,8|8,0:0|0:0,0:0:0:0:
379,309,177625,1,8,0:0:0:0:
341,291,177738,1,8,0:0:0:0:
299,286,177852,1,8,0:0:0:0:
258,293,177965,1,8,0:0:0:0:
221,312,178079,1,8,0:0:0:0:
90,237,178307,1,8,0:0:0:0:
93,195,178420,1,8,0:0:0:0:
96,153,178534,1,8,0:0:0:0:
99,111,178647,1,8,0:0:0:0:
104,71,178761,6,0,L|209:91,1,83.9999974365235,6|0,0:0|0:0,0:0:0:0:
316,147,179216,1,8,0:0:0:0:
254,210,179443,1,0,0:0:0:0:
175,173,179670,1,2,0:0:0:0:
186,86,179898,1,2,0:0:0:0:
270,69,180125,1,8,0:0:0:0:
316,147,180352,1,0,0:0:0:0:
460,232,180580,6,0,L|471:140,1,83.9999974365235,2|0,0:0|0:0,0:0:0:0:
378,84,181034,1,8,0:0:0:0:
316,147,181261,1,0,0:0:0:0:
237,110,181488,1,2,0:0:0:0:
248,23,181716,1,2,0:0:0:0:
333,7,181943,1,8,0:0:0:0:
237,110,182170,1,8,0:0:0:0:
220,117,182284,1,8,0:0:0:0:
206,122,182398,6,0,P|136:126|94:116,1,83.9999974365235,6|0,0:0|0:0,0:0:0:0:
19,13,182852,2,0,P|89:9|131:19,1,83.9999974365235,8|0,0:0|0:0,0:0:0:0:
206,122,183307,2,0,P|211:204|200:229,1,83.9999974365235,2|0,0:0|0:0,0:0:0:0:
71,301,183761,1,8,0:0:0:0:
116,179,183989,1,0,0:0:0:0:
162,327,184216,5,2,0:0:0:0:
66,209,184443,1,0,0:0:0:0:
210,248,184670,1,8,0:0:0:0:
71,301,184898,1,8,0:0:0:0:
154,176,185125,1,8,0:0:0:0:
194,339,185352,1,8,0:0:0:0:
333,276,185580,1,8,0:0:0:0:
333,276,185693,1,8,0:0:0:0:
333,276,185807,2,0,L|392:267,1,41.9999987182618,8|0,0:0|0:0,0:0:0:0:
484,332,186034,6,0,P|446:243|493:154,1,167.999994873047,6|0,0:0|0:0,0:0:0:0:
398,13,186716,2,0,P|383:65|387:128,1,83.9999974365235,8|0,0:0|0:0,0:0:0:0:
241,168,187170,2,0,P|238:102|250:70,1,83.9999974365235,8|0,0:0|0:0,0:0:0:0:
361,237,187625,6,0,B|323:280|323:280|178:252,1,167.999994873047,2|0,0:0|0:0,0:0:0:0:
62,223,188307,1,2,0:0:0:0:
211,176,188534,2,0,P|219:231|208:273,1,83.9999974365235,8|0,0:0|0:0,0:0:0:0:
62,223,188989,2,0,P|54:168|65:126,1,83.9999974365235,8|0,0:0|0:0,0:0:0:0:
189,34,189443,1,8,0:0:0:0:
207,37,189557,1,8,0:0:0:0:
227,40,189670,6,0,P|302:41|397:29,1,167.999994873047,4|0,0:0|0:0,0:0:0:0:
483,138,190352,2,0,P|512:79|509:36,1,83.9999974365235,8|0,0:0|0:0,0:0:0:0:
349,160,190807,2,0,P|344:209|359:261,1,83.9999974365235,8|0,0:0|0:0,0:0:0:0:
481,301,191261,6,0,L|285:280,1,167.999994873047,4|0,0:0|0:0,0:0:0:0:
145,210,191943,1,2,0:0:0:0:
190,344,192170,1,8,0:0:0:0:
47,285,192398,5,8,0:0:0:0:
47,264,192511,1,8,0:0:0:0:
47,243,192625,1,8,0:0:0:0:
47,222,192738,1,8,0:0:0:0:
48,201,192852,1,8,0:0:0:0:
48,180,192966,1,8,0:0:0:0:
48,159,193079,1,8,0:0:0:0:
196,106,193307,5,2,0:0:0:0:
335,174,193534,1,0,0:0:0:0:
327,17,193761,1,8,0:0:0:0:
170,25,193989,2,0,P|131:50|108:119,1,83.9999974365235,2|8,0:0|0:0,0:0:0:0:
221,193,194443,2,0,P|259:167|281:98,1,83.9999974365235,2|0,0:0|0:0,0:0:0:0:
170,25,194898,1,0,0:0:0:0:
75,155,195125,6,0,P|66:229|72:307,1,146.999995513916,6|0,0:0|0:0,0:0:0:0:
173,368,195580,2,0,P|228:369|270:349,1,97.9999970092774,8|0,0:0|0:0,0:0:0:0:
310,184,196034,1,2,0:0:0:0:
203,266,196261,1,2,0:0:0:0:
304,360,196489,1,8,0:0:0:0:
402,243,196716,1,0,0:0:0:0:
402,243,196830,1,0,0:0:0:0:
402,243,196943,6,0,P|410:158|370:85,1,146.999995513916,2|0,0:0|0:0,0:0:0:0:
310,157,197398,2,0,P|367:133|390:90,1,97.9999970092774,8|0,0:0|0:0,0:0:0:0:
254,7,197852,2,0,P|189:-1|148:12,1,97.9999970092774,2|0,0:0|0:0,0:0:0:0:
91,78,198193,1,0,0:0:0:0:
91,78,198307,2,0,L|96:176,1,97.9999970092774,8|0,0:0|0:0,0:0:0:0:
220,234,198761,6,0,P|118:211|45:260,1,195.999994018555,2|8,0:0|0:0,0:0:0:0:
139,365,199443,1,0,0:0:0:0:
301,332,199670,2,0,P|330:271|313:189,1,146.999995513916,2|0,0:0|0:0,0:0:0:0:
232,159,200125,2,0,P|279:194|329:193,1,97.9999970092774,8|0,0:0|0:0,0:0:0:0:
273,13,200580,6,0,P|195:-5|111:43,1,146.999995513916,2|0,0:0|0:0,0:0:0:0:
121,113,201034,2,0,B|149:67|133:12,1,97.9999970092774,8|0,0:0|0:0,0:0:0:0:
5,103,201489,1,2,0:0:0:0:
98,243,201716,1,2,0:0:0:0:
121,113,201943,1,8,0:0:0:0:
0,238,202170,1,8,0:0:0:0:
0,238,202284,1,8,0:0:0:0:
0,238,202398,6,0,L|16:389,1,146.999995513916,6|0,0:0|0:0,0:0:0:0:
127,304,202852,2,0,P|138:248|123:202,1,97.9999970092774,8|0,0:0|0:0,0:0:0:0:
232,375,203307,2,0,P|298:335|310:293,1,97.9999970092774,2|0,0:0|0:0,0:0:0:0:
294,225,203648,1,0,0:0:0:0:
294,225,203761,2,0,P|293:297|331:342,1,97.9999970092774,8|0,0:0|0:0,0:0:0:0:
480,249,204216,6,0,P|492:168|461:82,1,146.999995513916,2|0,0:0|0:0,0:0:0:0:
386,138,204670,2,0,P|438:132|490:82,1,97.9999970092774,8|0,0:0|0:0,0:0:0:0:
313,6,205125,2,0,P|251:-3|195:25,1,97.9999970092774,2|0,0:0|0:0,0:0:0:0:
179,29,205466,1,0,0:0:0:0:
179,29,205580,1,8,0:0:0:0:
114,169,205807,1,0,0:0:0:0:
279,221,206034,6,0,P|287:159|268:105,1,97.9999970092774,2|0,0:0|0:0,0:0:0:0:
90,0,206489,2,0,P|60:83|113:169,1,195.999994018555,12|2,0:0|0:0,0:0:0:0:
277,92,207170,2,0,P|224:74|146:91,1,97.9999970092774,0|4,0:0|0:0,0:0:0:0:
420,152,207625,1,8,0:0:0:0:
420,152,207739,1,8,0:0:0:0:
420,152,207852,6,0,P|474:141|533:87,1,97.9999970092774,4|0,0:0|0:0,0:0:0:0:
348,264,208193,2,0,P|353:319|400:384,1,97.9999970092774,0|0,0:0|0:0,0:0:0:0:
232,180,208534,2,0,P|86:178|48:197,1,146.999995513916
61,200,208989,1,0,0:0:0:0:
69,224,209102,1,0,0:0:0:0:
75,248,209215,1,0,0:0:0:0:
80,271,209329,1,0,0:0:0:0:
87,293,209442,1,0,0:0:0:0:
239,377,209670,6,0,P|309:380|399:328,1,146.999995513916,6|0,0:0|0:0,0:0:0:0:
445,267,210125,2,0,P|447:208|421:148,1,97.9999970092774,8|0,0:0|0:0,0:0:0:0:
306,83,210580,1,2,0:0:0:0:
327,226,210807,1,2,0:0:0:0:
451,155,211034,1,8,0:0:0:0:
429,10,211261,1,0,0:0:0:0:
429,10,211375,1,0,0:0:0:0:
429,10,211489,6,0,P|338:0|261:31,1,146.999995513916,2|0,0:0|0:0,0:0:0:0:
234,92,211943,2,0,P|274:57|281:-15,1,97.9999970092774,8|0,0:0|0:0,0:0:0:0:
119,66,212398,2,0,P|118:131|139:168,1,97.9999970092774,2|0,0:0|0:0,0:0:0:0:
227,194,212739,1,0,0:0:0:0:
227,194,212852,2,0,P|166:193|118:222,1,97.9999970092774,8|0,0:0|0:0,0:0:0:0:
223,327,213307,6,0,B|275:356|275:356|404:290,1,195.999994018555,2|8,0:0|0:0,0:0:0:0:
491,180,213989,1,0,0:0:0:0:
369,37,214216,2,0,P|302:18|225:43,1,146.999995513916,2|0,0:0|0:0,0:0:0:0:
232,135,214670,2,0,P|239:73|214:15,1,97.9999970092774,8|0,0:0|0:0,0:0:0:0:
93,183,215125,6,0,P|86:245|111:303,1,97.9999970092774,2|0,0:0|0:0,0:0:0:0:
169,332,215466,1,0,0:0:0:0:
169,332,215580,2,0,P|234:322|279:283,1,97.9999970092774,8|0,0:0|0:0,0:0:0:0:
386,154,216034,1,2,0:0:0:0:
370,313,216261,1,2,0:0:0:0:
295,174,216489,1,8,0:0:0:0:
468,226,216716,1,8,0:0:0:0:
468,226,216830,1,8,0:0:0:0:
468,226,216943,6,0,P|484:144|446:60,1,146.999995513916,2|0,0:0|0:0,0:0:0:0:
330,81,217398,2,0,P|346:128|409:155,1,97.9999970092774,12|0,0:0|0:0,0:0:0:0:
262,0,217852,2,0,P|224:61|249:165,1,146.999995513916,2|0,0:0|0:0,0:0:0:0:
360,247,218307,2,0,P|346:179|304:146,1,97.9999970092774,12|0,0:0|0:0,0:0:0:0:
149,173,218761,5,2,0:0:0:0:
213,333,218989,1,8,0:0:0:0:
246,184,219216,1,8,0:0:0:0:
94,278,219443,1,8,0:0:0:0:
31,122,219670,1,8,0:0:0:0:
45,78,219783,1,8,0:0:0:0:
75,44,219897,1,8,0:0:0:0:
114,22,220010,1,8,0:0:0:0:
159,19,220124,2,0,P|222:31|250:55,1,97.9999970092774,8|0,0:0|0:0,0:0:0:0:
259,200,220580,6,0,P|261:113|342:30,1,195.999994018555,4|0,0:0|0:0,0:0:0:0:
406,165,221261,2,0,L|225:89,1,195.999994018555,2|0,0:0|0:0,0:0:0:0:
74,156,221943,1,8,0:0:0:0:
185,260,222170,6,0,P|231:173|190:63,1,195.999994018555,4|0,0:0|0:0,0:0:0:0:
74,156,222852,1,8,0:0:0:0:
185,260,223080,1,8,0:0:0:0:
185,260,223193,1,8,0:0:0:0:
185,260,223307,2,0,L|194:184,1,48.9999985046387,8|0,0:0|0:0,0:0:0:0:
276,217,223534,1,8,0:0:0:0:
276,217,223648,1,0,0:0:0:0:
276,217,223761,2,0,L|283:286,2,48.9999985046387,8|0|0,0:0|0:0|0:0,0:0:0:0:
344,74,224216,6,0,B|386:98|386:98|499:63,1,146.999995513916,6|0,0:0|0:0,0:0:0:0:
512,188,224670,2,0,L|486:305,1,97.9999970092774,2|0,0:0|0:0,0:0:0:0:
287,354,225125,2,0,B|261:318|261:318|281:182,1,146.999995513916,2|0,0:0|0:0,0:0:0:0:
363,80,225580,2,0,P|401:129|382:190,1,97.9999970092774,2|0,0:0|0:0,0:0:0:0:
276,202,226034,5,2,0:0:0:0:
158,132,226261,1,2,0:0:0:0:
232,6,226489,1,2,0:0:0:0:
363,80,226716,1,2,0:0:0:0:
158,132,226943,5,8,0:0:0:0:
146,131,227056,1,8,0:0:0:0:
135,130,227170,1,8,0:0:0:0:
123,129,227283,1,8,0:0:0:0:
112,128,227397,1,8,0:0:0:0:
101,126,227511,1,8,0:0:0:0:
90,125,227624,1,8,0:0:0:0:
78,124,227738,1,8,0:0:0:0:
67,123,227852,6,0,L|81:298,1,167.999994873047,6|8,0:0|0:0,0:0:0:0:
206,375,228534,1,0,0:0:0:0:
212,355,228648,1,0,0:0:0:0:
213,335,228761,2,0,P|213:284|167:211,1,125.999996154785,2|0,0:0|0:0,0:0:0:0:
80,290,229216,2,0,P|79:340|109:390,1,83.9999974365235,8|0,0:0|0:0,0:0:0:0:
251,384,229670,6,0,L|379:372,1,125.999996154785,2|0,0:0|0:0,0:0:0:0:
436,279,230125,2,0,P|417:229|363:196,1,83.9999974365235,8|0,0:0|0:0,0:0:0:0:
239,195,230580,1,2,0:0:0:0:
334,290,230807,1,0,0:0:0:0:
369,137,231034,1,8,0:0:0:0:
232,55,231261,1,0,0:0:0:0:
232,55,231375,1,0,0:0:0:0:
232,55,231489,6,0,L|129:53,1,83.9999974365235,2|0,0:0|0:0,0:0:0:0:
18,148,231943,2,0,L|121:146,1,83.9999974365235,8|0,0:0|0:0,0:0:0:0:
258,185,232398,2,0,P|257:277|232:330,1,125.999996154785,2|0,0:0|0:0,0:0:0:0:
164,303,232852,2,0,P|217:297|263:322,1,83.9999974365235,8|0,0:0|0:0,0:0:0:0:
61,205,233307,6,0,P|62:113|87:60,1,125.999996154785,2|0,0:0|0:0,0:0:0:0:
141,122,233761,2,0,P|95:109|69:48,1,83.9999974365235,8|0,0:0|0:0,0:0:0:0:
195,22,234216,1,2,0:0:0:0:
258,158,234443,1,2,0:0:0:0:
141,122,234670,1,8,0:0:0:0:
281,68,234898,1,8,0:0:0:0:
298,63,235011,1,8,0:0:0:0:
312,60,235125,6,0,P|380:57|450:82,1,125.999996154785,2|0,0:0|0:0,0:0:0:0:
339,166,235580,2,0,P|240:145|234:139,1,83.9999974365235,12|0,0:0|0:0,0:0:0:0:
131,87,236034,1,2,0:0:0:0:
89,202,236261,1,2,0:0:0:0:
22,82,236489,1,8,0:0:0:0:
166,160,236716,1,0,0:0:0:0:
174,172,236830,1,0,0:0:0:0:
178,184,236943,6,0,P|185:246|177:324,1,125.999996154785,2|0,0:0|0:0,0:0:0:0:
268,373,237398,2,0,L|365:357,1,83.9999974365235,12|0,0:0|0:0,0:0:0:0:
474,282,237852,1,2,0:0:0:0:
414,158,238080,1,2,0:0:0:0:
368,288,238307,1,8,0:0:0:0:
297,145,238534,1,8,0:0:0:0:
295,132,238648,1,8,0:0:0:0:
296,116,238761,6,0,P|299:64|314:33,1,83.9999974365235,6|0,0:0|0:0,0:0:0:0:
414,158,239216,1,12,0:0:0:0:
278,197,239443,1,0,0:0:0:0:
266,198,239557,1,0,0:0:0:0:
253,198,239670,2,0,P|176:174|150:148,1,83.9999974365235,2|0,0:0|0:0,0:0:0:0:
92,41,240125,1,12,0:0:0:0:
156,145,240352,1,0,0:0:0:0:
160,156,240466,1,0,0:0:0:0:
162,166,240580,6,0,P|160:233|133:297,1,125.999996154785,2|0,0:0|0:0,0:0:0:0:
69,324,241034,2,0,P|141:307|181:319,1,83.9999974365235,8|0,0:0|0:0,0:0:0:0:
328,380,241489,2,0,P|256:383|201:354,1,125.999996154785,2|0,0:0|0:0,0:0:0:0:
149,308,241943,1,8,0:0:0:0:
133,162,242170,6,0,P|130:79|170:-19,1,167.999994873047,6|0,0:0|0:0,0:0:0:0:
302,98,242852,2,0,L|298:193,1,83.9999974365235,2|0,0:0|0:0,0:0:0:0:
159,269,243307,1,2,0:0:0:0:
214,166,243534,1,0,0:0:0:0:
277,264,243761,1,2,0:0:0:0:
100,197,243989,6,0,P|43:139|47:40,1,167.999994873047,12|0,0:0|0:0,0:0:0:0:
224,83,244670,2,0,P|221:142|203:186,1,83.9999974365235,2|0,0:0|0:0,0:0:0:0:
285,9,245125,2,0,P|314:56|309:122,1,83.9999974365235,2|8,0:0|0:0,0:0:0:0:
217,214,245580,1,8,0:0:0:0:
179,232,245693,1,8,0:0:0:0:
138,239,245807,1,8,0:0:0:0:
97,231,245920,1,8,0:0:0:0:
60,211,246034,6,0,L|63:134,1,70,6|0,0:0|0:0,0:0:0:0:
139,56,246489,1,0,0:0:0:0:
268,96,246716,2,0,P|352:95|401:37,1,140
390,29,247398,1,0,0:0:0:0:
268,96,247625,6,0,P|328:151|407:162,1,140
425,138,248350,5,0,0:0:0:0:
368,213,248617,5,0,0:0:0:0:
335,303,248831,6,0,P|320:360|283:386,1,93.3333333333333
179,275,249564,6,0,P|194:210|267:183,1,140
260,265,250264,1,0,0:0:0:0:
260,265,250364,6,0,P|231:345|115:155,1,522.666666666667
