osu file format v14

[General]
AudioFilename: audio.mp3
AudioLeadIn: 0
PreviewTime: -1
Countdown: 0
SampleSet: Soft
StackLeniency: 0.6
Mode: 0
LetterboxInBreaks: 0
WidescreenStoryboard: 0

[Editor]
DistanceSpacing: 1.7
BeatDivisor: 4
GridSize: 4
TimelineZoom: 1

[Metadata]
Title:changes
TitleUnicode:changes
Artist:XXXTentacion
ArtistUnicode:XXXTentacion
Creator:Lolipop
Version:Empty
Source:
Tags:ambient edm electronic male vocals
BeatmapID:1801914
BeatmapSetID:861313

[Difficulty]
HPDrainRate:6
CircleSize:3.8
OverallDifficulty:7
ApproachRate:8.4
SliderMultiplier:1.45
SliderTickRate:1

[Events]
//Background and Video events
0,0,"bg.jpg",0,0
//Break Periods
2,45011,47352
2,48242,51044
2,51934,55890
//Storyboard Layer 0 (Background)
//Storyboard Layer 1 (Fail)
//Storyboard Layer 2 (Pass)
//Storyboard Layer 3 (Foreground)
//Storyboard Sound Samples

[TimingPoints]
42,461.538461538462,4,2,0,40,1,0
42,-500,4,2,0,40,0,0
13426,-250,4,2,0,40,0,0
29580,-166.666666666667,4,2,0,40,0,0
59118,-125,4,2,0,40,0,0
73888,-100,4,2,0,40,0,1

[Colours]
Combo1 : 120,121,122
Combo2 : 199,199,199

[HitObjects]
98,145,42,6,0,P|126:142|159:132,1,58
324,86,1888,2,0,P|321:114|311:147,1,58
163,248,3734,2,0,L|221:242,1,58
371,149,5580,2,0,L|313:143,1,58
139,305,7426,6,0,P|149:277|151:247,1,58
261,188,9272,2,0,P|264:217|274:245,1,58
371,287,11118,1,0,0:0:0:0:
383,299,12042,1,0,0:0:0:0:
393,312,12965,1,0,0:0:0:0:
484,262,13426,6,0,L|491:223,1,29
427,127,13888,2,0,L|415:173,1,38.6666666666667
371,187,14349,2,0,L|344:228,1,38.6666666666667
313,254,14811,2,0,B|290:250|274:258|254:250,1,58
170,172,15734,1,0,0:0:0:0:
95,296,16195,6,0,L|103:263,1,29
69,145,16657,2,0,L|77:178,1,29
176,200,17118,2,0,L|168:167,1,29
147,57,17580,6,0,L|139:90,1,29
69,145,18042,2,0,L|75:173,1,29
101,267,18503,2,0,P|131:276|161:276,1,58
255,211,19426,1,0,0:0:0:0:
359,142,19888,6,0,L|366:113,1,29
437,195,20349,2,0,L|444:224,1,29
359,142,20811,2,0,L|366:113,1,29
473,66,21272,6,0,L|444:70,1,29
313,38,21734,2,0,L|342:34,1,29
444,69,22195,2,0,P|451:101|451:135,1,58
392,223,23118,1,0,0:0:0:0:
281,280,23580,5,0,0:0:0:0:
361,301,23811,1,0,0:0:0:0:
392,223,24042,2,0,L|387:194,1,29
423,121,24503,2,0,L|462:128,1,29
353,65,24965,6,0,L|314:72,1,29
193,135,25426,2,0,L|232:142,1,29
319,223,25888,2,0,P|321:189|309:156,1,58
238,48,26811,1,0,0:0:0:0:
110,152,27272,6,0,P|152:152|199:130,1,87
238,48,28195,1,0,0:0:0:0:
279,127,28426,1,0,0:0:0:0:
346,192,28657,6,0,L|402:187,1,38.6666666666667
427,215,29118,2,0,L|432:271,1,38.6666666666667
417,297,29580,2,0,P|376:312|324:304,1,86.9999973449708
228,200,30503,1,0,0:0:0:0:
169,316,30965,6,0,P|141:317|117:310,1,43.4999986724854
127,190,31426,2,0,P|128:218|121:242,1,43.4999986724854
39,188,31888,2,0,P|34:166|36:145,1,43.4999986724854
112,97,32349,6,0,L|161:91,1,43.4999986724854
214,160,32811,2,0,L|263:154,1,43.4999986724854
417,94,33272,2,0,P|374:82|326:96,1,86.9999973449708
249,241,34195,1,0,0:0:0:0:
428,272,34657,6,0,P|436:248|439:229,1,43.4999986724854
417,94,35118,2,0,P|409:118|406:137,1,43.4999986724854
326,283,35580,2,0,P|334:259|337:240,1,43.4999986724854
315,105,36042,6,0,P|307:129|304:148,1,43.4999986724854
216,156,36503,2,0,P|221:180|227:198,1,43.4999986724854
334,324,36965,2,0,P|346:281|332:233,1,86.9999973449708
216,156,37888,1,0,0:0:0:0:
80,316,38349,5,0,0:0:0:0:
113,238,38580,1,0,0:0:0:0:
124,148,38811,2,0,P|122:118|116:93,1,43.4999986724854
27,41,39272,2,0,P|48:37|70:36,1,43.4999986724854
237,62,39734,6,0,P|215:65|193:66,1,43.4999986724854
70,36,40195,1,0,0:0:0:0:
225,155,40657,2,0,P|223:176|218:197,1,43.4999986724854
49,206,41118,2,0,P|90:212|131:251,1,86.9999973449708
82,319,42042,2,0,P|42:267|55:193,1,130.499996017456
103,128,42965,5,0,0:0:0:0:
192,153,43195,1,0,0:0:0:0:
277,210,43426,6,0,P|310:211|341:204,1,57.9999982299805
377,235,43888,2,0,P|375:263|380:292,1,57.9999982299805
456,335,44349,1,0,0:0:0:0:
377,235,44811,1,0,0:0:0:0:
162,155,48042,5,0,0:0:0:0:
185,170,51734,5,0,0:0:0:0:
256,192,56580,12,0,58657,0:0:0:0:
126,143,59118,6,0,P|177:120|250:133,1,116
254,259,60042,2,0,P|203:282|130:269,1,116
189,200,60734,1,0,0:0:0:0:
272,169,60965,2,0,P|254:141|223:120,1,58
143,118,61426,1,0,0:0:0:0:
155,305,61657,6,0,P|186:258|187:194,1,116
143,118,62349,1,0,0:0:0:0:
99,202,62580,1,0,0:0:0:0:
234,125,62811,1,0,0:0:0:0:
259,149,63734,1,0,0:0:0:0:
342,254,64195,6,0,P|345:221|334:185,1,58
259,149,64657,1,0,0:0:0:0:
340,197,64888,1,0,0:0:0:0:
208,233,65118,1,0,0:0:0:0:
308,332,65349,6,0,L|181:321,1,116
117,264,66042,5,0,0:0:0:0:
135,177,66272,1,0,0:0:0:0:
192,321,66503,1,0,0:0:0:0:
180,340,67426,1,0,0:0:0:0:
135,177,67888,6,0,P|132:144|143:108,1,58
51,93,68349,2,0,P|64:62|92:37,1,58
174,29,68811,1,0,0:0:0:0:
250,81,69042,2,0,B|294:85|338:59|338:59|319:109|342:166,1,174
403,190,69965,2,0,B|362:233|310:221|310:221|312:261|273:286,1,174
279,281,71118,1,0,0:0:0:0:
132,242,71580,2,0,B|172:223|200:228|200:228|174:277|197:337,1,174
279,281,72503,6,0,P|293:239|285:186,1,77.3333333333333
153,139,72965,2,0,P|196:137|239:147,1,77.3333333333333
366,193,73426,2,0,P|323:195|281:209,1,77.3333333333333
229,274,73888,6,0,B|170:294|170:294|79:280,1,145
59,190,74580,1,0,0:0:0:0:
18,334,74811,2,0,P|5:296|8:254,1,72.5
58,189,75272,2,0,L|131:181,1,72.5
183,81,75734,2,0,L|255:72,1,72.5
255,72,76195,2,0,L|182:80,1,72.5
131,181,76657,6,0,P|136:216|154:248,1,72.5
329,248,77118,2,0,P|323:212|305:180,1,72.5
243,242,77580,2,0,P|213:320|136:342,2,145
153,251,78734,5,0,0:0:0:0:
321,332,78965,2,0,P|356:326|388:308,1,72.5
421,163,79426,2,0,P|426:198|444:230,1,72.5
480,99,79888,2,0,P|448:81|412:75,1,72.5
325,131,80349,6,0,L|223:126,1,72.5
142,40,80811,2,0,L|244:45,1,72.5
325,131,81272,2,0,P|327:191|258:252,1,145
163,234,81965,1,0,0:0:0:0:
210,317,82195,2,0,P|248:335|292:336,1,72.5
207,153,82657,5,0,0:0:0:0:
163,234,82888,1,0,0:0:0:0:
13,226,83118,2,0,P|41:207|88:197,1,72.5
163,234,83580,2,0,P|195:243|243:238,1,72.5
209,83,84042,2,0,P|200:115|205:163,1,72.5
315,203,84503,2,0,P|324:235|319:283,1,72.5
258,335,84965,6,0,B|173:348|173:348|102:331,2,145
233,240,86118,1,0,0:0:0:0:
321,273,86349,2,0,P|374:241|305:134,1,217.5
225,159,87272,2,0,P|189:161|154:152,1,72.5
51,84,87734,6,0,P|34:131|44:198,1,96.6666666666667
110,267,88195,2,0,P|62:264|17:281,1,96.6666666666667
80,351,88657,2,0,P|115:355|195:278,1,145
178,192,89349,1,0,0:0:0:0:
257,231,89580,2,0,P|301:237|346:230,1,72.5
416,128,90042,6,0,P|410:172|417:217,1,72.5
512,161,90503,2,0,P|514:124|508:89,1,72.5
324,87,90965,2,0,P|318:122|320:158,1,72.5
320,158,91426,6,0,P|318:122|324:87,1,72.5
226,168,91888,2,0,P|239:202|260:232,1,72.5
341,275,92349,2,0,P|419:305|441:382,2,145
354,361,93503,1,0,0:0:0:0:
253,302,93734,6,0,P|250:266|259:231,1,72.5
336,155,94195,2,0,P|300:157|265:148,1,72.5
187,96,94657,2,0,P|151:93|116:102,1,72.5
42,181,95118,2,0,L|47:253,1,72.5
144,328,95580,2,0,L|149:255,1,72.5
116,102,96042,2,0,P|165:169|245:170,2,145
174,32,97195,1,0,0:0:0:0:
250,90,97426,6,0,P|286:90|330:84,1,72.5
402,34,97888,1,0,0:0:0:0:
396,136,98118,1,0,0:0:0:0:
