osu file format v14

[General]
AudioFilename: audio.mp3
AudioLeadIn: 0
PreviewTime: 13425
Countdown: 0
SampleSet: None
StackLeniency: 0.4
Mode: 0
LetterboxInBreaks: 0
WidescreenStoryboard: 0

[Editor]
Bookmarks: 29587,58210,58902,72518
DistanceSpacing: 0.5
BeatDivisor: 6
GridSize: 4
TimelineZoom: 0.6999999

[Metadata]
Title:changes
TitleUnicode:changes
Artist:XXXTENTACION
ArtistUnicode:XXXTENTACION
Creator:Mapper
Version:fragile
Source:
Tags:? piano emo ballad sad x
BeatmapID:1703590
BeatmapSetID:812167

[Difficulty]
HPDrainRate:9.7
CircleSize:6
OverallDifficulty:6
ApproachRate:6.5
SliderMultiplier:1.8
SliderTickRate:1

[Events]
//Background and Video events
0,0,"frd.jpg",0,0
//Break Periods
//Storyboard Layer 0 (Background)
//Storyboard Layer 1 (Fail)
//Storyboard Layer 2 (Pass)
//Storyboard Layer 3 (Foreground)
//Storyboard Sound Samples

[TimingPoints]
81,916.030534351145,4,2,1,35,1,0
1913,-100,4,2,1,20,0,0
3745,-100,4,2,1,35,0,0
5577,-100,4,2,1,20,0,0
7409,923.076923076923,4,2,1,35,1,0
9255,-100,4,2,1,20,0,0
12543,-200,4,2,1,20,0,0
12716,-200,4,2,1,5,0,0
12925,1000,4,2,1,35,1,0
12925,-200,4,2,1,35,0,0
14859,916.030534351145,4,2,1,35,1,0
15088,-100,4,2,1,5,0,0
15317,-100,4,2,1,35,0,0
17034,-100,4,2,1,5,0,0
17149,-83.3333333333333,4,2,1,35,0,0
17492,-83.3333333333333,4,2,1,5,0,0
17607,-71.4285714285714,4,2,1,35,0,0
17950,-71.4285714285714,4,2,1,5,0,0
18065,-100,4,2,1,35,0,0
18408,-100,4,2,1,5,0,0
18523,-100,4,2,1,35,0,0
19057,-100,4,2,1,5,0,0
19210,-100,4,2,1,35,0,0
19668,-100,4,2,1,5,0,0
19897,-100,4,2,1,35,0,0
20240,-100,4,2,1,5,0,0
20355,-100,4,2,1,35,0,0
20698,-100,4,2,1,5,0,0
20813,-83.3333333333333,4,2,1,35,0,0
21156,-83.3333333333333,4,2,1,5,0,0
21271,-71.4285714285714,4,2,1,35,0,0
21614,-71.4285714285714,4,2,1,5,0,0
21729,-100,4,2,1,35,0,0
22072,-100,4,2,1,5,0,0
22187,-100,4,2,1,35,0,0
23332,-100,4,2,1,5,0,0
23561,-100,4,2,1,35,0,0
24019,952.380952380952,4,2,1,35,1,0
24019,-100,4,2,1,35,0,0
24376,-100,4,2,1,5,0,0
24495,-83.3333333333333,4,2,1,35,0,0
24852,-83.3333333333333,4,2,1,5,0,0
24971,923.361034164358,4,2,1,35,1,0
24971,-71.4285714285714,4,2,1,35,0,0
25317,-71.4285714285714,4,2,1,5,0,0
25432,-100,4,2,1,35,0,0
25778,-100,4,2,1,5,0,0
25894,-100,4,2,1,35,0,0
27279,-200,4,2,1,35,0,0
28664,-66.6666666666667,4,2,1,35,0,0
29587,-90.9090909090909,4,2,1,75,0,0
29818,-90.9090909090909,4,2,1,5,0,0
30049,-90.9090909090909,4,2,1,50,0,0
31780,-90.9090909090909,4,2,1,5,0,0
31896,-76.9230769230769,4,2,1,50,0,0
32242,-76.9230769230769,4,2,1,5,0,0
32357,-66.6666666666667,4,2,1,50,0,0
32704,-66.6666666666667,4,2,1,5,0,0
32819,-90.9090909090909,4,2,1,50,0,0
33165,-90.9090909090909,4,2,1,5,0,0
33281,-90.9090909090909,4,2,1,50,0,0
33512,-90.9090909090909,4,2,1,5,0,0
33742,-90.9090909090909,4,2,1,50,0,0
33819,-90.9090909090909,4,2,1,5,0,0
33973,-90.9090909090909,4,2,1,50,0,0
35012,-90.9090909090909,4,2,1,5,0,0
35128,-76.9230769230769,4,2,1,50,0,0
35474,-76.9230769230769,4,2,1,5,0,0
35589,-66.6666666666667,4,2,1,50,0,0
35936,-66.6666666666667,4,2,1,5,0,0
36051,-90.9090909090909,4,2,1,50,0,0
36397,-90.9090909090909,4,2,1,5,0,0
36513,-90.9090909090909,4,2,1,50,0,0
36859,-90.9090909090909,4,2,1,5,0,0
36974,-90.9090909090909,4,2,1,50,0,0
39167,-90.9090909090909,4,2,1,5,0,0
39283,-76.9230769230769,4,2,1,50,0,0
39629,-76.9230769230769,4,2,1,5,0,0
39744,-66.6666666666667,4,2,1,50,0,0
40091,-66.6666666666667,4,2,1,5,0,0
40206,-100,4,2,1,50,0,0
40552,-100,4,2,1,5,0,0
40668,-100,4,2,1,50,0,0
42053,-200,4,2,1,50,0,0
43438,-66.6666666666667,4,2,1,50,0,0
44361,-200,4,2,1,35,0,0
46900,-100,4,2,1,35,0,0
47016,-100,4,2,1,10,0,0
47131,-100,4,2,1,35,0,0
47939,-100,4,2,1,10,0,0
48055,-200,4,2,1,35,0,0
48747,-200,4,2,1,5,0,0
48978,-200,4,2,1,35,0,0
50594,-100,4,2,1,35,0,0
50902,-100,4,2,1,10,0,0
51286,-100,4,2,1,35,0,0
51633,-100,4,2,1,10,0,0
51748,-200,4,2,1,35,0,0
52440,-200,4,2,1,5,0,0
52671,-200,4,2,1,35,0,0
54287,-100,4,2,1,35,0,0
54402,-100,4,2,1,10,0,0
54518,923.076923076923,4,2,1,35,1,0
55441,923.076923076923,4,2,1,35,1,0
55441,-200,4,2,1,35,0,0
56133,-200,4,2,1,5,0,0
56364,-200,4,2,1,35,0,0
58441,-200,4,2,1,10,0,0
58671,-200,4,2,1,15,0,0
59133,-133.333333333333,4,2,1,35,0,0
59825,-133.333333333333,4,2,1,5,0,0
60056,-133.333333333333,4,2,1,35,0,0
61671,-100,4,2,1,35,0,0
61787,-100,4,2,1,10,0,0
61902,-100,4,2,1,35,0,0
62825,-200,4,2,1,35,0,0
63517,-200,4,2,1,5,0,0
63748,-200,4,2,1,35,0,0
65364,-100,4,2,1,35,0,0
65479,-100,4,2,1,10,0,0
65594,-100,4,2,1,35,0,0
66517,-200,4,2,1,35,0,0
67210,-200,4,2,1,5,0,0
67441,-200,4,2,1,35,0,0
69056,-100,4,2,1,35,0,0
69171,-100,4,2,1,10,0,0
69287,-100,4,2,1,35,0,0
70210,-100,4,2,1,10,0,0
70325,-100,4,2,1,35,0,0
71652,-100,4,2,1,10,0,0
71825,-200,4,2,1,10,0,0
72517,-200,4,2,1,35,0,0
72979,-66.6666666666667,4,2,1,50,0,0
73902,-83.3333333333333,4,2,1,100,0,1
74133,-83.3333333333333,4,2,1,5,0,0
74364,-83.3333333333333,4,2,1,65,0,0
75056,-83.3333333333333,4,2,1,5,0,0
75287,-83.3333333333333,4,2,1,65,0,0
75633,-83.3333333333333,4,2,1,5,0,0
75748,-71.4285714285714,4,2,1,65,0,0
76094,-71.4285714285714,4,2,1,5,0,0
76210,-62.5,4,2,1,65,0,0
76556,-62.5,4,2,1,5,0,0
76671,-55.5555555555556,4,2,1,65,0,0
77017,-55.5555555555556,4,2,1,5,0,0
77133,-50,4,2,1,65,0,0
77479,-50,4,2,1,5,0,0
77594,-83.3333333333333,4,2,1,65,0,0
78748,-83.3333333333333,4,2,1,5,0,0
78979,-83.3333333333333,4,2,1,65,0,0
79325,-83.3333333333333,4,2,1,5,0,0
79440,-71.4285714285714,4,2,1,65,0,0
79786,-71.4285714285714,4,2,1,5,0,0
79902,-62.5,4,2,1,65,0,0
80248,-62.5,4,2,1,5,0,0
80363,-55.5555555555556,4,2,1,65,0,0
80709,-55.5555555555556,4,2,1,5,0,0
80825,-50,4,2,1,65,0,0
81171,-50,4,2,1,5,0,0
81286,-83.3333333333333,4,2,1,65,0,0
82440,-83.3333333333333,4,2,1,5,0,0
82671,-83.3333333333333,4,2,1,65,0,0
83479,-83.3333333333333,4,2,1,5,0,0
83594,-71.4285714285714,4,2,1,65,0,0
83940,-71.4285714285714,4,2,1,5,0,0
84056,-62.5,4,2,1,65,0,0
84402,-62.5,4,2,1,5,0,0
84517,-55.5555555555556,4,2,1,65,0,0
84863,-55.5555555555556,4,2,1,5,0,0
84979,-83.3333333333333,4,2,1,65,0,0
86594,-133.333333333333,4,2,1,65,0,0
87748,-66.6666666666667,4,2,1,65,0,0
88671,-83.3333333333333,4,2,1,100,0,1
88902,-83.3333333333333,4,2,1,5,0,0
89133,-83.3333333333333,4,2,1,65,0,0
89825,-83.3333333333333,4,2,1,5,0,0
90056,-83.3333333333333,4,2,1,65,0,0
90402,-83.3333333333333,4,2,1,5,0,0
90517,-71.4285714285714,4,2,1,65,0,0
90863,-71.4285714285714,4,2,1,5,0,0
90979,-62.5,4,2,1,65,0,0
91325,-62.5,4,2,1,5,0,0
91440,-55.5555555555556,4,2,1,65,0,0
91786,-55.5555555555556,4,2,1,5,0,0
91902,-50,4,2,1,65,0,0
92248,-50,4,2,1,5,0,0
92363,-83.3333333333333,4,2,1,65,0,0
93517,-83.3333333333333,4,2,1,5,0,0
93748,-83.3333333333333,4,2,1,65,0,0
94094,-83.3333333333333,4,2,1,5,0,0
94209,-71.4285714285714,4,2,1,65,0,0
94555,-71.4285714285714,4,2,1,5,0,0
94671,-62.5,4,2,1,65,0,0
95017,-62.5,4,2,1,5,0,0
95132,-55.5555555555556,4,2,1,65,0,0
95478,-55.5555555555556,4,2,1,5,0,0
95594,-50,4,2,1,65,0,0
95940,-50,4,2,1,5,0,0
96055,-83.3333333333333,4,2,1,65,0,0
97209,-83.3333333333333,4,2,1,5,0,0
97440,-83.3333333333333,4,2,1,65,0,0
98248,-83.3333333333333,4,2,1,5,0,0
98363,-71.4285714285714,4,2,1,65,0,0
98709,-71.4285714285714,4,2,1,5,0,0
98825,-62.5,4,2,1,65,0,0
99171,-62.5,4,2,1,5,0,0
99286,-55.5555555555556,4,2,1,65,0,0
99632,-55.5555555555556,4,2,1,5,0,0
99748,-83.3333333333333,4,2,1,65,0,0
101363,-133.333333333333,4,2,1,65,0,0
102517,-66.6666666666667,4,2,1,65,0,0
103441,-625,4,2,1,35,0,0
118671,-200,4,2,1,35,0,0

[Colours]
Combo1 : 74,74,74
Combo2 : 215,215,215

[HitObjects]
45,112,81,6,0,B|76:108|95:94|95:94|138:111|138:111|175:99|235:99,1,180,2|0,0:0|0:0,0:0:0:0:
224,109,1913,1,0,0:0:0:0:
230,118,2829,1,0,0:0:0:0:
176,276,3745,6,0,B|125:281|86:320|86:320|52:308|52:308|0:314,1,180,2|0,0:0|0:0,0:0:0:0:
18,303,5577,1,0,0:0:0:0:
26,295,6493,1,0,0:0:0:0:
307,107,7409,6,0,B|414:132|331:168|473:194,1,180,2|0,0:0|0:0,0:0:0:0:
456,181,9255,1,0,0:0:0:0:
453,171,10178,1,0,0:0:0:0:
362,196,11101,5,0,0:0:0:0:
361,208,12024,1,0,0:0:0:0:
361,208,12543,6,0,L|355:227,1,16.875
377,287,12925,2,0,P|356:295|331:296,1,45
285,250,13675,1,0,0:0:0:0:
296,343,13925,6,0,P|291:361|282:375,1,30
396,324,14425,2,0,P|391:309|385:297,1,22.5
223,360,14859,6,0,L|154:366,1,45,2|0,0:0|0:0,0:0:0:0:
140,231,15317,2,0,B|164:246|164:246|191:323,2,90,0|0|2,0:0|0:0|0:0,0:0:0:0:
60,257,16691,6,0,L|144:243,1,67.5,2|0,0:0|0:0,0:0:0:0:
140,231,17149,6,0,L|47:214,1,80.9999975280763,2|0,0:0|0:0,0:0:0:0:
47,200,17607,6,0,L|144:180,1,94.499997116089,2|0,0:0|0:0,0:0:0:0:
102,98,18065,6,0,P|89:133|87:163,1,67.5,2|0,0:0|0:0,0:0:0:0:
201,64,18523,6,0,L|147:70,1,45,2|0,0:0|0:0,0:0:0:0:
256,108,18981,2,0,P|271:105|282:101,1,15
248,117,19210,2,0,L|259:216,1,90
306,280,19897,2,0,P|297:251|273:219,1,67.5,2|0,0:0|0:0,0:0:0:0:
225,283,20355,6,0,L|156:298,1,67.5,2|0,0:0|0:0,0:0:0:0:
145,284,20813,6,0,L|59:266,1,80.9999975280763,2|0,0:0|0:0,0:0:0:0:
49,282,21271,6,0,P|79:266|105:207,1,94.499997116089,2|0,0:0|0:0,0:0:0:0:
47,167,21729,6,0,P|67:199|93:218,1,67.5,2|0,0:0|0:0,0:0:0:0:
224,151,22187,6,0,L|131:147,1,90,2|0,0:0|0:0,0:0:0:0:
85,77,22874,2,0,P|106:90|134:150,1,90
197,54,23561,1,0,0:0:0:0:
228,174,23790,1,0,0:0:0:0:
269,15,24019,6,0,P|232:31|191:38,1,67.5,2|0,0:0|0:0,0:0:0:0:
197,54,24495,6,0,P|234:70|279:78,1,80.9999975280763,2|0,0:0|0:0,0:0:0:0:
285,97,24971,6,0,P|248:113|190:122,1,94.499997116089,2|0,0:0|0:0,0:0:0:0:
245,208,25432,6,0,L|249:139,1,67.5,2|0,0:0|0:0,0:0:0:0:
345,43,25894,6,0,P|346:66|358:134,1,90,2|0,0:0|0:0,0:0:0:0:
458,134,26586,2,0,P|439:116|420:105,1,45
423,107,27279,1,0,0:0:0:0:
411,184,27510,6,0,L|416:256,1,67.5
469,309,28433,1,0,0:0:0:0:
310,268,28664,6,0,P|366:243|415:247,1,101.250003862381
433,355,29126,2,0,P|402:346|374:323,1,67.5000025749208
317,199,29587,6,0,P|341:191|365:187,1,49.5000015106202,6|0,0:0|0:0,0:0:0:0:
284,139,30049,2,0,P|286:173|243:243,2,99.0000030212403,0|0|2,0:0|0:0|0:0,0:0:0:0:
157,72,31434,6,0,L|240:64,1,74.2500022659302,2|0,0:0|0:0,0:0:0:0:
244,49,31896,6,0,P|279:55|338:47,1,87.749995983124,2|0,0:0|0:0,0:0:0:0:
348,66,32357,6,0,P|315:86|281:153,1,101.250003862381,2|0,0:0|0:0,0:0:0:0:
393,122,32819,6,0,P|362:94|345:59,1,74.2500022659302,2|0,0:0|0:0,0:0:0:0:
284,159,33281,6,0,L|292:214,1,49.5000015106202,2|0,0:0|0:0,0:0:0:0:
356,284,33742,2,0,L|333:282,1,16.5000005035401
401,231,33973,2,0,P|392:272|400:345,1,99.0000030212403
303,367,34666,2,0,P|261:357|215:358,1,74.2500022659302,2|0,0:0|0:0,0:0:0:0:
216,345,35127,6,0,P|250:336|285:315,1,74.2500022659302,2|0,0:0|0:0,0:0:0:0:
290,294,35589,6,0,P|251:297|192:272,1,101.250003862381,2|0,0:0|0:0,0:0:0:0:
186,259,36051,6,0,P|230:248|265:222,1,74.2500022659302,2|0,0:0|0:0,0:0:0:0:
155,191,36513,6,0,P|132:210|114:261,1,74.2500022659302,2|0,0:0|0:0,0:0:0:0:
113,134,36974,6,0,B|130:151|130:151|223:164,1,99.0000030212403,2|0,0:0|0:0,0:0:0:0:
101,73,37667,2,0,P|103:109|118:139,1,49.5000015106202
107,121,38359,1,0,0:0:0:0:
188,72,38590,1,0,0:0:0:0:
43,3,38821,6,0,P|40:33|27:80,1,74.2500022659302,2|0,0:0|0:0,0:0:0:0:
16,90,39283,6,0,P|49:77|110:75,1,87.749995983124,2|0,0:0|0:0,0:0:0:0:
119,90,39744,6,0,P|87:114|58:175,1,101.250003862381,2|0,0:0|0:0,0:0:0:0:
102,247,40206,6,0,L|106:319,1,67.5,2|0,0:0|0:0,0:0:0:0:
177,200,40668,6,0,P|155:222|83:250,1,90,2|0,0:0|0:0,0:0:0:0:
15,163,41360,2,0,P|42:162|69:173,1,45
59,167,42053,6,0,B|67:112|51:136|58:78,1,90
136,30,43207,1,0,0:0:0:0:
207,142,43438,6,0,P|161:128|122:93,1,90.0000034332277
227,232,43899,2,0,B|234:206|234:206|220:138,1,84.3750032186509
124,284,44361,6,0,L|120:334,1,50.625,2|0,0:0|0:0,0:0:0:0:
192,290,45111,2,0,P|166:280|131:279,1,61.875
206,370,45977,1,0,0:0:0:0:
259,296,46208,5,0,0:0:0:0:
325,382,46439,1,0,0:0:0:0:
326,254,46669,1,0,0:0:0:0:
416,150,46900,6,0,P|421:136|424:125,1,22.5
333,90,47131,2,0,L|433:102,1,90
458,211,47824,1,0,0:0:0:0:
458,218,47939,1,0,0:0:0:0:
445,243,48055,6,0,P|437:280|437:313,1,67.5,2|0,0:0|0:0,0:0:0:0:
505,366,48978,2,0,L|457:364,1,45
445,243,49670,1,0,0:0:0:0:
374,357,49901,5,0,0:0:0:0:
388,200,50132,1,0,0:0:0:0:
499,306,50363,1,0,0:0:0:0:
360,141,50594,6,0,L|356:95,1,45
419,61,50902,2,0,P|393:85|354:96,1,75
233,34,51517,2,0,L|208:30,1,22.5
239,44,51748,6,0,L|246:118,1,67.5,2|0,0:0|0:0,0:0:0:0:
181,187,52671,2,0,P|202:181|226:168,1,45
125,136,53364,1,0,0:0:0:0:
245,111,53595,5,0,0:0:0:0:
83,78,53826,1,0,0:0:0:0:
251,45,54056,1,0,0:0:0:0:
54,137,54287,6,0,L|28:145,1,22.5
1,207,54518,2,0,P|22:191|55:129,1,90
55,256,55210,1,0,0:0:0:0:
54,263,55325,1,0,0:0:0:0:
37,289,55441,6,0,P|38:329|48:359,1,67.5
141,304,56364,2,0,L|190:299,1,45
246,348,57056,2,0,P|227:324|213:239,1,112.5
257,354,58441,2,0,L|301:348,1,45
379,235,59133,6,0,B|399:225|416:224|416:224|442:243|486:251,1,101.250003862381,2|0,0:0|0:0,0:0:0:0:
388,309,60056,2,0,L|376:379,1,67.5000025749208
324,280,60748,1,0,0:0:0:0:
423,349,60979,5,0,0:0:0:0:
286,360,61210,1,0,0:0:0:0:
378,249,61441,1,0,0:0:0:0:
289,136,61671,6,0,P|304:139|317:143,1,22.5
242,201,61902,2,0,P|285:193|321:143,1,90
228,61,62594,1,0,0:0:0:0:
226,55,62710,1,0,0:0:0:0:
230,24,62825,6,0,P|261:40|301:47,1,67.5,2|0,0:0|0:0,0:0:0:0:
366,103,63748,2,0,P|363:88|365:55,1,45
437,159,64441,1,0,0:0:0:0:
422,30,64671,5,0,0:0:0:0:
368,171,64902,1,0,0:0:0:0:
478,90,65133,1,0,0:0:0:0:
409,222,65364,6,0,L|382:227,1,22.5
419,318,65594,2,0,P|422:287|416:222,1,90
253,318,66287,1,0,0:0:0:0:
249,323,66402,1,0,0:0:0:0:
237,353,66517,6,0,L|310:343,1,67.5,2|0,0:0|0:0,0:0:0:0:
321,245,67441,2,0,P|332:269|335:295,1,45
246,235,68133,1,0,0:0:0:0:
386,237,68364,5,0,0:0:0:0:
263,171,68594,1,0,0:0:0:0:
186,310,68825,1,0,0:0:0:0:
261,159,69056,6,0,L|256:134,1,22.5
174,185,69287,2,0,L|275:169,1,90
251,66,69979,2,0,P|221:77|206:89,1,45
207,97,70325,5,0,0:0:0:0:
203,109,71133,1,0,0:0:0:0:
226,215,71652,1,0,0:0:0:0:
156,248,71825,2,0,P|183:246|224:230,1,67.5
115,183,72748,1,0,0:0:0:0:
70,346,72979,6,0,L|186:333,1,90.0000034332277
238,360,73441,2,0,P|182:357|163:353,1,67.5000025749208
226,215,73902,6,0,P|252:208|284:209,1,53.9999983520508,6|0,0:0|0:0,0:0:0:0:
330,302,74364,1,0,0:0:0:0:
186,266,74594,2,0,P|192:231|189:155,1,107.999996704102
102,79,75287,6,0,L|193:85,1,80.9999975280763
201,66,75748,6,0,P|190:103|190:163,1,94.499997116089,2|0,0:0|0:0,0:0:0:0:
205,179,76210,6,0,P|209:148|272:88,1,108,2|0,0:0|0:0,0:0:0:0:
287,86,76671,6,0,P|275:133|294:226,1,121.499996292114,2|0,0:0|0:0,0:0:0:0:
308,228,77133,6,0,P|325:166|382:117,1,135,2|0,0:0|0:0,0:0:0:0:
421,221,77594,6,0,L|428:335,1,107.999996704102,2|0,0:0|0:0,0:0:0:0:
372,371,78287,2,0,P|453:364|502:366,1,107.999996704102
341,287,78979,6,0,P|312:304|254:320,1,80.9999975280763,2|0,0:0|0:0,0:0:0:0:
252,337,79441,6,0,P|255:293|234:218,1,94.499997116089,2|0,0:0|0:0,0:0:0:0:
230,223,79902,6,0,P|219:268|155:328,1,108,2|0,0:0|0:0,0:0:0:0:
151,320,80364,6,0,P|153:252|121:173,1,121.499996292114,2|0,0:0|0:0,0:0:0:0:
116,177,80825,6,0,P|71:241|-10:288,1,135,2|0,0:0|0:0,0:0:0:0:
53,125,81287,6,0,B|89:142|89:142|180:135,1,107.999996704102,6|0,0:0|0:0,0:0:0:0:
157,79,81979,2,0,P|133:114|115:180,1,107.999996704102
84,43,82671,1,0,0:0:0:0:
164,146,82902,1,0,0:0:0:0:
231,12,83133,6,0,L|324:17,1,80.9999975280763,2|0,0:0|0:0,0:0:0:0:
360,50,83594,6,0,L|250:57,1,94.499997116089,2|0,0:0|0:0,0:0:0:0:
211,87,84056,6,0,L|327:94,1,108,2|0,0:0|0:0,0:0:0:0:
374,127,84517,6,0,L|248:135,1,121.499996292114,2|0,0:0|0:0,0:0:0:0:
346,211,84979,6,0,P|377:196|461:184,1,107.999996704102,2|0,0:0|0:0,0:0:0:0:
485,284,85671,2,0,P|460:271|434:253,1,53.9999983520508
438,256,86364,1,0,0:0:0:0:
388,338,86594,2,0,B|326:328|355:358|284:348,1,101.250003862381
213,270,87517,1,0,0:0:0:0:
111,369,87748,6,0,L|211:355,1,90.0000034332277
38,298,88210,2,0,P|72:305|111:307,1,67.5000025749208
27,157,88671,6,0,P|14:183|7:213,1,53.9999983520508,6|0,0:0|0:0,0:0:0:0:
101,118,89133,1,0,0:0:0:0:
159,235,89364,2,0,L|291:245,1,107.999996704102
276,163,90056,6,0,P|276:200|265:245,1,80.9999975280763,2|0,0:0|0:0,0:0:0:0:
271,266,90517,6,0,P|309:244|371:236,1,94.499997116089,2|0,0:0|0:0,0:0:0:0:
381,250,90979,6,0,P|352:285|340:353,1,108,2|0,0:0|0:0,0:0:0:0:
353,372,91441,6,0,P|307:342|229:348,1,121.499996292114,2|0,0:0|0:0,0:0:0:0:
214,325,91902,6,0,P|162:356|85:361,1,135,2|0,0:0|0:0,0:0:0:0:
166,239,92364,6,0,B|170:220|175:213|175:213|161:189|161:189|167:166|164:128,1,107.999996704102,2|0,0:0|0:0,0:0:0:0:
117,70,93056,2,0,P|146:90|231:113,1,107.999996704102
11,227,93748,6,0,L|3:133,1,80.9999975280763,2|0,0:0|0:0,0:0:0:0:
48,88,94210,6,0,L|38:189,1,94.499997116089,2|0,0:0|0:0,0:0:0:0:
83,244,94671,6,0,L|74:133,1,108,2|0,0:0|0:0,0:0:0:0:
117,70,95133,6,0,L|106:194,1,121.499996292114,2|0,0:0|0:0,0:0:0:0:
152,260,95594,6,0,L|139:124,1,135,2|0,0:0|0:0,0:0:0:0:
226,242,96056,6,0,P|173:281|143:329,1,107.999996704102,6|0,0:0|0:0,0:0:0:0:
251,176,96748,2,0,B|249:205|249:205|274:303,1,107.999996704102
228,106,97441,1,0,0:0:0:0:
320,212,97671,1,0,0:0:0:0:
197,58,97902,6,0,P|243:69|293:72,1,80.9999975280763,2|0,0:0|0:0,0:0:0:0:
301,58,98364,6,0,P|344:62|388:98,1,94.499997116089,2|0,0:0|0:0,0:0:0:0:
383,119,98825,6,0,P|370:71|402:18,1,108,2|0,0:0|0:0,0:0:0:0:
425,17,99287,6,0,P|440:67|496:113,1,121.499996292114,2|0,0:0|0:0,0:0:0:0:
330,148,99748,6,0,L|459:158,1,107.999996704102,2|0,0:0|0:0,0:0:0:0:
399,232,100441,2,0,P|382:201|376:177,1,53.9999983520508
377,183,101133,1,0,0:0:0:0:
462,305,101364,2,0,B|430:302|430:302|413:308|413:308|398:297|398:297|363:292,1,101.250003862381
296,353,102287,1,0,0:0:0:0:
377,183,102517,6,0,P|377:139|355:64,1,90.0000034332277
451,229,102979,2,0,P|419:217|389:200,1,67.5000025749208
254,35,103441,6,0,B|243:94|243:94|229:112|178:119|178:119|294:138|294:138|245:146|226:161|226:161|198:302,1,460.8,2|2,0:0|0:0,0:0:0:0:
216,364,118671,6,0,P|231:368|257:372,1,30,2|2,0:0|0:0,0:0:0:0:
