osu file format v14

[General]
AudioFilename: audio.mp3
AudioLeadIn: 0
PreviewTime: 64770
Countdown: 0
SampleSet: None
StackLeniency: 0.7
Mode: 0
LetterboxInBreaks: 0
WidescreenStoryboard: 0

[Editor]
Bookmarks: 604
DistanceSpacing: 1
BeatDivisor: 4
GridSize: 32
TimelineZoom: 2

[Metadata]
Title:SAD! (nightcore)
TitleUnicode:SAD! (nightcore)
Artist:XXXTENTACION
ArtistUnicode:XXXTENTACION
Creator:Seox
Version:Lost
Source:
Tags:
BeatmapID:1755519
BeatmapSetID:838530

[Difficulty]
HPDrainRate:6
CircleSize:4
OverallDifficulty:8
ApproachRate:9.7
SliderMultiplier:1.8
SliderTickRate:1

[Events]
//Background and Video events
0,0,"59919008_p0.jpg",0,0
//Break Periods
2,43469,45126
2,86470,91150
//Storyboard Layer 0 (Background)
//Storyboard Layer 1 (Fail)
//Storyboard Layer 2 (Pass)
//Storyboard Layer 3 (Foreground)
//Storyboard Sound Samples

[TimingPoints]
21769,335.946248600224,4,1,0,100,1,0
21769,-83.3333333333333,4,2,1,100,0,0
45621,-200,4,2,1,100,0,0
45957,-100,4,2,1,100,0,0
54019,-133.333333333333,4,2,1,100,0,0
64770,-83.3333333333333,4,2,1,100,0,0
86270,-133.333333333333,4,2,1,100,0,0
107766,-83.3333333333333,4,2,1,100,0,0
133135,-100,4,2,1,30,0,0

[HitObjects]
65,120,21768,6,0,B|107:94|107:94|146:101|166:151,1,135
165,150,22104,2,0,P|177:198|151:257,1,107.999996704102
68,300,22440,1,0,0:0:0:0:
354,198,22608,1,0,0:0:0:0:
354,198,22692,1,0,0:0:0:0:
354,198,22776,1,0,0:0:0:0:
91,188,22944,1,0,0:0:0:0:
368,283,23112,5,0,0:0:0:0:
233,36,23280,1,0,0:0:0:0:
216,358,23448,1,0,0:0:0:0:
381,63,23616,1,0,0:0:0:0:
95,193,23784,2,0,P|174:175|214:103,1,161.999995056153
213,109,24120,2,0,P|249:141|326:146,1,107.999996704102
482,253,24456,6,0,P|403:271|363:343,1,161.999995056153
364,337,24792,2,0,P|328:305|251:300,1,107.999996704102
105,338,25128,1,0,0:0:0:0:
313,104,25296,1,0,0:0:0:0:
313,104,25380,1,0,0:0:0:0:
313,104,25464,1,0,0:0:0:0:
28,149,25632,1,0,0:0:0:0:
352,213,25800,5,0,0:0:0:0:
127,43,25968,1,0,0:0:0:0:
259,351,26136,2,0,P|234:260|301:157,1,215.999993408203
287,33,26640,2,0,P|271:91|369:218,1,215.999993408203
487,267,27144,6,0,P|425:309|333:317,1,161.999995056153
259,351,27480,2,0,P|305:333|335:277,1,107.999996704102
288,33,27816,1,0,0:0:0:0:
56,195,27984,1,0,0:0:0:0:
56,195,28067,1,0,0:0:0:0:
56,195,28151,1,0,0:0:0:0:
354,186,28319,1,0,0:0:0:0:
94,44,28487,5,0,0:0:0:0:
177,362,28655,1,0,0:0:0:0:
252,149,28823,1,0,0:0:0:0:
59,291,28991,1,0,0:0:0:0:
330,296,29159,2,0,B|355:240|342:188|342:188|291:164,1,161.999995056153
252,149,29495,2,0,P|232:86|247:40,1,107.999996704102
446,46,29831,6,0,L|432:169,1,107.999996704102
345,351,30167,1,0,0:0:0:0:
207,166,30335,1,0,0:0:0:0:
355,222,30503,1,0,0:0:0:0:
237,40,30671,1,0,0:0:0:0:
237,40,30755,1,0,0:0:0:0:
237,40,30839,1,0,0:0:0:0:
134,273,31007,1,0,0:0:0:0:
341,109,31175,6,0,L|282:122,1,53.9999983520508
128,171,31343,2,0,P|206:189|255:176,1,107.999996704102
154,53,31679,1,0,0:0:0:0:
54,245,31847,1,0,0:0:0:0:
252,279,32015,1,0,0:0:0:0:
252,279,32099,1,0,0:0:0:0:
252,279,32183,1,0,0:0:0:0:
128,171,32351,1,0,0:0:0:0:
221,354,32519,6,0,P|307:351|356:290,1,161.999995056153
430,233,32855,2,0,P|386:268|325:278,1,107.999996704102
54,245,33191,1,0,0:0:0:0:
326,166,33359,1,0,0:0:0:0:
326,166,33443,1,0,0:0:0:0:
326,166,33527,1,0,0:0:0:0:
128,173,33695,1,0,0:0:0:0:
431,181,33863,5,0,0:0:0:0:
51,117,34031,1,0,0:0:0:0:
416,54,34199,1,0,0:0:0:0:
54,245,34366,1,0,0:0:0:0:
304,46,34534,6,0,P|330:92|346:152,1,107.999996704102
314,179,34786,1,0,0:0:0:0:
314,179,34870,1,0,0:0:0:0:
378,344,35038,1,0,0:0:0:0:
435,202,35206,6,0,B|455:161|455:161|461:97|402:60,1,161.999995056153
372,69,35542,2,0,P|321:90|271:82,1,107.999996704102
81,139,35878,1,0,0:0:0:0:
419,204,36046,1,0,0:0:0:0:
419,204,36130,1,0,0:0:0:0:
419,204,36214,1,0,0:0:0:0:
228,268,36382,1,0,0:0:0:0:
474,137,36550,5,0,0:0:0:0:
99,233,36718,1,0,0:0:0:0:
443,322,36886,2,0,P|472:232|399:144,1,215.999993408203
336,55,37390,2,0,P|405:132|377:232,1,215.999993408203
163,342,37894,6,0,B|208:305|208:305|208:243|154:212,1,161.999995056153
130,218,38230,2,0,P|103:184|101:113,1,107.999996704102
188,24,38566,1,0,0:0:0:0:
292,146,38734,1,0,0:0:0:0:
292,146,38818,1,0,0:0:0:0:
292,146,38902,1,0,0:0:0:0:
344,33,39070,1,0,0:0:0:0:
293,325,39238,5,0,0:0:0:0:
200,126,39406,1,0,0:0:0:0:
382,259,39574,1,0,0:0:0:0:
344,33,39742,1,0,0:0:0:0:
199,271,39910,2,0,P|269:241|379:271,1,161.999995056153
382,259,40246,2,0,P|440:278|501:268,1,107.999996704102
423,118,40581,5,0,0:0:0:0:
275,349,40749,1,0,0:0:0:0:
275,349,40833,1,0,0:0:0:0:
275,349,40917,1,0,0:0:0:0:
188,128,41085,1,0,0:0:0:0:
96,274,41253,1,0,0:0:0:0:
81,66,41421,1,0,0:0:0:0:
81,66,41505,1,0,0:0:0:0:
81,66,41589,1,0,0:0:0:0:
235,211,41757,6,0,P|288:199|247:292,1,215.999993408203
304,127,42261,2,0,P|389:190|387:297,1,215.999993408203
207,357,42765,2,0,P|136:279|158:175,1,215.999993408203
349,177,43269,5,0,0:0:0:0:
349,177,45621,5,0,0:0:0:0:
102,268,45957,6,0,P|166:281|221:276,1,90
385,324,46293,2,0,P|321:337|266:332,1,90
349,177,46629,1,0,0:0:0:0:
439,237,46796,1,0,0:0:0:0:
439,237,46880,1,0,0:0:0:0:
439,237,46964,1,0,0:0:0:0:
410,85,47132,1,0,0:0:0:0:
306,263,47300,6,0,P|276:218|271:169,1,90
242,55,47636,1,0,0:0:0:0:
222,305,47804,6,0,P|235:252|268:216,1,90
410,85,48140,2,0,B|406:164|390:195|390:195|425:212|453:253,1,180
326,320,48644,6,0,L|231:319,1,90
90,237,48980,2,0,L|179:237,1,90
281,80,49316,1,0,0:0:0:0:
112,123,49484,2,0,L|59:122,2,45
188,38,49820,1,0,0:0:0:0:
268,237,49988,6,0,P|277:175|303:153,1,90
388,255,50324,2,0,P|414:290|414:334,2,90
287,335,50828,1,0,0:0:0:0:
287,335,50912,1,0,0:0:0:0:
287,335,50996,1,0,0:0:0:0:
194,262,51164,1,0,0:0:0:0:
194,262,51332,6,0,P|159:291|135:340,1,90
34,207,51668,2,0,P|69:236|93:285,1,90
182,88,52004,1,0,0:0:0:0:
144,177,52172,1,0,0:0:0:0:
144,177,52256,1,0,0:0:0:0:
144,177,52340,1,0,0:0:0:0:
77,62,52508,1,0,0:0:0:0:
240,170,52676,6,0,P|286:175|341:164,1,90
381,58,53012,2,0,P|361:141|405:234,1,180
427,342,53515,2,0,P|391:260|411:174,1,180
455,83,54019,5,0,0:0:0:0:
185,220,55363,5,0,0:0:0:0:
339,329,56707,5,0,0:0:0:0:
323,64,58387,6,0,P|310:119|417:216,2,202.500007724762
399,130,60066,2,0,P|346:150|235:58,1,202.500007724762
321,38,60738,5,0,0:0:0:0:
321,38,61410,2,0,P|308:93|415:190,1,202.500007724762
439,286,62082,1,0,0:0:0:0:
439,286,62754,2,0,B|337:233|345:317|229:271,2,202.500007724762
379,349,64266,1,0,0:0:0:0:
379,349,64434,1,0,0:0:0:0:
244,173,64770,6,0,B|227:227|227:227|247:290,2,107.999996704102
332,109,65274,1,0,0:0:0:0:
68,200,65442,1,0,0:0:0:0:
348,287,65609,1,0,0:0:0:0:
348,287,65693,1,0,0:0:0:0:
348,287,65777,1,0,0:0:0:0:
68,320,65945,1,0,0:0:0:0:
174,97,66113,5,0,0:0:0:0:
241,355,66281,1,0,0:0:0:0:
92,118,66449,1,0,0:0:0:0:
348,287,66617,1,0,0:0:0:0:
363,49,66785,2,0,P|393:108|366:199,1,161.999995056153
369,210,67121,2,0,P|413:247|424:302,1,107.999996704102
191,299,67457,6,0,P|265:310|356:281,1,161.999995056153
473,194,67793,2,0,P|423:212|362:208,1,107.999996704102
157,119,68129,1,0,0:0:0:0:
191,299,68297,1,0,0:0:0:0:
191,299,68381,1,0,0:0:0:0:
191,299,68465,1,0,0:0:0:0:
265,69,68633,1,0,0:0:0:0:
276,233,68801,5,0,0:0:0:0:
129,31,68969,1,0,0:0:0:0:
53,250,69137,2,0,P|117:240|101:108,1,215.999993408203
149,330,69641,2,0,P|166:229|73:176,1,215.999993408203
257,341,70145,6,0,L|366:345,1,107.999996704102
480,260,70481,2,0,L|371:264,1,107.999996704102
204,152,70817,1,0,0:0:0:0:
271,245,70985,1,0,0:0:0:0:
271,245,71069,1,0,0:0:0:0:
271,245,71153,1,0,0:0:0:0:
323,110,71321,1,0,0:0:0:0:
341,306,71489,5,0,0:0:0:0:
137,227,71657,1,0,0:0:0:0:
384,186,71824,1,0,0:0:0:0:
158,341,71992,1,0,0:0:0:0:
97,73,72160,1,0,0:0:0:0:
204,152,72328,2,0,L|257:152,2,53.9999983520508
34,206,72664,1,0,0:0:0:0:
294,73,72832,6,0,P|313:100|320:140,1,53.9999983520508
345,222,73000,2,0,P|360:153|423:229,1,215.999993408203
290,350,73504,2,0,P|254:308|244:249,1,107.999996704102
298,129,73840,2,0,P|334:171|344:230,1,107.999996704102
189,260,74176,6,0,L|254:256,1,53.9999983520508
386,233,74344,1,0,0:0:0:0:
161,334,74512,2,0,P|113:279|190:181,1,215.999993408203
214,107,75016,2,0,P|139:172|188:259,1,215.999993408203
286,318,75520,6,0,P|351:308|423:370,1,161.999995056153
421,365,75856,2,0,P|454:343|466:275,1,107.999996704102
343,98,76192,1,0,0:0:0:0:
286,318,76360,1,0,0:0:0:0:
286,318,76444,1,0,0:0:0:0:
286,318,76528,1,0,0:0:0:0:
255,54,76696,1,0,0:0:0:0:
343,248,76864,5,0,0:0:0:0:
326,20,77032,1,0,0:0:0:0:
116,180,77200,1,0,0:0:0:0:
424,171,77368,1,0,0:0:0:0:
145,325,77536,1,0,0:0:0:0:
101,82,77704,2,0,L|94:25,2,53.9999983520508
278,215,78039,1,0,0:0:0:0:
145,325,78207,6,0,L|30:324,1,107.999996704102
278,215,78543,2,0,P|295:252|295:323,1,107.999996704102
114,199,78879,1,0,0:0:0:0:
172,73,79047,1,0,0:0:0:0:
172,73,79131,1,0,0:0:0:0:
172,73,79215,1,0,0:0:0:0:
278,215,79383,1,0,0:0:0:0:
339,47,79551,5,0,0:0:0:0:
301,346,79719,1,0,0:0:0:0:
278,215,79887,2,0,P|319:169|325:266,1,215.999993408203
270,109,80391,2,0,P|394:116|446:186,1,215.999993408203
301,346,80895,6,0,B|198:324|242:369|132:347,1,161.999995056153
122,246,81231,2,0,P|144:298|139:354,1,107.999996704102
192,86,81567,1,0,0:0:0:0:
243,223,81735,1,0,0:0:0:0:
243,223,81819,1,0,0:0:0:0:
243,223,81903,1,0,0:0:0:0:
121,34,82071,1,0,0:0:0:0:
64,197,82239,5,0,0:0:0:0:
350,91,82407,1,0,0:0:0:0:
263,337,82575,1,0,0:0:0:0:
192,86,82743,1,0,0:0:0:0:
416,248,82911,2,0,P|442:190|431:77,1,161.999995056153
437,93,83247,2,0,P|463:124|476:202,1,107.999996704102
380,352,83583,6,0,P|352:317|343:280,1,53.9999983520508
267,126,83751,1,0,0:0:0:0:
234,330,83919,1,0,0:0:0:0:
161,68,84087,1,0,0:0:0:0:
282,217,84255,1,0,0:0:0:0:
235,20,84422,1,0,0:0:0:0:
235,20,84506,1,0,0:0:0:0:
235,20,84590,1,0,0:0:0:0:
77,197,84758,1,0,0:0:0:0:
282,217,84926,6,0,P|306:198|321:174,1,53.9999983520508
235,20,85094,1,0,0:0:0:0:
203,275,85262,2,0,P|284:311|388:251,1,215.999993408203
466,239,85766,2,0,P|385:275|281:215,1,215.999993408203
381,108,86270,5,0,0:0:0:0:
330,146,91645,5,0,0:0:0:0:
166,284,92821,1,0,0:0:0:0:
166,284,92989,5,0,0:0:0:0:
389,298,94165,1,0,0:0:0:0:
389,298,94333,5,0,0:0:0:0:
162,87,96013,6,0,B|115:130|35:118|35:118|45:151|25:204,1,202.500007724762
101,344,96852,1,0,0:0:0:0:
252,190,97020,5,0,0:0:0:0:
274,320,98196,1,0,0:0:0:0:
207,81,98364,5,0,0:0:0:0:
341,162,99540,1,0,0:0:0:0:
341,162,99708,5,0,0:0:0:0:
222,208,101388,6,0,P|128:205|109:108,1,202.500007724762
185,144,102228,1,0,0:0:0:0:
185,144,102396,5,0,0:0:0:0:
379,316,103571,1,0,0:0:0:0:
397,233,103739,5,0,0:0:0:0:
130,331,104915,1,0,0:0:0:0:
103,253,105083,5,0,0:0:0:0:
278,106,106763,2,0,B|241:153|241:153|240:216|301:279,1,202.500007724762
366,341,107603,1,0,0:0:0:0:
413,193,107771,6,0,P|423:118|364:47,1,161.999995056153
373,52,108107,2,0,P|315:78|268:66,1,107.999996704102
77,150,108443,1,0,0:0:0:0:
359,195,108611,1,0,0:0:0:0:
359,195,108695,1,0,0:0:0:0:
359,195,108779,1,0,0:0:0:0:
155,293,108947,1,0,0:0:0:0:
468,208,109115,5,0,0:0:0:0:
77,150,109282,1,0,0:0:0:0:
385,306,109450,1,0,0:0:0:0:
205,42,109618,1,0,0:0:0:0:
141,351,109786,2,0,P|112:284|134:182,1,161.999995056153
152,193,110122,2,0,P|167:137|157:80,1,107.999996704102
6,56,110458,6,0,P|62:102|166:109,1,161.999995056153
160,88,110794,2,0,P|217:89|270:114,1,107.999996704102
392,335,111130,1,0,0:0:0:0:
391,109,111298,1,0,0:0:0:0:
391,109,111382,1,0,0:0:0:0:
391,109,111466,1,0,0:0:0:0:
280,248,111634,1,0,0:0:0:0:
301,33,111802,5,0,0:0:0:0:
426,225,111970,1,0,0:0:0:0:
381,60,112138,2,0,P|330:111|226:26,1,215.999993408203
68,112,112642,2,0,P|119:163|223:78,1,215.999993408203
394,335,113146,6,0,P|414:292|406:178,1,161.999995056153
406,180,113482,2,0,P|414:200|486:262,1,107.999996704102
369,52,113818,1,0,0:0:0:0:
323,218,113986,1,0,0:0:0:0:
323,218,114070,1,0,0:0:0:0:
323,218,114154,1,0,0:0:0:0:
301,33,114322,1,0,0:0:0:0:
445,277,114490,5,0,0:0:0:0:
386,131,114658,1,0,0:0:0:0:
310,340,114826,1,0,0:0:0:0:
248,139,114994,1,0,0:0:0:0:
435,195,115162,2,0,P|460:100|368:53,1,215.999993408203
248,139,115665,1,0,0:0:0:0:
130,275,115833,6,0,P|89:249|82:174,1,107.999996704102
193,55,116169,1,0,0:0:0:0:
380,276,116337,6,0,P|421:250|428:175,1,107.999996704102
193,55,116673,1,0,0:0:0:0:
193,55,116757,1,0,0:0:0:0:
193,55,116841,1,0,0:0:0:0:
250,306,117009,1,0,0:0:0:0:
339,62,117177,5,0,0:0:0:0:
351,366,117345,1,0,0:0:0:0:
70,204,117513,2,0,B|163:200|163:200|182:208|182:208|287:203,1,215.999993408203
457,250,118017,2,0,P|406:345|363:280,1,215.999993408203
434,100,118521,6,0,P|432:215|464:257,1,161.999995056153
456,249,118857,2,0,P|471:306|437:346,1,107.999996704102
112,252,119193,1,0,0:0:0:0:
292,277,119361,1,0,0:0:0:0:
292,277,119445,1,0,0:0:0:0:
292,277,119529,1,0,0:0:0:0:
52,311,119697,1,0,0:0:0:0:
359,210,119865,5,0,0:0:0:0:
11,245,120033,1,0,0:0:0:0:
416,294,120201,1,0,0:0:0:0:
289,145,120369,1,0,0:0:0:0:
229,371,120537,2,0,P|227:288|281:212,1,161.999995056153
267,222,120873,2,0,P|219:191|195:140,1,107.999996704102
429,162,121209,6,0,P|439:219|419:271,1,107.999996704102
260,350,121545,2,0,P|244:299|255:246,1,107.999996704102
299,79,121880,1,0,0:0:0:0:
352,186,122048,1,0,0:0:0:0:
352,186,122132,1,0,0:0:0:0:
352,186,122216,1,0,0:0:0:0:
359,33,122384,1,0,0:0:0:0:
172,188,122552,5,0,0:0:0:0:
469,169,122720,1,0,0:0:0:0:
238,45,122888,2,0,B|199:154|290:128|239:265,1,215.999993408203
141,364,123392,2,0,B|94:238|185:264|146:155,1,215.999993408203
49,56,123896,6,0,P|112:129|195:125,1,161.999995056153
283,128,124232,2,0,P|228:151|170:148,1,107.999996704102
51,202,124568,1,0,0:0:0:0:
245,236,124736,1,0,0:0:0:0:
245,236,124820,1,0,0:0:0:0:
245,236,124904,1,0,0:0:0:0:
110,259,125072,1,0,0:0:0:0:
365,210,125240,5,0,0:0:0:0:
129,182,125408,1,0,0:0:0:0:
397,283,125576,1,0,0:0:0:0:
51,202,125744,1,0,0:0:0:0:
459,181,125912,2,0,P|483:230|478:298,1,107.999996704102
459,316,126164,1,0,0:0:0:0:
459,316,126248,1,0,0:0:0:0:
322,190,126416,1,0,0:0:0:0:
389,70,126584,6,0,P|424:140|305:177,1,215.999993408203
148,108,127088,1,0,0:0:0:0:
258,107,127256,1,0,0:0:0:0:
174,250,127424,1,0,0:0:0:0:
174,250,127508,1,0,0:0:0:0:
174,250,127592,1,0,0:0:0:0:
137,75,127760,1,0,0:0:0:0:
260,295,127928,5,0,0:0:0:0:
87,190,128095,1,0,0:0:0:0:
347,189,128263,2,0,P|407:239|322:344,1,215.999993408203
213,208,128767,2,0,P|151:129|216:53,1,215.999993408203
337,125,129271,5,0,0:0:0:0:
256,192,129439,12,0,133135,0:0:0:0:
