osu file format v14

[General]
AudioFilename: audio.mp3
AudioLeadIn: 0
PreviewTime: 25682
Countdown: 0
SampleSet: Soft
StackLeniency: 0.7
Mode: 0
LetterboxInBreaks: 0
EpilepsyWarning: 1
WidescreenStoryboard: 1

[Editor]
Bookmarks: 12882,25682,38482,51282,70482,89682,108882,128082,153682
DistanceSpacing: 1.2
BeatDivisor: 4
GridSize: 32
TimelineZoom: 1

[Metadata]
Title:SAD!
TitleUnicode:SAD!
Artist:XXXTENTACION
ArtistUnicode:XXXTENTACION
Creator:eiri-
Version:AyyLazy's Hard
Source:
Tags:Ayyri Realazy Real Icekalt sdafsf Bergy ? Bad Vibes Forever
BeatmapID:1680651
BeatmapSetID:800568

[Difficulty]
HPDrainRate:4
CircleSize:5
OverallDifficulty:5
ApproachRate:7
SliderMultiplier:2.6
SliderTickRate:1

[Events]
//Background and Video events
0,0,"SAD.jpg",0,0
//Break Periods
2,64282,69582
2,102682,107982
//Storyboard Layer 0 (Background)
//Storyboard Layer 1 (Fail)
//Storyboard Layer 2 (Pass)
//Storyboard Layer 3 (Foreground)
//Storyboard Sound Samples

[TimingPoints]
12882,800,4,2,1,50,1,0
25682,-100,4,2,1,75,0,0
51682,-100,4,2,1,25,0,0
54482,-100,4,2,1,75,0,0
70482,-100,4,2,1,50,0,0
76882,-100,4,2,1,75,0,0
108882,-100,4,2,1,50,0,0
128082,-100,4,2,1,75,0,0

[Colours]
Combo1 : 97,97,97
Combo2 : 192,192,192

[HitObjects]
406,67,12882,6,0,L|428:260,1,195,2|0,3:2|0:0,0:0:0:0:
428,260,13682,1,2,0:0:0:0:
428,260,14282,1,2,3:2:0:0:
379,320,14482,2,0,L|390:387,2,65,2|2|2,3:2|0:2|0:2,0:0:0:0:
379,320,15282,1,2,0:0:0:0:
379,320,15882,1,0,3:0:0:0:
320,268,16082,5,2,3:2:0:0:
320,268,16282,2,0,L|236:277,1,65,2|0,0:0|0:0,0:0:0:0:
211,339,16682,1,2,0:0:0:0:
211,339,16882,2,0,L|127:330,1,65,2|0,0:0|0:0,0:0:0:0:
91,276,17282,2,0,P|98:245|95:213,1,65,2|2,0:0|0:0,0:0:0:0:
73,138,17682,5,2,0:0:0:0:
73,138,17882,2,0,L|157:147,1,65,2|0,0:0|3:0,0:0:0:0:
182,209,18282,1,2,0:0:0:0:
182,209,18482,2,0,L|266:200,1,65,2|0,0:0|3:0,0:0:0:0:
309,156,18882,1,2,0:0:0:0:
309,156,19082,1,2,3:2:0:0:
377,119,19282,6,0,P|282:129|200:80,1,195,2|0,3:2|0:0,0:0:0:0:
199,79,20082,1,2,0:0:0:0:
199,79,20682,1,0,3:2:0:0:
136,45,20882,2,0,L|71:52,2,65,2|2|2,3:2|0:0|0:0,0:0:0:0:
136,45,21682,1,2,0:0:0:0:
69,185,22082,2,0,P|99:177|130:186,1,65,0|0,0:0|3:0,0:0:0:0:
193,232,22482,5,2,3:2:0:0:
193,232,22682,2,0,L|267:222,1,65,2|0,0:0|0:0,0:0:0:0:
318,271,23082,1,2,0:0:0:0:
318,271,23282,2,0,L|392:261,1,65,2|0,0:0|0:0,0:0:0:0:
447,304,23682,2,0,P|457:273|455:241,1,65,2|2,0:0|0:0,0:0:0:0:
397,187,24082,5,2,0:0:0:0:
397,187,24282,2,0,L|395:122,1,65,2|0,0:0|3:0,0:0:0:0:
317,117,24682,1,2,0:0:0:0:
317,117,24882,2,0,L|318:181,1,65,2|0,0:0|3:0,0:0:0:0:
267,241,25282,1,2,0:0:0:0:
148,342,25682,6,0,P|102:339|76:323,1,65,6|2,0:0|0:0,0:0:0:0:
52,260,26082,2,0,P|55:214|71:187,1,65,2|0,0:0|0:0,0:0:0:0:
114,138,26482,1,8,0:0:0:0:
182,101,26682,1,0,0:0:0:0:
250,138,26882,1,0,0:0:0:0:
182,175,27082,5,0,3:0:0:0:
182,175,27282,2,0,L|189:256,1,65,0|8,3:0|0:0,0:0:0:0:
259,270,27682,2,0,L|266:189,1,65,0|0,0:0|0:0,0:0:0:0:
334,171,28082,2,0,P|413:164|445:85,1,130,8|0,0:0|0:0,0:0:0:0:
461,52,28682,1,0,0:0:0:0:
461,52,28882,6,0,L|348:32,1,65,2|2,3:2|0:2,0:0:0:0:
321,21,29282,2,0,L|208:41,1,65,2|0,0:2|0:0,0:0:0:0:
180,45,29682,2,0,L|199:120,2,65,8|0|0,0:0|0:0|0:0,0:0:0:0:
104,26,30282,1,0,3:0:0:0:
83,101,30482,6,0,P|19:118|-4:111,1,65,0|8,0:0|0:0,0:0:0:0:
7,195,30882,2,0,L|83:213,1,65,0|0,1:0|0:0,0:0:0:0:
143,182,31282,1,8,0:0:0:0:
184,247,31482,1,0,0:0:0:0:
258,225,31682,2,0,L|275:302,1,65,0|0,0:0|0:0,0:0:0:0:
242,360,32082,6,0,P|274:361|332:382,1,65,6|2,0:0|0:0,0:0:0:0:
370,326,32482,2,0,P|371:294|392:236,1,65,2|0,0:0|0:0,0:0:0:0:
427,201,32882,1,8,0:0:0:0:
474,139,33082,1,0,0:0:0:0:
426,77,33282,1,0,0:0:0:0:
379,139,33482,5,0,3:0:0:0:
379,139,33682,2,0,L|276:151,1,65,0|8,3:0|0:0,0:0:0:0:
264,86,34082,2,0,L|199:167,1,65,0|0,0:0|0:0,0:0:0:0:
173,196,34482,2,0,P|102:199|59:137,1,130,8|0,0:0|0:0,0:0:0:0:
50,81,35082,1,0,0:0:0:0:
50,81,35282,1,0,3:0:0:0:
117,41,35482,6,0,L|258:35,1,130,2|0,0:0|0:0,0:0:0:0:
317,70,36082,2,0,L|296:138,2,65,8|0|0,0:0|0:0|0:0,0:0:0:0:
388,38,36682,1,0,3:0:0:0:
424,106,36882,1,0,0:0:0:0:
381,171,37082,6,0,L|376:301,1,130,2|0,0:0|0:0,0:0:0:0:
411,372,37682,2,0,L|479:351,2,65,8|0|0,0:0|0:0|0:0,0:0:0:0:
376,301,38282,1,0,0:0:0:0:
303,271,38482,6,0,P|270:274|241:288,1,65,6|2,0:0|0:0,0:0:0:0:
173,326,38882,2,0,P|140:322|111:308,1,65,2|0,0:0|0:0,0:0:0:0:
62,248,39282,1,8,0:0:0:0:
74,171,39482,1,0,0:0:0:0:
134,219,39682,1,0,0:0:0:0:
150,146,39882,5,0,3:0:0:0:
150,146,40082,2,0,L|214:142,1,65,0|8,3:0|0:0,0:0:0:0:
259,206,40482,2,0,L|323:202,1,65,0|0,0:0|0:0,0:0:0:0:
387,248,40882,1,8,0:0:0:0:
366,93,41282,1,0,0:0:0:0:
509,151,41682,5,2,3:2:0:0:
509,151,41882,2,0,P|478:140|446:142,2,65,2|2|0,0:0|0:0|0:0,0:0:0:0:
472,220,42482,2,0,L|482:284,1,65,8|0,0:0|0:0,0:0:0:0:
406,267,42882,2,0,L|395:331,1,65,0|0,0:0|3:0,0:0:0:0:
329,289,43282,5,0,0:0:0:0:
257,319,43482,1,8,0:0:0:0:
198,265,43682,2,0,P|193:232|201:201,2,65,0|0|8,1:0|0:0|0:0,0:0:0:0:
326,175,44482,1,0,0:0:0:0:
216,64,44882,6,0,L|227:0,2,65,6|2|2,0:0|0:0|0:0,0:0:0:0:
164,122,45482,1,0,0:0:0:0:
95,83,45682,2,0,P|85:113|88:145,1,65,8|0,0:0|0:0,0:0:0:0:
144,201,46082,2,0,P|147:233|136:263,1,65,0|0,0:0|3:0,0:0:0:0:
89,325,46482,5,0,3:0:0:0:
166,336,46682,1,8,0:0:0:0:
231,293,46882,2,0,L|303:301,1,65,0|0,0:0|0:0,0:0:0:0:
353,352,47282,1,8,0:0:0:0:
472,251,47682,1,0,0:0:0:0:
370,132,48082,5,0,3:0:0:0:
418,70,48282,2,0,P|447:125|426:185,1,130,2|0,0:0|0:0,0:0:0:0:
351,205,48882,2,0,L|287:192,1,65,8|0,0:0|0:0,0:0:0:0:
239,131,49282,2,0,L|175:143,1,65,0|0,0:0|3:0,0:0:0:0:
104,176,49682,5,0,0:0:0:0:
64,108,49882,2,0,L|54:237,1,130,2|0,0:0|0:0,0:0:0:0:
106,295,50482,2,0,P|135:307|167:306,1,65,8|0,0:0|0:0,0:0:0:0:
239,274,50882,2,0,P|271:273|300:285,1,65,0|0,0:0|0:0,0:0:0:0:
363,332,51282,5,4,0:1:0:0:
462,212,51682,2,0,L|457:55,1,130,0|0,0:0|0:0,0:0:0:0:
309,34,52482,1,0,0:0:0:0:
197,143,52882,2,0,P|112:170|50:138,2,130,0|0|0,0:0|0:0|0:0,0:0:0:0:
309,34,54082,1,0,0:0:0:0:
457,82,54482,5,4,1:0:0:0:
345,190,54882,2,0,L|350:270,1,65,0|0,0:0|0:0,0:0:0:0:
287,303,55282,2,0,P|219:288|137:331,1,130,8|0,0:0|0:0,0:0:0:0:
96,348,55882,1,0,3:0:0:0:
39,294,56082,6,0,L|30:211,1,65,0|0,0:0|0:0,0:0:0:0:
100,192,56482,2,0,L|109:109,1,65,2|0,0:0|0:0,0:0:0:0:
158,68,56882,2,0,P|202:91|226:92,1,65,8|0,0:0|3:0,0:0:0:0:
295,92,57282,2,0,P|327:85|354:68,1,65,0|0,0:0|0:0,0:0:0:0:
407,10,57682,6,0,L|483:30,1,65,4|0,1:0|0:0,0:0:0:0:
510,93,58082,2,0,L|434:113,1,65,0|0,0:0|0:0,0:0:0:0:
403,174,58482,2,0,L|479:194,1,65,8|0,0:0|0:0,0:0:0:0:
506,257,58882,2,0,L|430:277,1,65,0|0,0:0|3:0,0:0:0:0:
381,321,59282,6,0,P|357:284|315:262,1,65,0|0,3:0|1:0,0:0:0:0:
270,305,59682,2,0,P|246:342|204:364,1,65,0|0,0:0|0:0,0:0:0:0:
152,367,60082,2,0,L|117:289,1,65,8|0,0:0|0:0,0:0:0:0:
53,276,60482,2,0,L|83:196,1,65,0|0,0:0|3:0,0:0:0:0:
122,152,60882,6,0,P|70:130|48:102,1,65,0|0,3:0|0:0,0:0:0:0:
102,56,61282,2,0,P|154:78|176:106,1,65,0|0,0:0|0:0,0:0:0:0:
227,121,61682,2,0,P|279:99|301:71,1,65,8|0,0:0|0:0,0:0:0:0:
352,56,62082,2,0,L|434:102,1,65,0|0,0:0|3:0,0:0:0:0:
458,147,62482,6,0,P|425:206|467:293,1,130,0|2,0:0|0:0,0:0:0:0:
301,340,63282,1,8,0:0:0:0:
301,340,63482,2,0,L|148:352,1,130,2|0,0:0|0:0,0:0:0:0:
101,315,64082,5,0,0:0:0:0:
206,199,70482,5,2,0:0:0:0:
206,199,70882,1,0,0:0:0:0:
299,324,71282,2,0,L|431:295,1,130,8|0,0:0|0:0,0:0:0:0:
499,322,71882,5,0,3:0:0:0:
499,321,72082,2,0,P|504:290|495:259,1,65,0|0,3:0|0:0,0:0:0:0:
462,188,72482,1,0,0:0:0:0:
507,37,72882,2,0,P|445:56|381:48,1,130,8|0,0:0|0:0,0:0:0:0:
310,15,73482,5,0,3:0:0:0:
310,15,73682,2,0,L|245:22,1,65,0|0,3:0|0:0,0:0:0:0:
180,66,74082,1,0,0:0:0:0:
34,9,74482,6,0,P|60:67|53:131,1,130,8|0,0:0|0:0,0:0:0:0:
34,207,75082,1,0,0:0:0:0:
34,207,75282,2,0,L|163:190,2,130,0|0|0,0:0|0:0|0:0,0:0:0:0:
146,314,76482,1,0,0:0:0:0:
268,216,76882,6,0,L|329:238,1,65,6|2,0:0|0:0,0:0:0:0:
401,267,77282,2,0,L|462:244,1,65,2|0,0:0|0:0,0:0:0:0:
504,179,77682,1,8,0:0:0:0:
487,102,77882,1,0,0:0:0:0:
470,25,78082,1,0,0:0:0:0:
416,83,78282,5,0,3:0:0:0:
415,83,78482,2,0,P|383:84|352:75,1,65,0|8,3:0|0:0,0:0:0:0:
287,31,78882,2,0,P|254:29|223:38,1,65,0|0,0:0|0:0,0:0:0:0:
164,89,79282,1,8,0:0:0:0:
23,21,79682,1,0,0:0:0:0:
56,173,80082,5,2,3:2:0:0:
56,173,80282,2,0,L|65:108,2,65,2|2|0,0:0|0:0|0:0,0:0:0:0:
101,236,80882,2,0,P|133:224|164:223,1,65,8|0,0:0|0:0,0:0:0:0:
234,256,81282,2,0,P|266:255|296:243,1,65,0|0,0:0|3:0,0:0:0:0:
360,198,81682,1,0,0:0:0:0:
422,243,81882,1,8,0:0:0:0:
397,316,82082,2,0,L|332:315,2,65,0|0|8,1:0|0:0|0:0,0:0:0:0:
442,169,82882,1,0,0:0:0:0:
296,243,83282,6,0,P|263:242|233:230,2,65,6|2|2,0:0|0:0|0:0,0:0:0:0:
360,198,83882,1,0,0:0:0:0:
320,130,84082,2,0,P|287:130|257:142,1,65,8|0,0:0|0:0,0:0:0:0:
187,177,84482,2,0,P|154:176|124:164,1,65,0|0,0:0|3:0,0:0:0:0:
60,119,84882,5,0,3:0:0:0:
17,184,85082,1,8,0:0:0:0:
68,242,85282,2,0,P|99:237|131:244,1,65,0|0,0:0|0:0,0:0:0:0:
194,290,85682,1,8,0:0:0:0:
257,142,86082,1,0,0:0:0:0:
357,261,86482,5,0,3:0:0:0:
309,323,86682,2,0,L|320:193,1,130,2|0,0:0|0:0,0:0:0:0:
397,181,87282,2,0,P|386:150|363:128,1,65,8|0,0:0|0:0,0:0:0:0:
285,123,87682,2,0,P|259:142|246:172,1,65,0|0,0:0|3:0,0:0:0:0:
190,227,88082,5,0,0:0:0:0:
132,175,88282,2,0,P|188:147|246:171,1,130,2|0,0:0|0:0,0:0:0:0:
298,229,88882,2,0,L|362:222,1,65,8|0,0:0|0:0,0:0:0:0:
376,299,89282,2,0,L|311:305,1,65,0|0,0:0|0:0,0:0:0:0:
253,358,89682,6,0,P|207:355|181:339,1,65,6|2,0:0|0:0,0:0:0:0:
128,300,90082,2,0,P|100:262|96:232,1,65,2|0,0:0|0:0,0:0:0:0:
103,167,90482,1,8,0:0:0:0:
159,113,90682,1,0,0:0:0:0:
232,139,90882,1,0,0:0:0:0:
176,193,91082,5,0,3:0:0:0:
176,193,91282,2,0,L|240:251,1,65,0|8,3:0|0:0,0:0:0:0:
256,307,91682,2,0,L|304:263,1,65,0|0,0:0|0:0,0:0:0:0:
391,238,92082,2,0,P|386:302|340:347,1,130,8|0,0:0|0:0,0:0:0:0:
267,374,92682,1,0,0:0:0:0:
267,374,92882,6,0,L|154:354,1,65,2|2,3:2|0:0,0:0:0:0:
157,291,93282,2,0,L|93:303,1,65,2|0,0:0|0:0,0:0:0:0:
30,257,93682,2,0,L|11:182,2,65,8|0|0,0:0|0:0|0:0,0:0:0:0:
93,303,94282,1,0,3:0:0:0:
140,241,94482,6,0,P|204:224|227:231,1,65,0|8,0:0|0:0,0:0:0:0:
264,268,94882,2,0,L|341:263,1,65,0|0,1:0|0:0,0:0:0:0:
401,291,95282,1,8,0:0:0:0:
441,224,95482,1,0,0:0:0:0:
394,161,95682,2,0,L|377:84,1,65,0|0,0:0|0:0,0:0:0:0:
335,33,96082,6,0,P|303:32|245:11,1,65,6|2,0:0|0:0,0:0:0:0:
247,98,96482,2,0,P|279:99|337:120,1,65,2|0,0:0|0:0,0:0:0:0:
364,164,96882,1,8,0:0:0:0:
382,239,97082,1,0,0:0:0:0:
319,285,97282,1,0,0:0:0:0:
246,256,97482,5,0,3:0:0:0:
246,256,97682,2,0,L|143:268,1,65,0|8,3:0|0:0,0:0:0:0:
145,193,98082,2,0,L|210:112,1,65,0|0,0:0|0:0,0:0:0:0:
236,83,98482,2,0,P|307:80|350:142,1,130,8|0,0:0|0:0,0:0:0:0:
361,196,99082,1,0,3:0:0:0:
361,196,99282,1,0,3:0:0:0:
321,263,99482,6,0,L|180:269,1,130,2|0,0:0|0:0,0:0:0:0:
121,234,100082,2,0,L|142:166,2,65,8|0|0,0:0|0:0|0:0,0:0:0:0:
53,270,100682,1,0,3:0:0:0:
17,202,100882,1,0,0:0:0:0:
85,166,101082,6,0,L|215:161,1,130,2|0,0:0|0:0,0:0:0:0:
286,196,101682,2,0,L|265:264,2,65,8|0|0,0:0|0:0|0:0,0:0:0:0:
354,160,102282,1,0,0:0:0:0:
390,228,102482,5,0,0:0:0:0:
390,228,108882,5,4,3:3:0:0:
390,228,110282,1,4,3:3:0:0:
358,156,110482,1,4,3:3:0:0:
312,220,111882,1,4,3:3:0:0:
280,148,112082,1,4,3:3:0:0:
280,148,114082,5,4,3:3:0:0:
91,286,114682,1,4,3:3:0:0:
26,144,115082,6,0,L|33:112,2,32.5,4|0|4,3:3|0:0|3:3,0:0:0:0:
83,254,116682,2,0,L|90:285,2,32.5,4|0|4,3:3|0:0|3:3,0:0:0:0:
140,144,118282,2,0,L|147:112,2,32.5,4|0|4,3:3|0:0|3:3,0:0:0:0:
140,144,120482,1,4,3:3:0:0:
265,341,121082,1,4,3:3:0:0:
397,258,121482,6,0,L|426:242,2,32.5,4|0|4,3:3|0:0|3:3,0:0:0:0:
265,341,123082,2,0,L|264:374,2,32.5,4|0|4,3:3|0:0|3:3,0:0:0:0:
259,185,124682,2,0,L|230:167,2,32.5,4|0|4,3:3|0:0|3:3,0:0:0:0:
259,185,126882,5,4,3:3:0:0:
433,340,127482,1,4,3:3:0:0:
511,205,127882,1,4,0:3:0:0:
511,205,127982,1,0,0:0:0:0:
511,205,128082,6,0,P|477:180|464:145,1,65,6|2,0:0|0:0,0:0:0:0:
443,85,128482,2,0,P|418:119|383:132,1,65,2|0,0:0|0:0,0:0:0:0:
320,138,128882,1,8,0:0:0:0:
244,117,129082,1,0,0:0:0:0:
218,43,129282,1,0,0:0:0:0:
167,102,129482,5,0,3:0:0:0:
167,102,129682,2,0,L|181:202,1,65,0|8,3:0|0:0,0:0:0:0:
215,233,130082,2,0,L|115:247,1,65,0|0,0:0|0:0,0:0:0:0:
94,296,130482,2,0,L|74:150,1,130,8|0,0:0|0:0,0:0:0:0:
27,106,131082,1,0,0:0:0:0:
27,106,131282,6,0,P|65:74|73:41,1,65,2|2,3:2|0:0,0:0:0:0:
140,28,131682,2,0,L|151:128,1,65,2|0,0:0|0:0,0:0:0:0:
183,161,132082,1,8,0:0:0:0:
256,192,132282,1,0,0:0:0:0:
329,161,132482,1,0,0:0:0:0:
373,225,132682,5,0,3:0:0:0:
424,166,132882,2,0,L|431:78,1,65,0|8,0:0|0:0,0:0:0:0:
412,24,133282,2,0,P|355:21|315:-10,1,65,0|0,1:0|0:0,0:0:0:0:
334,97,133682,2,0,P|331:154|300:194,1,65,8|0,0:0|0:0,0:0:0:0:
256,192,134082,2,0,L|256:64,1,65,0|0,0:0|0:0,0:0:0:0:
181,104,134482,6,0,P|149:112|117:109,1,65,6|2,0:0|0:0,0:0:0:0:
79,41,134883,2,0,P|110:32|142:35,1,65,2|0,0:0|0:0,0:0:0:0:
218,52,135282,1,8,0:0:0:0:
295,51,135482,1,0,0:0:0:0:
368,23,135682,1,0,0:0:0:0:
428,72,135882,5,0,3:0:0:0:
428,72,136082,2,0,L|417:164,1,65,0|8,3:0|0:0,0:0:0:0:
460,203,136482,2,0,L|449:295,1,65,0|0,0:0|0:0,0:0:0:0:
477,341,136882,2,0,P|400:325|310:348,1,130,8|0,0:0|0:0,0:0:0:0:
278,363,137482,1,0,3:0:0:0:
278,363,137682,1,0,3:0:0:0:
225,305,137882,6,0,L|219:164,1,130,2|0,0:0|0:0,0:0:0:0:
254,105,138482,2,0,L|322:126,2,65,8|0|0,0:0|0:0|0:0,0:0:0:0:
222,34,139082,1,0,3:0:0:0:
290,0,139282,1,0,0:0:0:0:
358,36,139482,6,0,L|364:177,1,130,2|0,0:0|0:0,0:0:0:0:
329,236,140082,2,0,L|261:215,2,65,8|0|0,0:0|0:0|0:0,0:0:0:0:
361,307,140682,1,0,0:0:0:0:
293,341,140882,6,0,P|241:351|201:337,1,65,6|2,0:0|0:0,0:0:0:0:
157,321,141282,2,0,P|105:311|65:325,1,65,2|0,0:0|0:0,0:0:0:0:
19,337,141682,1,8,0:0:0:0:
6,259,141882,1,0,0:0:0:0:
47,192,142082,1,0,0:0:0:0:
34,114,142282,5,0,3:0:0:0:
34,114,142482,2,0,L|118:102,1,65,0|8,3:0|0:0,0:0:0:0:
127,32,142882,2,0,L|208:56,1,65,0|0,0:0|0:0,0:0:0:0:
255,10,143282,2,0,L|364:108,1,130,8|0,0:0|0:0,0:0:0:0:
409,148,143882,1,0,3:0:0:0:
409,148,144082,6,0,P|405:206|414:235,1,65,2|2,3:2|0:0,0:0:0:0:
338,250,144482,2,0,P|280:246|251:255,1,65,2|0,0:0|0:0,0:0:0:0:
199,271,144882,1,8,0:0:0:0:
127,303,145082,1,0,0:0:0:0:
59,263,145282,1,0,0:0:0:0:
83,188,145482,1,0,3:0:0:0:
42,121,145682,6,0,L|122:108,1,65,0|8,0:0|0:0,0:0:0:0:
174,148,146082,2,0,L|238:137,1,65,0|0,1:0|0:0,0:0:0:0:
290,79,146482,1,8,0:0:0:0:
359,114,146682,1,0,0:0:0:0:
362,191,146882,2,0,L|346:279,1,65,0|0,0:0|0:0,0:0:0:0:
331,330,147282,6,0,P|272:349|240:340,1,65,6|2,0:0|0:0,0:0:0:0:
275,270,147682,2,0,P|213:262|188:240,1,65,2|0,0:0|0:0,0:0:0:0:
142,225,148082,1,8,0:0:0:0:
113,152,148282,1,0,0:0:0:0:
157,87,148482,1,0,0:0:0:0:
79,79,148682,5,0,3:0:0:0:
79,79,148882,2,0,L|2:88,1,65,0|8,3:0|0:0,0:0:0:0:
48,159,149282,2,0,L|125:150,1,65,0|0,0:0|0:0,0:0:0:0:
190,141,149682,2,0,P|250:188|321:157,1,130,8|0,0:0|0:0,0:0:0:0:
366,138,150282,1,0,3:0:0:0:
366,138,150482,1,0,3:0:0:0:
418,79,150682,6,0,L|424:220,1,130,2|0,0:0|0:0,0:0:0:0:
389,279,151282,2,0,L|321:258,2,65,8|0|0,0:0|0:0|0:0,0:0:0:0:
421,350,151882,1,0,3:0:0:0:
353,384,152082,1,0,0:0:0:0:
282,351,152282,6,0,L|288:210,1,130,2|0,0:0|0:0,0:0:0:0:
253,151,152882,2,0,L|185:172,2,65,8|0|0,0:0|0:0|0:0,0:0:0:0:
285,80,153482,1,0,0:0:0:0:
217,46,153682,5,0,0:0:0:0:
