osu file format v14

[General]
AudioFilename: audio.mp3
AudioLeadIn: 0
PreviewTime: 25682
Countdown: 0
SampleSet: Soft
StackLeniency: 0.4
Mode: 0
LetterboxInBreaks: 0
EpilepsyWarning: 1
WidescreenStoryboard: 1

[Editor]
DistanceSpacing: 1.2
BeatDivisor: 4
GridSize: 32
TimelineZoom: 2.3

[Metadata]
Title:SAD!
TitleUnicode:SAD!
Artist:XXXTENTACION
ArtistUnicode:XXXTENTACION
Creator:eiri-
Version:sdafsf's Insane
Source:
Tags:Ayyri Realazy Real Icekalt sdafsf Bergy ? Bad Vibes Forever
BeatmapID:1680653
BeatmapSetID:800568

[Difficulty]
HPDrainRate:5
CircleSize:7
OverallDifficulty:6.5
ApproachRate:8
SliderMultiplier:0.8
SliderTickRate:1

[Events]
//Background and Video events
0,0,"SAD.jpg",0,0
//Break Periods
2,64281,69732
2,102682,108132
//Storyboard Layer 0 (Background)
//Storyboard Layer 1 (Fail)
//Storyboard Layer 2 (Pass)
//Storyboard Layer 3 (Foreground)
//Storyboard Sound Samples

[TimingPoints]
12882,800,4,2,1,30,1,0
25682,-50,4,2,1,70,0,0
51682,-100,4,2,1,20,0,0
54482,-66.6666666666667,4,2,1,50,0,0
70482,-100,4,2,1,40,0,0
76882,-50,4,2,1,70,0,0
108882,-100,4,2,1,40,0,0
128082,-50,4,2,1,70,0,0

[Colours]
Combo1 : 97,97,97
Combo2 : 192,192,192

[HitObjects]
79,89,12882,6,0,P|128:108|134:140,1,80,2|2,3:2|0:0,0:0:0:0:
134,130,14282,1,2,3:2:0:0:
181,151,14482,2,0,P|198:144|218:141,2,20,2|2|2,3:2|0:2|0:2,0:0:0:0:
161,198,15282,1,2,0:0:0:0:
161,198,15882,1,0,3:0:0:0:
234,183,16082,5,2,3:2:0:0:
234,183,16282,2,0,P|231:198|236:219,1,20,2|0,0:0|0:0,0:0:0:0:
279,231,16682,1,2,0:0:0:0:
279,231,16882,2,0,P|267:240|257:259,1,20,2|0,0:0|0:0,0:0:0:0:
310,275,17282,1,2,0:0:0:0:
310,275,17482,1,2,0:0:0:0:
338,229,17682,5,2,0:0:0:0:
338,229,17882,2,0,P|346:235|353:243,1,20,2|0,0:0|3:0,0:0:0:0:
383,181,18282,1,2,0:0:0:0:
383,181,18482,2,0,P|385:191|386:201,1,20,2|0,0:0|3:0,0:0:0:0:
424,247,18882,1,2,0:0:0:0:
424,247,19082,1,2,3:2:0:0:
467,175,19282,6,0,P|447:147|460:89,1,80,2|2,3:2|0:0,0:0:0:0:
450,103,20682,1,0,3:2:0:0:
493,68,20882,2,0,P|506:71|522:70,2,20,2|2|2,3:2|0:0|0:0,0:0:0:0:
443,27,21682,1,2,0:0:0:0:
380,32,22082,1,0,0:0:0:0:
380,32,22282,1,0,3:0:0:0:
356,90,22482,5,2,3:2:0:0:
356,90,22682,2,0,P|331:100|328:100,1,20,2|0,0:0|0:0,0:0:0:0:
289,89,23082,1,2,0:0:0:0:
289,89,23282,2,0,P|271:89|261:87,1,20,2|0,0:0|0:0,0:0:0:0:
230,53,23682,1,2,0:0:0:0:
230,53,23882,1,2,0:0:0:0:
176,30,24082,5,2,0:0:0:0:
176,30,24282,2,0,P|149:32|146:34,1,20,2|0,0:0|3:0,0:0:0:0:
117,62,24682,1,2,0:0:0:0:
117,62,24882,2,0,P|101:70|93:76,1,20,2|0,0:0|3:0,0:0:0:0:
80,121,25282,1,2,0:0:0:0:
80,121,25482,1,2,0:0:0:0:
124,200,25682,5,6,0:0:0:0:
133,113,25882,1,2,0:0:0:0:
124,200,26082,1,2,0:0:0:0:
124,200,26482,5,8,0:0:0:0:
172,180,26682,1,0,0:0:0:0:
124,200,26882,1,0,0:0:0:0:
172,180,27082,1,0,3:0:0:0:
124,200,27282,1,0,3:0:0:0:
172,180,27482,1,8,0:0:0:0:
124,200,27682,1,0,0:0:0:0:
172,180,28082,1,8,0:0:0:0:
216,201,28482,1,0,0:0:0:0:
269,315,28882,5,2,3:2:0:0:
259,227,29082,1,2,0:2:0:0:
269,315,29282,1,2,0:2:0:0:
269,315,29682,5,8,0:0:0:0:
319,299,29882,1,0,0:0:0:0:
269,315,30082,1,0,0:0:0:0:
319,299,30282,1,0,3:0:0:0:
269,315,30482,1,0,0:0:0:0:
319,299,30682,1,8,0:0:0:0:
269,315,30882,1,0,1:0:0:0:
319,299,31082,1,0,0:0:0:0:
269,315,31282,1,8,0:0:0:0:
335,243,31682,1,0,0:0:0:0:
294,158,32082,5,6,0:0:0:0:
381,164,32282,1,2,0:0:0:0:
294,158,32482,1,2,0:0:0:0:
294,158,32882,5,8,0:0:0:0:
315,110,33082,1,0,0:0:0:0:
294,158,33282,1,0,0:0:0:0:
315,110,33482,1,0,3:0:0:0:
294,158,33682,1,0,3:0:0:0:
315,110,33882,1,8,0:0:0:0:
294,158,34082,1,0,0:0:0:0:
315,110,34482,1,8,0:0:0:0:
294,58,34882,1,0,0:0:0:0:
193,50,35282,5,0,3:0:0:0:
241,35,35482,2,0,P|236:80|191:98,1,80,2|0,0:0|0:0,0:0:0:0:
120,77,36082,2,0,P|143:78|160:87,1,40,8|0,0:0|0:0,0:0:0:0:
125,133,36482,2,0,P|106:141|87:141,1,40,0|0,0:0|3:0,0:0:0:0:
19,126,36882,5,0,0:0:0:0:
63,99,37082,2,0,P|62:151|28:175,1,80,2|0,0:0|0:0,0:0:0:0:
13,234,37682,2,0,P|1:204|9:177,1,40,8|0,0:0|0:0,0:0:0:0:
67,229,38082,2,0,P|65:248|55:266,1,40
0,348,38482,5,6,0:0:0:0:
90,346,38682,1,2,0:0:0:0:
0,348,38882,1,2,0:0:0:0:
0,348,39282,5,8,0:0:0:0:
40,315,39482,1,0,0:0:0:0:
0,348,39682,1,0,0:0:0:0:
40,315,39882,1,0,3:0:0:0:
0,348,40082,1,0,3:0:0:0:
40,315,40282,1,8,0:0:0:0:
0,348,40482,1,0,0:0:0:0:
40,315,40882,1,8,0:0:0:0:
88,312,41282,1,0,0:0:0:0:
165,383,41682,5,2,3:2:0:0:
171,295,41882,1,2,0:0:0:0:
165,383,42082,1,2,0:0:0:0:
165,383,42482,5,8,0:0:0:0:
217,366,42682,1,0,0:0:0:0:
165,383,42882,1,0,0:0:0:0:
217,366,43082,1,0,3:0:0:0:
165,383,43282,1,0,0:0:0:0:
217,366,43482,1,8,0:0:0:0:
165,383,43682,1,0,1:0:0:0:
217,366,43882,1,0,0:0:0:0:
165,383,44082,1,8,0:0:0:0:
230,316,44482,1,0,0:0:0:0:
319,379,44882,5,6,0:0:0:0:
312,289,45082,1,2,0:0:0:0:
319,379,45282,1,2,0:0:0:0:
319,379,45682,5,8,0:0:0:0:
364,353,45882,1,0,0:0:0:0:
319,379,46082,1,0,0:0:0:0:
364,353,46282,1,0,3:0:0:0:
319,379,46482,1,0,3:0:0:0:
364,353,46682,1,8,0:0:0:0:
319,379,46882,1,0,0:0:0:0:
364,353,47282,1,8,0:0:0:0:
411,368,47682,1,0,0:0:0:0:
455,280,48082,5,0,3:0:0:0:
472,329,48282,2,0,P|428:324|404:286,1,80,2|0,0:0|0:0,0:0:0:0:
423,210,48882,2,0,P|423:228|412:253,1,40,8|0,0:0|0:0,0:0:0:0:
372,219,49282,2,0,P|364:200|364:180,1,40,0|0,0:0|3:0,0:0:0:0:
438,116,49682,5,0,0:0:0:0:
414,160,49882,2,0,P|389:116|427:70,1,80,2|0,0:0|0:0,0:0:0:0:
478,52,50482,2,0,P|458:62|428:60,1,40,8|0,0:0|0:0,0:0:0:0:
403,0,50882,2,0,P|422:1|440:11,1,40
465,163,51282,5,4,0:1:0:0:
465,163,51682,2,0,P|454:185|457:211,2,40
406,221,52882,2,0,P|419:241|443:251,2,40
488,249,54082,1,0,0:0:0:0:
446,363,54482,5,4,1:0:0:0:
401,332,54882,2,0,P|363:332|335:352,1,60.0000022888184,0|8,0:0|0:0,0:0:0:0:
255,354,55682,1,0,0:0:0:0:
293,320,55882,1,0,3:0:0:0:
293,320,56082,2,0,P|308:287|295:248,1,60.0000022888184,0|2,0:0|0:0,0:0:0:0:
251,208,56882,2,0,P|255:227|278:247,1,30.0000011444092,8|0,0:0|3:0,0:0:0:0:
304,264,57282,1,0,0:0:0:0:
361,192,57682,6,0,P|326:208|292:196,1,60.0000022888184,4|0,1:0|0:0,0:0:0:0:
244,136,58482,2,0,P|246:165|231:191,1,60.0000022888184,8|0,0:0|0:0,0:0:0:0:
183,214,59082,1,0,3:0:0:0:
222,256,59282,1,0,3:0:0:0:
222,256,59482,2,0,P|232:286|215:325,1,60.0000022888184,0|0,1:0|0:0,0:0:0:0:
178,337,60082,2,0,P|151:327|132:304,1,60.0000022888184,8|0,0:0|0:0,0:0:0:0:
129,254,60682,1,0,3:0:0:0:
81,275,60882,6,0,P|76:243|92:211,1,60.0000022888184,0|0,3:0|0:0,0:0:0:0:
159,142,61682,2,0,P|132:128|103:130,1,60.0000022888184,8|0,0:0|0:0,0:0:0:0:
42,165,62282,2,0,P|61:170|81:163,1,30.0000011444092,0|0,3:0|0:0,0:0:0:0:
103,130,62682,1,0,1:0:0:0:
84,77,62882,2,0,P|107:50|108:14,1,60.0000022888184,2|8,0:0|0:0,0:0:0:0:
163,14,63482,2,0,P|182:37|247:31,1,90.0000034332277,2|0,0:0|0:0,0:0:0:0:
45,117,70482,5,2,0:0:0:0:
45,117,70882,2,0,P|57:104|64:73,1,40,0|8,0:0|0:0,0:0:0:0:
31,25,71882,2,0,P|32:38|37:52,1,20,0|0,3:0|3:0,0:0:0:0:
105,58,72482,2,0,P|124:47|155:52,1,40,0|8,0:0|0:0,0:0:0:0:
202,69,73482,2,0,P|189:75|175:77,1,20,0|0,3:0|3:0,0:0:0:0:
159,133,74082,2,0,P|157:158|172:181,2,40,0|8|0,0:0|0:0|0:0,0:0:0:0:
210,198,75282,5,0,0:0:0:0:
259,173,75682,1,0,0:0:0:0:
311,190,76082,1,0,0:0:0:0:
354,160,76482,1,0,0:0:0:0:
508,177,76882,5,6,0:0:0:0:
424,190,77082,1,2,0:0:0:0:
508,177,77282,1,2,0:0:0:0:
509,177,77682,5,8,0:0:0:0:
487,224,77882,1,0,0:0:0:0:
508,177,78082,1,0,0:0:0:0:
486,224,78282,1,0,3:0:0:0:
508,177,78482,1,0,3:0:0:0:
486,224,78682,1,8,0:0:0:0:
508,177,78882,1,0,0:0:0:0:
486,224,79282,1,8,0:0:0:0:
507,272,79682,1,0,0:0:0:0:
439,370,80082,5,2,3:2:0:0:
444,282,80282,1,2,0:0:0:0:
439,370,80482,1,2,0:0:0:0:
439,370,80882,5,8,0:0:0:0:
395,343,81082,1,0,0:0:0:0:
439,370,81282,1,0,0:0:0:0:
395,343,81482,1,0,3:0:0:0:
439,370,81682,1,0,0:0:0:0:
395,343,81882,1,8,0:0:0:0:
439,370,82082,1,0,1:0:0:0:
395,343,82282,1,0,0:0:0:0:
439,370,82482,1,8,0:0:0:0:
346,369,82882,1,0,0:0:0:0:
232,323,83282,5,6,0:0:0:0:
319,311,83482,1,2,0:0:0:0:
232,323,83682,1,2,0:0:0:0:
232,323,84082,5,8,0:0:0:0:
247,275,84282,1,0,0:0:0:0:
232,323,84482,1,0,0:0:0:0:
247,275,84682,1,0,3:0:0:0:
232,323,84882,1,0,3:0:0:0:
247,275,85082,1,8,0:0:0:0:
232,323,85282,1,0,0:0:0:0:
247,275,85682,1,8,0:0:0:0:
223,230,86082,1,0,0:0:0:0:
130,259,86482,5,0,3:0:0:0:
176,283,86682,2,0,P|145:307|106:303,1,80,2|0,0:0|0:0,0:0:0:0:
63,227,87282,2,0,P|75:253|74:274,1,40,8|0,0:0|0:0,0:0:0:0:
13,307,87682,2,0,P|15:287|25:269,1,40,0|0,0:0|3:0,0:0:0:0:
85,155,88082,5,0,0:0:0:0:
109,200,88282,2,0,P|59:199|37:171,1,80,2|0,0:0|0:0,0:0:0:0:
33,91,88882,2,0,P|43:115|38:141,1,40,8|0,0:0|0:0,0:0:0:0:
0,154,89282,1,0,0:0:0:0:
66,37,89482,1,0,0:0:0:0:
67,43,89582,1,0,0:0:0:0:
68,49,89682,5,6,0:0:0:0:
155,51,89882,1,2,0:0:0:0:
68,49,90082,1,2,0:0:0:0:
68,49,90482,5,8,0:0:0:0:
106,12,90682,1,0,0:0:0:0:
68,49,90882,1,0,0:0:0:0:
106,12,91082,1,0,3:0:0:0:
68,49,91282,1,0,3:0:0:0:
106,12,91482,1,8,0:0:0:0:
68,49,91682,1,0,0:0:0:0:
106,12,92082,1,8,0:0:0:0:
155,12,92482,1,0,0:0:0:0:
151,96,92682,1,0,0:0:0:0:
152,102,92782,1,0,0:0:0:0:
153,108,92882,5,2,3:2:0:0:
147,195,93082,1,2,0:0:0:0:
153,108,93282,1,2,0:0:0:0:
153,108,93682,5,8,0:0:0:0:
103,126,93882,1,0,0:0:0:0:
153,108,94082,1,0,0:0:0:0:
103,126,94282,1,0,3:0:0:0:
153,108,94482,1,0,0:0:0:0:
103,126,94682,1,8,0:0:0:0:
153,108,94882,1,0,1:0:0:0:
103,126,95082,1,0,0:0:0:0:
153,108,95282,1,8,0:0:0:0:
94,178,95682,1,0,0:0:0:0:
127,218,95882,1,0,0:0:0:0:
126,224,95982,1,0,0:0:0:0:
125,230,96082,5,6,0:0:0:0:
212,236,96282,1,2,0:0:0:0:
125,230,96482,1,2,0:0:0:0:
125,230,96882,5,8,0:0:0:0:
138,282,97082,1,0,0:0:0:0:
125,230,97282,1,0,0:0:0:0:
138,282,97482,1,0,3:0:0:0:
125,230,97682,1,0,3:0:0:0:
138,282,97882,1,8,0:0:0:0:
125,230,98082,1,0,0:0:0:0:
138,282,98482,1,8,0:0:0:0:
112,326,98882,1,0,0:0:0:0:
180,314,99082,1,0,3:0:0:0:
181,320,99182,1,0,0:0:0:0:
182,326,99282,5,0,3:0:0:0:
146,364,99482,2,0,P|191:378|228:354,1,80,2|0,0:0|0:0,0:0:0:0:
244,279,100082,2,0,P|236:297|236:324,1,40,8|0,0:0|0:0,0:0:0:0:
296,282,100482,2,0,P|294:262|286:243,1,40,0|0,0:0|3:0,0:0:0:0:
205,184,100882,5,0,0:0:0:0:
244,152,101082,2,0,P|254:199|227:230,1,80,2|0,0:0|0:0,0:0:0:0:
149,243,101682,2,0,P|177:231|197:233,1,40,8|0,0:0|0:0,0:0:0:0:
221,270,102082,1,0,0:0:0:0:
203,316,102282,6,0,P|204:333|205:338,2,20
259,149,108882,5,4,3:3:0:0:
283,97,110282,1,4,3:3:0:0:
283,97,110482,1,4,3:3:0:0:
262,40,111882,1,4,3:3:0:0:
262,40,112082,1,4,3:3:0:0:
168,92,114082,5,4,3:3:0:0:
348,103,114682,1,4,3:3:0:0:
380,143,115082,6,0,L|379:155,2,10,4|0|4,3:3|0:0|3:3,0:0:0:0:
344,199,116682,2,0,L|345:211,2,10,4|0|4,3:3|0:0|3:3,0:0:0:0:
380,255,118282,2,0,L|379:267,2,10,4|0|4,3:3|0:0|3:3,0:0:0:0:
450,197,120482,5,4,3:3:0:0:
270,208,121082,1,4,3:3:0:0:
235,262,121482,6,0,L|236:278,2,10,4|0|4,3:3|0:0|3:3,0:0:0:0:
196,210,123082,2,0,L|195:226,2,10,4|0|4,3:3|0:0|3:3,0:0:0:0:
236,159,124682,2,0,L|237:175,2,10,4|0|4,3:3|0:0|3:3,0:0:0:0:
313,208,126882,5,4,3:3:0:0:
133,219,127482,1,4,3:3:0:0:
98,181,127682,1,0,0:0:0:0:
112,130,127882,1,4,0:3:0:0:
112,123,127982,1,0,0:0:0:0:
112,117,128082,5,6,0:0:0:0:
199,122,128282,1,2,0:0:0:0:
112,117,128482,1,2,0:0:0:0:
112,117,128882,5,8,0:0:0:0:
125,66,129082,1,0,0:0:0:0:
112,117,129282,1,0,0:0:0:0:
125,66,129482,1,0,3:0:0:0:
112,117,129682,1,0,3:0:0:0:
125,66,129882,1,8,0:0:0:0:
112,117,130082,1,0,0:0:0:0:
125,66,130482,1,8,0:0:0:0:
175,49,130882,1,0,0:0:0:0:
241,79,131082,1,0,0:0:0:0:
235,79,131182,1,0,0:0:0:0:
228,79,131282,5,2,3:2:0:0:
236,166,131482,1,2,0:0:0:0:
228,79,131682,1,2,0:0:0:0:
228,79,132082,5,8,0:0:0:0:
180,96,132282,1,0,0:0:0:0:
228,79,132482,1,0,0:0:0:0:
180,96,132682,1,0,3:0:0:0:
228,79,132882,1,0,0:0:0:0:
180,96,133082,1,8,0:0:0:0:
228,79,133282,1,0,1:0:0:0:
180,96,133482,1,0,0:0:0:0:
228,79,133682,1,8,0:0:0:0:
178,148,134082,1,0,0:0:0:0:
123,184,134282,1,0,0:0:0:0:
129,184,134382,1,0,0:0:0:0:
136,184,134482,5,6,0:0:0:0:
131,272,134682,1,2,0:0:0:0:
136,184,134882,1,2,0:0:0:0:
136,184,135282,5,8,0:0:0:0:
188,202,135482,1,0,0:0:0:0:
136,184,135682,1,0,0:0:0:0:
188,202,135882,1,0,3:0:0:0:
136,184,136082,1,0,3:0:0:0:
188,202,136282,1,8,0:0:0:0:
136,184,136482,1,0,0:0:0:0:
188,202,136882,1,8,0:0:0:0:
237,180,137282,1,0,0:0:0:0:
285,215,137482,1,0,3:0:0:0:
285,221,137582,1,0,0:0:0:0:
285,228,137682,5,0,3:0:0:0:
260,276,137882,2,0,P|302:280|335:251,1,80,2|0,0:0|0:0,0:0:0:0:
349,171,138482,2,0,P|338:192|337:216,1,40,8|0,0:0|0:0,0:0:0:0:
402,174,138882,2,0,P|399:154|389:137,1,40,0|0,0:0|3:0,0:0:0:0:
399,67,139282,5,0,0:0:0:0:
357,97,139482,2,0,P|409:117|441:98,1,80,2|0,0:0|0:0,0:0:0:0:
462,27,140082,2,0,P|451:47|451:73,1,40,8|0,0:0|0:0,0:0:0:0:
480,109,140482,1,0,0:0:0:0:
454,153,140682,1,0,0:0:0:0:
454,159,140782,1,0,0:0:0:0:
454,166,140882,5,6,0:0:0:0:
368,181,141082,1,2,0:0:0:0:
454,166,141282,1,2,0:0:0:0:
454,166,141682,5,8,0:0:0:0:
447,220,141882,1,0,0:0:0:0:
454,166,142082,1,0,0:0:0:0:
447,220,142282,1,0,3:0:0:0:
454,166,142482,1,0,3:0:0:0:
447,220,142682,1,8,0:0:0:0:
454,166,142882,1,0,0:0:0:0:
447,220,143282,1,8,0:0:0:0:
407,252,143682,1,0,0:0:0:0:
467,288,143882,1,0,3:0:0:0:
461,288,143982,1,0,0:0:0:0:
454,288,144082,5,2,3:2:0:0:
367,288,144282,1,2,0:0:0:0:
454,288,144482,1,2,0:0:0:0:
454,288,144882,5,8,0:0:0:0:
478,337,145082,1,0,0:0:0:0:
454,288,145282,1,0,0:0:0:0:
478,337,145482,1,0,3:0:0:0:
454,288,145682,1,0,0:0:0:0:
478,337,145882,1,8,0:0:0:0:
454,288,146082,1,0,1:0:0:0:
478,337,146282,1,0,0:0:0:0:
454,288,146482,1,8,0:0:0:0:
447,380,146882,1,0,0:0:0:0:
396,361,147082,1,0,0:0:0:0:
390,361,147182,1,0,0:0:0:0:
383,361,147282,5,6,0:0:0:0:
379,274,147482,1,2,0:0:0:0:
383,361,147682,1,2,0:0:0:0:
383,361,148082,5,8,0:0:0:0:
335,347,148282,1,0,0:0:0:0:
383,361,148482,1,0,0:0:0:0:
335,347,148682,1,0,3:0:0:0:
383,361,148882,1,0,3:0:0:0:
335,347,149082,1,8,0:0:0:0:
383,361,149282,1,0,0:0:0:0:
335,347,149682,1,8,0:0:0:0:
287,366,150082,1,0,0:0:0:0:
250,283,150282,1,0,3:0:0:0:
250,289,150382,1,0,0:0:0:0:
250,296,150482,5,0,3:0:0:0:
297,317,150682,2,0,P|261:345|220:334,1,80,2|0,0:0|0:0,0:0:0:0:
185,263,151282,2,0,P|198:284|198:312,1,40,8|0,0:0|0:0,0:0:0:0:
132,339,151682,2,0,P|135:319|147:303,1,40,0|0,0:0|3:0,0:0:0:0:
162,208,152082,5,0,0:0:0:0:
134,251,152282,2,0,P|111:217|129:169,1,80,2|0,0:0|0:0,0:0:0:0:
196,138,152882,2,0,P|181:151|149:157,1,40,8|0,0:0|0:0,0:0:0:0:
83,107,153282,2,0,P|101:113|116:126,1,40
96,292,153682,5,0,0:0:0:0:
