osu file format v14

[General]
AudioFilename: audio.mp3
AudioLeadIn: 0
PreviewTime: 25682
Countdown: 0
SampleSet: Soft
StackLeniency: 0.7
Mode: 0
LetterboxInBreaks: 0
EpilepsyWarning: 1
WidescreenStoryboard: 1

[Editor]
Bookmarks: 12882,19282,25682,32082,38482,44882,51282,54482,64082,70482,76882,89682,102482,108882,115282,128082,140882,153682
DistanceSpacing: 1.2
BeatDivisor: 4
GridSize: 32
TimelineZoom: 1.4

[Metadata]
Title:SAD!
TitleUnicode:SAD!
Artist:XXXTENTACION
ArtistUnicode:XXXTENTACION
Creator:eiri-
Version:R.I.P
Source:
Tags:Ayyri Realazy Real Icekalt sdafsf Bergy ? Bad Vibes Forever
BeatmapID:1680650
BeatmapSetID:800568

[Difficulty]
HPDrainRate:5
CircleSize:5
OverallDifficulty:7
ApproachRate:8
SliderMultiplier:3
SliderTickRate:1

[Events]
//Background and Video events
0,0,"SAD.jpg",0,0
//Break Periods
//Storyboard Layer 0 (Background)
//Storyboard Layer 1 (Fail)
//Storyboard Layer 2 (Pass)
//Storyboard Layer 3 (Foreground)
//Storyboard Sound Samples

[TimingPoints]
12882,800,4,2,1,50,1,0
25682,-100,4,2,1,75,0,0
51682,-133.333333333333,4,2,1,25,0,0
54482,-100,4,2,1,75,0,0
70482,-100,4,2,1,50,0,0
76882,-100,4,2,1,75,0,0
108882,-100,4,2,1,50,0,0
128082,-100,4,2,1,75,0,0

[Colours]
Combo1 : 97,97,97
Combo2 : 192,192,192

[HitObjects]
439,74,12882,6,0,L|419:325,1,225,2|0,3:2|0:0,0:0:0:0:
320,345,13682,2,0,L|307:188,1,150,2|0,0:0|0:0,0:0:0:0:
213,135,14282,5,2,3:2:0:0:
213,135,14482,2,0,L|202:269,2,75,2|2|2,3:2|0:2|0:2,0:0:0:0:
25,87,15282,2,0,P|76:35|149:42,1,150,2|0,0:0|0:0,0:0:0:0:
261,69,15882,5,0,3:0:0:0:
261,69,16082,2,0,L|349:63,1,75,2|2,3:2|0:0,0:0:0:0:
475,159,16682,1,2,0:0:0:0:
475,159,16882,2,0,L|481:247,1,75,2|0,0:0|0:0,0:0:0:0:
307,354,17282,5,2,0:0:0:0:
248,245,17482,1,2,0:0:0:0:
384,271,17682,1,2,0:0:0:0:
181,364,17882,1,2,0:0:0:0:
420,350,18082,6,0,L|494:339,1,75,0|2,3:0|0:0,0:0:0:0:
347,306,18482,1,2,0:0:0:0:
274,262,18682,2,0,L|263:187,1,75,0|2,3:0|0:0,0:0:0:0:
345,65,19082,1,2,3:2:0:0:
345,65,19282,6,0,P|276:114|187:21,1,225,2|0,3:2|0:0,0:0:0:0:
418,21,20082,2,0,L|445:175,1,150,2|0,0:0|0:0,0:0:0:0:
404,274,20682,5,0,3:2:0:0:
404,274,20882,2,0,P|370:258|315:260,2,75,2|2|2,3:2|0:0|0:0,0:0:0:0:
226,355,21682,2,0,P|243:281|140:209,1,150,2|0,0:0|0:0,0:0:0:0:
90,317,22282,5,0,3:0:0:0:
90,317,22482,2,0,P|126:320|165:272,1,75,2|2,3:2|0:0,0:0:0:0:
12,236,23082,1,2,0:0:0:0:
12,236,23282,2,0,L|-6:131,1,75,2|0,0:0|0:0,0:0:0:0:
43,58,23682,5,2,0:0:0:0:
174,17,23882,1,2,0:0:0:0:
83,165,24082,1,2,0:0:0:0:
246,113,24282,1,2,0:0:0:0:
226,225,24482,6,0,L|241:298,1,75,0|2,3:0|0:0,0:0:0:0:
368,349,24882,1,2,0:0:0:0:
313,156,25082,2,0,L|328:229,1,75,0|2,3:0|0:0,0:0:0:0:
455,280,25482,1,0,0:0:0:0:
512,69,25682,6,0,P|458:39|410:45,1,75,6|2,0:0|0:0,0:0:0:0:
308,60,26082,2,0,P|261:100|250:147,1,75,2|0,0:0|0:0,0:0:0:0:
227,248,26482,1,8,0:0:0:0:
358,280,26682,1,0,0:0:0:0:
286,290,26882,1,0,0:0:0:0:
403,222,27082,5,0,3:0:0:0:
403,222,27282,2,0,L|410:120,1,75,0|8,3:0|0:0,0:0:0:0:
319,45,27682,2,0,L|325:147,1,75,0|0,0:0|0:0,0:0:0:0:
263,215,28082,2,0,P|208:162|119:213,1,150,8|0,0:0|0:0,0:0:0:0:
77,270,28682,5,0,0:0:0:0:
77,270,28882,2,0,L|-14:261,1,75,2|2,3:2|0:2,0:0:0:0:
154,349,29282,2,0,L|245:340,1,75,2|0,0:2|0:0,0:0:0:0:
327,286,29682,5,8,0:0:0:0:
380,169,29882,1,0,0:0:0:0:
323,213,30082,1,0,0:0:0:0:
449,190,30282,5,0,3:0:0:0:
449,190,30482,2,0,L|463:93,1,75,0|8,0:0|0:0,0:0:0:0:
396,23,30882,1,0,1:0:0:0:
335,116,31082,1,0,0:0:0:0:
419,16,31282,2,0,L|494:22,1,75,8|0,0:0|0:0,0:0:0:0:
269,138,31682,2,0,B|264:100|264:100|306:31,1,75
512,194,32082,6,0,P|495:240|443:261,1,75,6|2,0:0|0:0,0:0:0:0:
345,176,32482,2,0,P|362:130|414:109,1,75,2|0,0:0|0:0,0:0:0:0:
492,339,32882,1,8,0:0:0:0:
401,225,33082,1,0,0:0:0:0:
462,270,33282,1,0,0:0:0:0:
326,221,33482,5,0,3:0:0:0:
326,221,33682,2,0,L|316:319,1,75,0|8,3:0|0:0,0:0:0:0:
201,335,34082,2,0,L|190:237,1,75,0|0,0:0|0:0,0:0:0:0:
256,128,34482,2,0,P|212:142|166:23,1,150,8|0,0:0|0:0,0:0:0:0:
306,28,35082,5,0,0:0:0:0:
306,28,35282,1,0,3:0:0:0:
376,112,35482,2,0,L|358:283,1,150,2|0,0:0|0:0,0:0:0:0:
277,333,36082,2,0,P|234:285|175:293,2,75,8|0|0,0:0|0:0|0:0,0:0:0:0:
417,360,36682,5,0,3:0:0:0:
422,207,36882,1,0,0:0:0:0:
301,237,37082,2,0,L|283:66,1,150,2|0,0:0|0:0,0:0:0:0:
202,16,37682,2,0,P|159:64|100:56,2,75,8|0|0,0:0|0:0|0:0,0:0:0:0:
340,0,38282,1,0,0:0:0:0:
457,108,38482,6,0,P|432:153|382:179,1,75,6|2,0:0|0:0,0:0:0:0:
277,168,38882,2,0,P|237:135|220:81,1,75,2|0,0:0|0:0,0:0:0:0:
479,23,39282,1,8,0:0:0:0:
472,164,39482,1,0,0:0:0:0:
496,94,39682,1,0,0:0:0:0:
413,209,39882,5,0,3:0:0:0:
413,209,40082,2,0,P|361:269|356:303,1,75,0|8,3:0|0:0,0:0:0:0:
268,362,40482,2,0,P|247:330|217:308,1,75,0|0,0:0|0:0,0:0:0:0:
55,293,40882,2,0,P|132:253|103:166,1,150,8|0,0:0|0:0,0:0:0:0:
49,121,41482,5,0,0:0:0:0:
49,121,41682,2,0,L|170:99,1,75,2|2,3:2|0:0,0:0:0:0:
229,18,42082,2,0,L|350:40,1,75,2|0,0:0|0:0,0:0:0:0:
463,99,42482,1,8,0:0:0:0:
340,146,42682,1,0,0:0:0:0:
383,74,42882,1,0,0:0:0:0:
404,236,43082,5,0,3:0:0:0:
404,236,43282,2,0,P|332:237|295:254,1,75,0|8,0:0|0:0,0:0:0:0:
212,340,43682,2,0,P|211:268|194:231,1,75,0|0,1:0|0:0,0:0:0:0:
115,106,44082,2,0,P|116:178|133:215,1,75,8|0,0:0|0:0,0:0:0:0:
210,265,44482,2,0,B|175:278|175:278|138:276,1,75
317,164,44882,6,0,P|330:227|323:272,1,75,6|2,0:0|0:0,0:0:0:0:
448,309,45282,2,0,P|435:246|442:201,1,75,2|0,0:0|0:0,0:0:0:0:
512,120,45682,1,8,0:0:0:0:
362,112,45882,1,0,0:0:0:0:
435,146,46082,1,0,0:0:0:0:
333,37,46282,5,0,3:0:0:0:
333,37,46482,2,0,L|226:50,1,75,0|8,3:0|0:0,0:0:0:0:
150,133,46882,2,0,L|257:146,1,75,0|0,0:0|0:0,0:0:0:0:
329,238,47282,2,0,P|230:250|247:335,1,150,8|0,0:0|0:0,0:0:0:0:
387,366,47882,5,0,0:0:0:0:
387,366,48082,1,0,3:0:0:0:
487,318,48282,2,0,L|469:147,1,150,2|0,0:0|0:0,0:0:0:0:
388,97,48882,2,0,P|345:145|286:137,2,75,8|0|0,0:0|0:0|0:0,0:0:0:0:
360,0,49482,5,0,3:0:0:0:
466,64,49682,1,0,0:0:0:0:
188,135,49882,2,0,P|205:234|298:279,1,150,2|0,0:0|0:0,0:0:0:0:
377,242,50482,2,0,P|333:220|288:229,1,75,8|0,0:0|0:0,0:0:0:0:
396,347,50882,2,0,P|442:331|468:293,1,75,0|0,0:0|0:0,0:0:0:0:
337,146,51282,5,4,0:1:0:0:
180,315,51682,2,0,L|59:305,2,112.500004291535
190,329,52882,1,0,0:0:0:0:
200,343,53282,1,0,0:0:0:0:
210,357,53682,1,0,0:0:0:0:
302,284,54082,2,0,L|309:208,1,56.2500021457673
380,89,54482,6,0,P|318:93|286:70,1,75,4|0,1:0|0:0,0:0:0:0:
197,2,54882,2,0,P|201:64|178:96,1,75,0|0,0:0|0:0,0:0:0:0:
85,199,55282,2,0,P|138:192|197:274,1,150,8|0,0:0|0:0,0:0:0:0:
289,326,55882,5,0,3:0:0:0:
289,326,56082,2,0,L|377:318,1,75,0|0,0:0|0:0,0:0:0:0:
435,203,56482,2,0,L|347:195,2,75,2|0|8,0:0|0:0|0:0,0:0:0:0:
498,334,57082,1,0,3:0:0:0:
498,334,57282,2,0,P|514:282|506:242,1,75,0|0,0:0|0:0,0:0:0:0:
444,103,57682,6,0,P|385:121|345:113,1,75,4|0,1:0|0:0,0:0:0:0:
270,74,58082,2,0,P|247:44|237:8,1,75,0|0,0:0|0:0,0:0:0:0:
498,76,58482,2,0,L|485:155,2,75,8|0|0,0:0|0:0|0:0,0:0:0:0:
336,60,59082,5,0,3:0:0:0:
336,60,59282,2,0,P|327:126|344:163,1,75,0|0,3:0|1:0,0:0:0:0:
388,272,59682,2,0,P|322:263|285:280,1,75,0|0,0:0|0:0,0:0:0:0:
210,353,60082,2,0,P|276:362|313:345,1,75,8|0,0:0|0:0,0:0:0:0:
144,232,60482,1,0,0:0:0:0:
8,373,60682,5,0,3:0:0:0:
8,373,60882,2,0,L|0:284,1,75,0|0,3:0|0:0,0:0:0:0:
60,134,61282,2,0,L|52:223,1,75,0|0,0:0|0:0,0:0:0:0:
115,321,61682,2,0,P|174:296|261:324,1,150,8|0,0:0|0:0,0:0:0:0:
343,384,62282,5,0,3:0:0:0:
343,384,62482,2,0,L|351:300,1,75,0|0,0:0|0:0,0:0:0:0:
299,203,62882,2,0,P|378:205|428:180,1,75,2|0,0:0|0:0,0:0:0:0:
444,120,63282,1,8,0:0:0:0:
376,225,63482,2,0,P|297:227|247:202,1,75,2|0,0:0|0:0,0:0:0:0:
231,142,63882,1,0,0:0:0:0:
96,256,64082,5,0,0:0:0:0:
429,76,64482,2,0,L|423:151,1,75
461,244,64882,2,0,P|355:218|272:288,1,225,0|0,0:0|0:0,0:0:0:0:
256,320,65682,1,0,0:0:0:0:
83,76,66082,6,0,L|89:151,1,75
50,244,66482,2,0,P|156:218|240:288,1,225,0|0,0:0|0:0,0:0:0:0:
256,320,67282,1,0,0:0:0:0:
445,349,67682,6,0,P|463:297|456:246,1,75,0|0,0:0|0:0,0:0:0:0:
363,153,68082,2,0,P|345:205|384:298,1,150,0|0,0:0|0:0,0:0:0:0:
438,112,68882,6,0,P|379:69|309:86,1,150,0|0,0:0|0:0,0:0:0:0:
155,195,69682,2,0,P|191:204|228:199,1,75,0|0,0:0|0:0,0:0:0:0:
174,69,70082,2,0,P|138:60|102:66,1,75,0|0,0:0|0:0,0:0:0:0:
17,270,70482,5,2,0:0:0:0:
182,366,70882,2,0,P|192:314|186:266,1,75,0|0,0:0|0:0,0:0:0:0:
117,175,71282,2,0,P|189:191|256:160,1,150,8|0,0:0|0:0,0:0:0:0:
381,101,71882,5,0,3:0:0:0:
381,101,72082,2,0,L|395:181,1,75,0|0,3:0|0:0,0:0:0:0:
330,366,72482,2,0,P|320:314|326:266,1,75,0|0,0:0|0:0,0:0:0:0:
394,175,72882,2,0,P|322:191|256:160,1,150,8|0,0:0|0:0,0:0:0:0:
131,101,73482,5,0,3:0:0:0:
131,101,73682,2,0,L|117:181,1,75,0|0,3:0|0:0,0:0:0:0:
55,300,74082,2,0,P|86:279|122:272,1,75,0|0,0:0|0:0,0:0:0:0:
283,301,74482,2,0,P|224:281|183:196,1,150,8|0,0:0|0:0,0:0:0:0:
273,72,75082,5,0,0:0:0:0:
273,72,75282,2,0,L|182:56,1,75,0|0,0:0|0:0,0:0:0:0:
327,138,75682,2,0,L|418:122,1,75,0|0,0:0|0:0,0:0:0:0:
241,211,76082,2,0,L|127:191,1,75,0|0,0:0|0:0,0:0:0:0:
308,293,76482,2,0,L|421:273,1,75,0|0,0:0|0:0,0:0:0:0:
184,379,76882,6,0,P|151:306|162:265,1,75,6|2,0:0|0:0,0:0:0:0:
167,198,77282,2,0,P|240:165|281:176,1,75,2|0,0:0|0:0,0:0:0:0:
440,300,77682,1,8,0:0:0:0:
276,314,77882,1,0,0:0:0:0:
360,338,78082,1,0,0:0:0:0:
228,240,78282,5,0,3:0:0:0:
228,240,78482,2,0,L|233:138,1,75,0|8,3:0|0:0,0:0:0:0:
324,60,78882,2,0,P|240:58|196:21,1,75,0|0,0:0|0:0,0:0:0:0:
99,122,79282,2,0,P|183:124|240:180,1,150,8|0,0:0|0:0,0:0:0:0:
46,294,79882,5,0,0:0:0:0:
46,294,80082,2,0,P|24:243|26:195,1,75,2|2,3:2|0:0,0:0:0:0:
63,80,80482,2,0,P|103:41|149:27,1,75,2|0,0:0|0:0,0:0:0:0:
272,175,80882,1,8,0:0:0:0:
114,155,81082,1,0,0:0:0:0:
188,201,81282,1,0,0:0:0:0:
100,69,81482,5,0,3:0:0:0:
100,69,81682,2,0,L|190:59,1,75,0|8,0:0|0:0,0:0:0:0:
304,11,82082,1,0,1:0:0:0:
371,188,82282,1,0,0:0:0:0:
453,59,82482,2,0,L|436:151,1,75,8|0,0:0|0:0,0:0:0:0:
404,283,82882,2,0,B|442:290|442:290|514:274,1,75,0|0,0:0|0:0,0:0:0:0:
322,191,83282,6,0,P|320:228|329:265,1,75,6|2,0:0|0:0,0:0:0:0:
185,265,83683,2,0,P|194:229|192:192,1,75,2|0,0:0|0:0,0:0:0:0:
177,97,84082,1,8,0:0:0:0:
293,39,84282,1,0,0:0:0:0:
221,39,84482,1,0,0:0:0:0:
336,97,84682,5,0,3:0:0:0:
336,97,84882,2,0,L|364:188,1,75,0|8,3:0|0:0,0:0:0:0:
486,216,85282,2,0,L|458:125,1,75,0|0,0:0|0:0,0:0:0:0:
414,26,85682,2,0,P|315:7|237:27,1,150,8|0,0:0|0:0,0:0:0:0:
175,79,86282,5,0,0:0:0:0:
175,79,86482,1,0,3:0:0:0:
137,211,86682,2,0,L|303:191,1,150,2|0,0:0|0:0,0:0:0:0:
377,259,87282,2,0,P|399:307|454:323,2,75,8|0|0,0:0|0:0|0:0,0:0:0:0:
415,152,87882,5,0,3:0:0:0:
362,9,88082,1,0,0:0:0:0:
316,112,88282,2,0,L|150:132,1,150,2|0,0:0|0:0,0:0:0:0:
76,64,88882,2,0,P|54:16|-1:0,2,75,8|0|0,0:0|0:0|0:0,0:0:0:0:
12,184,89482,1,0,0:0:0:0:
12,184,89582,1,0,0:0:0:0:
12,184,89682,6,0,P|28:228|67:246,1,75,6|2,0:0|0:0,0:0:0:0:
181,198,90082,2,0,P|185:161|166:129,1,75,2|0,0:0|0:0,0:0:0:0:
101,37,90482,1,8,0:0:0:0:
279,43,90682,1,0,0:0:0:0:
189,49,90882,1,0,0:0:0:0:
366,20,91082,5,0,3:0:0:0:
366,20,91182,1,0,0:0:0:0:
366,20,91282,2,0,L|380:104,1,75,0|8,3:0|0:0,0:0:0:0:
468,205,91682,2,0,L|481:121,1,75,0|0,0:0|0:0,0:0:0:0:
289,212,92082,2,0,P|338:285|457:285,1,150,8|0,0:0|0:0,0:0:0:0:
499,265,92682,5,0,0:0:0:0:
499,265,92782,1,0,0:0:0:0:
499,265,92882,2,0,L|510:357,1,75,2|2,3:2|0:0,0:0:0:0:
395,218,93282,2,0,L|406:126,1,75,2|0,0:0|0:0,0:0:0:0:
334,32,93682,1,8,0:0:0:0:
202,129,93882,1,0,0:0:0:0:
287,106,94082,1,0,0:0:0:0:
124,88,94282,5,0,3:0:0:0:
124,88,94482,2,0,L|116:162,1,75,0|8,0:0|0:0,0:0:0:0:
108,276,94882,2,0,L|166:229,1,75,0|0,1:0|0:0,0:0:0:0:
273,160,95282,2,0,L|199:153,1,75,8|0,0:0|0:0,0:0:0:0:
357,231,95682,2,0,B|371:194|371:194|373:128,1,75,0|0,0:0|0:0,0:0:0:0:
307,17,95982,1,0,0:0:0:0:
307,17,96082,6,0,P|362:20|400:3,1,75,6|2,0:0|0:0,0:0:0:0:
501,106,96482,2,0,P|446:103|408:120,1,75,2|0,0:0|0:0,0:0:0:0:
247,237,96882,1,8,0:0:0:0:
258,102,97082,1,0,0:0:0:0:
302,174,97282,1,0,0:0:0:0:
145,110,97482,5,0,3:0:0:0:
145,110,97582,1,0,0:0:0:0:
145,110,97682,2,0,L|45:103,1,75,0|8,3:0|0:0,0:0:0:0:
14,224,98082,2,0,L|114:217,1,75,0|0,0:0|0:0,0:0:0:0:
232,299,98482,2,0,P|173:237|212:164,1,150,8|0,0:0|0:0,0:0:0:0:
276,84,99082,5,0,3:0:0:0:
276,84,99182,1,0,0:0:0:0:
276,84,99282,1,0,3:0:0:0:
388,154,99482,2,0,L|397:328,1,150,2|0,0:0|0:0,0:0:0:0:
297,263,100082,2,0,P|247:253|199:277,2,75,8|0|0,0:0|0:0|0:0,0:0:0:0:
357,381,100682,5,0,3:0:0:0:
502,328,100882,1,0,0:0:0:0:
392,229,101082,2,0,L|401:55,1,150,2|0,0:0|0:0,0:0:0:0:
301,120,101682,2,0,P|251:130|203:106,2,75,8|0|0,0:0|0:0|0:0,0:0:0:0:
416,13,102282,1,0,3:0:0:0:
416,13,102382,1,0,0:0:0:0:
416,13,102482,5,0,3:0:0:0:
426,21,104082,1,0,0:0:0:0:
436,29,105682,1,0,0:0:0:0:
446,37,107682,1,0,0:0:0:0:
66,347,108882,5,4,3:3:0:0:
50,260,110282,1,4,3:3:0:0:
128,232,110482,1,4,3:3:0:0:
50,260,111882,1,4,3:3:0:0:
170,216,112082,1,4,3:3:0:0:
128,232,114082,1,4,3:3:0:0:
133,241,114682,1,4,3:3:0:0:
237,269,115082,1,4,3:3:0:0:
237,269,115182,1,0,0:0:0:0:
237,269,115282,5,4,3:3:0:0:
188,97,116682,1,4,3:3:0:0:
188,97,116782,1,0,0:0:0:0:
188,97,116882,5,4,3:3:0:0:
375,257,118282,1,4,3:3:0:0:
375,257,118382,1,0,0:0:0:0:
375,257,118482,5,4,3:3:0:0:
55,177,120482,1,4,3:3:0:0:
200,123,121082,1,4,3:3:0:0:
256,320,121482,1,4,3:3:0:0:
256,320,121582,1,0,0:0:0:0:
256,320,121682,5,4,3:3:0:0:
324,97,123082,1,4,3:3:0:0:
324,97,123182,1,0,0:0:0:0:
324,97,123282,5,4,3:3:0:0:
137,257,124682,1,4,3:3:0:0:
137,257,124782,1,0,0:0:0:0:
137,257,124882,5,4,3:3:0:0:
457,177,126882,1,4,3:3:0:0:
312,123,127482,1,4,3:3:0:0:
256,320,127882,1,4,0:3:0:0:
256,320,127982,1,0,0:0:0:0:
256,320,128082,6,0,P|211:324|169:305,1,75,6|2,0:0|0:0,0:0:0:0:
335,217,128482,2,0,P|380:213|422:232,1,75,2|0,0:0|0:0,0:0:0:0:
453,344,128882,1,8,0:0:0:0:
510,164,129082,1,0,0:0:0:0:
501,260,129282,1,0,0:0:0:0:
476,73,129482,5,0,3:0:0:0:
476,73,129582,1,0,0:0:0:0:
476,73,129682,2,0,L|381:82,1,75,0|8,3:0|0:0,0:0:0:0:
249,152,130082,2,0,L|344:160,1,75,0|0,0:0|0:0,0:0:0:0:
459,236,130482,2,0,P|366:242|332:326,1,150,8|0,0:0|0:0,0:0:0:0:
194,330,131082,5,0,0:0:0:0:
194,330,131182,1,0,0:0:0:0:
194,330,131282,2,0,P|194:280|165:227,1,75,2|2,3:2|0:0,0:0:0:0:
240,78,131682,2,0,P|240:128|269:181,1,75,2|0,0:0|0:0,0:0:0:0:
424,230,132082,1,8,0:0:0:0:
265,288,132282,1,0,0:0:0:0:
330,220,132482,1,0,0:0:0:0:
278,381,132682,5,0,3:0:0:0:
278,381,132882,2,0,L|195:367,1,75,0|8,0:0|0:0,0:0:0:0:
109,279,133282,1,0,1:0:0:0:
248,151,133482,1,0,0:0:0:0:
121,363,133682,2,0,L|34:370,1,75,8|0,0:0|0:0,0:0:0:0:
215,232,134082,2,0,B|227:268|227:268|213:322,1,75,0|0,0:0|0:0,0:0:0:0:
87,186,134382,1,0,0:0:0:0:
87,186,134482,6,0,P|74:139|81:89,1,75,6|2,0:0|0:0,0:0:0:0:
251,221,134882,2,0,P|215:232|178:233,1,75,2|0,0:0|0:0,0:0:0:0:
301,104,135282,1,8,0:0:0:0:
419,235,135482,1,0,0:0:0:0:
386,146,135682,1,0,0:0:0:0:
382,323,135882,5,0,3:0:0:0:
382,323,135982,1,0,0:0:0:0:
382,323,136082,2,0,L|484:313,1,75,0|8,3:0|0:0,0:0:0:0:
292,256,136482,2,0,L|190:246,1,75,0|0,0:0|0:0,0:0:0:0:
401,120,136882,2,0,P|437:197|389:266,1,150,8|0,0:0|0:0,0:0:0:0:
304,340,137482,5,0,3:0:0:0:
304,340,137582,1,0,0:0:0:0:
304,340,137682,1,0,3:0:0:0:
217,248,137882,2,0,L|227:64,1,150,2|0,0:0|0:0,0:0:0:0:
137,157,138482,2,0,P|93:166|41:144,2,75,8|0|0,0:0|0:0|0:0,0:0:0:0:
238,73,139082,5,0,3:0:0:0:
320,218,139282,1,0,0:0:0:0:
472,129,139482,2,0,L|482:313,1,150,2|0,0:0|0:0,0:0:0:0:
392,220,140082,2,0,P|348:211|296:233,2,75,8|0|0,0:0|0:0|0:0,0:0:0:0:
498,358,140682,1,0,0:0:0:0:
498,358,140782,1,0,0:0:0:0:
498,358,140882,6,0,L|414:366,1,75,6|2,0:0|0:0,0:0:0:0:
244,210,141282,2,0,L|328:218,1,75,2|0,0:0|0:0,0:0:0:0:
156,352,141682,1,8,0:0:0:0:
32,206,141882,1,0,0:0:0:0:
65,303,142082,1,0,0:0:0:0:
74,112,142282,5,0,3:0:0:0:
74,112,142382,1,0,0:0:0:0:
74,112,142482,2,0,P|137:104|162:78,1,75,0|8,3:0|0:0,0:0:0:0:
269,222,142882,2,0,P|235:206|198:208,1,75,0|0,0:0|0:0,0:0:0:0:
387,126,143282,2,0,P|420:141|509:74,1,150,8|0,0:0|0:0,0:0:0:0:
302,20,143882,5,0,3:0:0:0:
302,20,143982,1,0,0:0:0:0:
302,20,144082,2,0,L|288:116,1,75,2|2,3:2|0:0,0:0:0:0:
209,282,144482,2,0,L|195:186,1,75,2|0,0:0|0:0,0:0:0:0:
54,108,144882,1,8,0:0:0:0:
259,108,145082,1,0,0:0:0:0:
156,126,145282,1,0,0:0:0:0:
349,54,145482,5,0,3:0:0:0:
349,54,145682,2,0,L|368:158,1,75,0|8,0:0|0:0,0:0:0:0:
462,217,146082,2,0,L|443:320,1,75,0|0,1:0|0:0,0:0:0:0:
256,352,146482,2,0,L|237:248,1,75,8|0,0:0|0:0,0:0:0:0:
177,140,146882,2,0,B|215:139|215:139|268:111,1,75,0|0,0:0|0:0,0:0:0:0:
68,50,147182,1,0,0:0:0:0:
68,50,147282,6,0,P|58:114|65:143,1,75,6|2,0:0|0:0,0:0:0:0:
174,269,147682,2,0,P|212:216|237:201,1,75,2|0,0:0|0:0,0:0:0:0:
381,175,148082,1,8,0:0:0:0:
244,29,148282,1,0,0:0:0:0:
345,71,148482,1,0,0:0:0:0:
146,77,148682,5,0,3:0:0:0:
146,77,148782,1,0,0:0:0:0:
146,77,148882,2,0,L|134:181,1,75,0|8,3:0|0:0,0:0:0:0:
43,302,149282,2,0,L|31:197,1,75,0|0,0:0|0:0,0:0:0:0:
17,45,149682,2,0,P|77:91|176:34,1,150,8|0,0:0|0:0,0:0:0:0:
229,9,150282,5,0,3:0:0:0:
229,9,150382,1,0,0:0:0:0:
229,9,150482,1,0,3:0:0:0:
422,70,150682,2,0,L|409:239,1,150,2|0,0:0|0:0,0:0:0:0:
450,373,151282,2,0,P|488:341|553:345,2,75,8|0|0,0:0|0:0|0:0,0:0:0:0:
259,354,151882,5,0,3:0:0:0:
193,175,152082,1,0,0:0:0:0:
72,366,152282,2,0,L|59:197,1,150,2|0,0:0|0:0,0:0:0:0:
250,126,152882,2,0,P|297:138|355:107,2,75,8|0|0,0:0|0:0|0:0,0:0:0:0:
102,20,153482,1,0,3:0:0:0:
102,20,153582,1,0,0:0:0:0:
102,20,153682,5,0,3:0:0:0:
