osu file format v14

[General]
AudioFilename: audio.mp3
AudioLeadIn: 0
PreviewTime: 25730
Countdown: 0
SampleSet: Soft
StackLeniency: 0.7
Mode: 2
LetterboxInBreaks: 0
WidescreenStoryboard: 0

[Editor]
DistanceSpacing: 1.6
BeatDivisor: 4
GridSize: 8
TimelineZoom: 1

[Metadata]
Title:SAD!
TitleUnicode:SAD!
Artist:XXXTENTACION
ArtistUnicode:XXXTENTACION
Creator:MBomb
Version:Salad
Source:
Tags:Magic Bomb AJamez Chromoxx question mark english hip hop
BeatmapID:1888355
BeatmapSetID:904606

[Difficulty]
HPDrainRate:4
CircleSize:3
OverallDifficulty:6.5
ApproachRate:6.5
SliderMultiplier:2.79999990463257
SliderTickRate:1

[Events]
//Background and Video events
0,0,"sad boi.jpg",0,0
//Break Periods
//Storyboard Layer 0 (Background)
//Storyboard Layer 1 (Fail)
//Storyboard Layer 2 (Pass)
//Storyboard Layer 3 (Foreground)
//Storyboard Sound Samples

[TimingPoints]
12935,800,4,2,0,50,1,0
53735,-100,4,2,0,30,0,0
54535,-100,4,2,0,50,0,0
76935,-100,4,2,0,50,0,1
102535,-100,4,2,0,50,0,0

[Colours]
Combo1 : 255,81,81
Combo2 : 0,0,176
Combo3 : 0,128,192
Combo4 : 176,88,0

[HitObjects]
160,192,25735,6,0,L|80:192,2,69.9999976158143,4|0|2,2:3|0:0|0:0,0:0:0:0:
320,192,26535,2,0,L|472:192,1,139.999995231629,8|0,0:0|0:0,0:0:0:0:
296,192,27335,1,4,0:3:0:0:
152,192,27735,1,0,0:0:0:0:
12,192,28135,2,0,P|64:136|136:128,1,139.999995231629,8|0,0:2|0:0,0:0:0:0:
432,192,28935,6,0,L|496:160,2,69.9999976158143,4|0|0,0:3|0:0|0:0,0:0:0:0:
272,192,29735,2,0,L|416:192,1,139.999995231629,8|0,0:2|0:0,0:0:0:0:
248,192,30535,1,0,0:0:0:0:
400,192,30935,2,0,P|456:160|496:96,2,139.999995231629,4|8|0,0:3|0:2|0:0,0:0:0:0:
96,192,32135,6,0,L|16:192,2,69.9999976158143,4|0|2,0:3|0:0|0:0,0:0:0:0:
240,192,32935,2,0,P|264:136|200:112,1,139.999995231629,8|0,0:2|0:0,0:0:0:0:
40,192,33735,2,0,L|184:192,2,139.999995231629,4|0|8,0:3|0:0|0:2,0:0:0:0:
192,192,34935,1,0,0:0:0:0:
496,192,35335,6,0,L|408:192,1,69.9999976158143,4|0,0:3|0:0,0:0:0:0:
184,192,36135,2,0,L|352:192,1,139.999995231629,8|0,0:2|0:0,0:0:0:0:
16,192,36935,2,0,L|104:192,1,69.9999976158143,0|8,0:0|0:1,0:0:0:0:
184,192,37335,1,4,0:3:0:0:
328,192,37735,1,8,0:2:0:0:
258,192,37935,1,4,0:3:0:0:
188,192,38135,1,0,0:0:0:0:
496,192,38535,5,4,0:3:0:0:
472,192,38735,1,0,0:0:0:0:
400,192,38935,1,2,0:0:0:0:
240,192,39335,2,0,P|158:172|152:120,1,139.999995231629,8|0,0:2|0:0,0:0:0:0:
312,192,40135,1,4,0:3:0:0:
168,192,40535,1,0,0:0:0:0:
328,192,40935,2,0,L|472:192,1,139.999995231629,8|0,0:2|0:0,0:0:0:0:
160,192,41735,6,0,L|72:192,2,69.9999976158143,4|0|0,0:3|0:0|0:0,0:0:0:0:
312,192,42535,2,0,L|160:192,1,139.999995231629,8|0,0:2|0:0,0:0:0:0:
336,192,43335,1,0,0:0:0:0:
496,192,43735,2,0,L|328:192,2,139.999995231629,4|8|0,0:3|0:2|0:0,0:0:0:0:
192,192,44935,6,0,L|112:192,2,69.9999976158143,4|0|2,0:3|0:0|0:0,0:0:0:0:
352,192,45735,2,0,P|424:144|400:96,1,139.999995231629,8|0,0:2|0:0,0:0:0:0:
240,192,46535,2,0,L|392:192,2,139.999995231629,4|0|8,0:3|0:0|0:2,0:0:0:0:
96,192,47735,1,0,0:2:0:0:
408,192,48135,6,0,L|480:192,1,69.9999976158143,4|0,0:3|0:0,0:0:0:0:
256,192,48935,2,0,L|432:192,1,139.999995231629,8|0,0:2|0:0,0:0:0:0:
88,192,49735,2,0,L|16:192,1,69.9999976158143,0|8,0:0|0:1,0:0:0:0:
116,192,50135,1,0,0:0:0:0:
272,192,50535,1,8,0:2:0:0:
202,192,50735,1,4,0:3:0:0:
132,192,50935,1,0,0:0:0:0:
440,192,51335,5,4,0:3:0:0:
152,192,52935,1,0,0:0:0:0:
416,192,54135,1,4,0:3:0:0:
112,192,54535,6,0,P|24:160|16:120,1,139.999995231629,4|0,0:3|3:0,0:0:0:0:
176,192,55335,2,0,L|328:192,1,139.999995231629,8|0,0:2|0:0,0:0:0:0:
456,192,56135,1,0,0:0:0:0:
296,192,56535,1,4,0:3:0:0:
152,192,56935,2,0,P|72:168|56:120,1,139.999995231629,8|0,3:2|3:0,0:0:0:0:
360,192,57735,6,0,P|448:168|472:128,1,139.999995231629,4|2,3:3|3:2,0:0:0:0:
320,192,58535,2,0,P|248:168|224:112,1,139.999995231629,8|0,0:2|0:0,0:0:0:0:
392,192,59335,2,0,P|392:128|312:104,1,139.999995231629,4|0,0:3|0:0,0:0:0:0:
184,192,60135,2,0,L|368:192,1,139.999995231629,8|0,0:2|0:0,0:0:0:0:
16,192,60935,6,0,L|160:192,2,139.999995231629,4|0|8,3:3|3:0|0:2,0:0:0:0:
176,192,62135,1,0,0:0:0:0:
344,192,62535,1,0,0:0:0:0:
192,192,62935,1,4,0:3:0:0:
336,192,63335,2,0,P|416:160|440:112,1,139.999995231629,8|0,3:2|3:0,0:0:0:0:
136,192,64135,5,0,0:0:0:0:
416,192,65735,1,0,0:0:0:0:
192,192,67335,1,0,0:0:0:0:
440,192,69335,1,0,0:0:0:0:
104,192,70535,5,4,0:3:0:0:
256,192,70935,1,0,0:0:0:0:
408,192,71335,2,0,P|464:128|360:88,1,209.999992847443,8|4,0:2|0:3,0:0:0:0:
184,192,72135,1,4,0:3:0:0:
32,192,72535,1,0,0:0:0:0:
200,192,72935,2,0,P|136:120|32:136,1,209.999992847443,8|4,0:2|0:3,0:0:0:0:
224,192,73735,5,4,0:3:0:0:
376,192,74135,1,0,0:0:0:0:
208,192,74535,2,0,L|64:192,1,139.999995231629,8|0,0:2|0:0,0:0:0:0:
232,192,75335,2,0,P|280:176|296:96,1,139.999995231629,0|0,0:0|0:0,0:0:0:0:
128,192,76135,2,0,L|56:192,2,69.9999976158143,0|0|0,0:0|0:0|0:0,0:0:0:0:
432,192,76935,6,0,P|480:176|496:160,2,69.9999976158143,4|0|2,0:3|0:0|0:2,0:0:0:0:
296,192,77735,2,0,P|200:176|176:144,1,139.999995231629,8|0,0:2|0:0,0:0:0:0:
336,192,78535,1,4,0:3:0:0:
192,192,78935,1,0,0:0:0:0:
352,192,79335,2,0,L|496:192,1,139.999995231629,8|0,0:2|0:0,0:0:0:0:
184,192,80135,6,0,L|96:192,2,69.9999976158143,4|0|0,0:3|0:0|0:0,0:0:0:0:
344,192,80935,2,0,L|192:192,1,139.999995231629,8|0,0:2|0:0,0:0:0:0:
376,192,81735,1,0,0:0:0:0:
192,192,82135,2,0,P|180:144|252:96,1,139.999995231629,4|8,0:3|0:2,0:0:0:0:
400,192,82935,1,0,0:0:0:0:
96,192,83335,6,0,L|24:192,2,69.9999976158143,4|0|2,0:3|0:0|0:2,0:0:0:0:
264,192,84135,2,0,L|120:192,1,139.999995231629,8|0,0:2|0:3,0:0:0:0:
288,192,84935,2,0,L|440:192,2,139.999995231629,4|0|8,0:3|0:0|0:2,0:0:0:0:
128,192,86135,1,0,0:0:0:0:
440,192,86535,6,0,L|440:112,1,69.9999976158143,4|0,0:3|0:0,0:0:0:0:
208,192,87335,2,0,L|376:192,1,139.999995231629,8|0,0:2|0:0,0:0:0:0:
40,192,88135,2,0,L|112:192,1,69.9999976158143,0|8,0:0|0:1,0:0:0:0:
200,192,88535,1,4,0:3:0:0:
40,192,88935,1,8,0:2:0:0:
110,192,89135,1,4,0:3:0:0:
40,192,89335,1,0,0:0:0:0:
110,192,89535,1,0,0:0:0:0:
304,192,89735,6,0,L|392:192,2,69.9999976158143,4|0|2,0:3|0:0|0:2,0:0:0:0:
144,192,90535,2,0,L|296:192,1,139.999995231629,8|0,0:2|0:0,0:0:0:0:
200,192,91135,1,4,0:3:0:0:
104,192,91335,2,0,L|264:192,1,139.999995231629,4|0,0:3|0:0,0:0:0:0:
88,192,92135,2,0,P|40:152|96:104,1,139.999995231629,8|0,0:2|0:0,0:0:0:0:
160,192,92735,1,4,0:3:0:0:
352,192,92935,6,0,L|456:192,2,69.9999976158143,4|0|0,0:3|0:0|0:0,0:0:0:0:
184,192,93735,2,0,L|328:192,1,139.999995231629,8|0,0:2|0:0,0:0:0:0:
472,192,94535,1,0,0:0:0:0:
312,192,94935,1,4,0:3:0:0:
456,192,95335,2,0,P|472:112|432:104,1,139.999995231629,8|0,0:2|0:0,0:0:0:0:
352,192,95935,1,0,0:0:0:0:
160,192,96135,6,0,L|88:192,2,69.9999976158143,4|0|2,0:3|0:0|0:2,0:0:0:0:
320,192,96935,2,0,L|168:192,1,139.999995231629,8|0,0:2|0:0,0:0:0:0:
272,192,97535,1,4,0:3:0:0:
368,192,97735,2,0,P|432:160|464:96,1,139.999995231629,4|0,0:3|0:0,0:0:0:0:
304,192,98535,2,0,P|328:141|408:152,1,139.999995231629,8|0,0:2|0:0,0:0:0:0:
312,192,99135,1,4,0:3:0:0:
120,192,99335,6,0,L|32:192,1,69.9999976158143,4|0,0:3|0:0,0:0:0:0:
296,192,100135,2,0,L|144:192,1,139.999995231629,8|0,0:2|0:0,0:0:0:0:
464,192,100935,2,0,L|384:192,1,69.9999976158143,0|8,0:0|0:1,0:0:0:0:
304,192,101335,1,4,0:3:0:0:
472,192,101735,1,8,0:2:0:0:
394,192,101935,1,4,0:3:0:0:
472,192,102135,1,0,0:0:0:0:
394,192,102335,1,0,0:0:0:0:
200,192,102535,5,0,0:0:0:0:
