osu file format v14

[General]
AudioFilename: audio.mp3
AudioLeadIn: 0
PreviewTime: 25730
Countdown: 1
SampleSet: None
StackLeniency: 0.2
Mode: 0
LetterboxInBreaks: 0
WidescreenStoryboard: 1

[Editor]
Bookmarks: 54530
DistanceSpacing: 1
BeatDivisor: 4
GridSize: 32
TimelineZoom: 1

[Metadata]
Title:SAD!
TitleUnicode:SAD!
Artist:XXXTENTACION
ArtistUnicode:XXXTENTACION
Creator:George
Version:Normal
Source:
Tags:?
BeatmapID:1745000
BeatmapSetID:831455

[Difficulty]
HPDrainRate:5
CircleSize:4
OverallDifficulty:4
ApproachRate:5
SliderMultiplier:2
SliderTickRate:1

[Events]
//Background and Video events
0,0,"deerfield.jpg",0,0
Video,0,"sadosu.mp4"
//Break Periods
2,64329,69330
//Storyboard Layer 0 (Background)
//Storyboard Layer 1 (Fail)
//Storyboard Layer 2 (Pass)
//Storyboard Layer 3 (Foreground)
//Storyboard Sound Samples

[TimingPoints]
12930,800,4,1,1,80,1,0
25730,-76.9230769230769,4,1,1,80,0,1
51330,-76.9230769230769,4,1,1,80,0,0
76930,-76.9230769230769,4,1,1,80,0,1
102530,-76.9230769230769,4,1,1,80,0,0

[Colours]
Combo1 : 40,185,255
Combo2 : 255,188,155
Combo3 : 164,255,255
Combo4 : 166,83,83

[HitObjects]
23,294,12930,6,0,L|225:287,1,200,4|0,0:0|0:0,0:0:0:0:
351,209,14330,1,4,0:0:0:0:
351,209,14530,2,0,L|412:212,2,50,4|0|0,0:0|0:0|0:0,0:0:0:0:
280,138,15330,1,0,0:0:0:0:
173,31,15930,1,4,0:0:0:0:
173,31,16130,6,0,L|164:246,1,200,4|0,0:0|0:0,0:0:0:0:
164,230,18130,2,0,L|294:226,1,100,4|0,0:0|0:0,0:0:0:0:
313,222,18730,1,4,0:0:0:0:
384,90,19330,6,0,L|162:86,1,200,4|0,0:0|0:0,0:0:0:0:
104,213,20730,1,4,0:0:0:0:
104,213,20930,2,0,P|101:242|101:293,2,50,4|0|0,0:0|0:0|0:0,0:0:0:0:
193,167,21730,1,0,0:0:0:0:
294,277,22330,1,4,0:0:0:0:
294,277,22530,6,0,L|288:62,1,200,4|0,0:0|0:0,0:0:0:0:
288,77,24530,2,0,L|163:73,1,100,4|0,0:0|0:0,0:0:0:0:
138,69,25130,1,4,0:0:0:0:
138,69,25730,6,0,P|154:134|141:210,1,129.999994049073,4|0,0:0|0:0,0:0:0:0:
48,281,26530,1,8,0:0:0:0:
168,328,26930,1,0,0:0:0:0:
269,246,27330,2,0,P|305:249|338:253,2,64.9999970245363,4|8|0,0:0|0:0|0:0,0:0:0:0:
375,170,28130,2,0,P|309:162|244:157,1,129.999994049073,8|0,0:0|0:0,0:0:0:0:
150,68,28930,6,0,L|304:64,1,129.999994049073,4|0,0:1|0:1,0:0:0:0:
409,55,29730,1,8,0:0:0:0:
469,170,30130,1,0,0:0:0:0:
372,257,30530,2,0,L|373:333,1,64.9999970245363,0|8,0:0|0:0,0:0:0:0:
327,368,30930,1,4,0:0:0:0:
210,310,31330,2,0,P|209:245|217:150,1,129.999994049073,8|0,0:0|0:0,0:0:0:0:
299,82,32130,6,0,B|241:102|241:102|131:89,1,129.999994049073,4|0,0:0|0:0,0:0:0:0:
55,150,32930,1,8,0:0:0:0:
127,258,33330,1,0,0:0:0:0:
236,187,33730,2,0,L|162:179,2,64.9999970245363,4|8|0,0:0|0:0|0:0,0:0:0:0:
127,258,34530,2,0,L|256:272,1,129.999994049073,8|0,0:0|0:0,0:0:0:0:
359,192,35330,1,4,0:0:0:0:
359,192,35530,6,0,P|268:191|187:109,1,194.999991073609,0|8,0:0|0:0,0:0:0:0:
310,67,36530,1,0,0:0:0:0:
427,123,36930,1,0,0:0:0:0:
427,123,37130,2,0,L|421:324,1,194.999991073609,8|8,0:0|0:0,0:0:0:0:
297,359,38130,1,0,0:0:0:0:
220,253,38530,6,0,L|72:250,1,129.999994049073,4|0,0:0|0:0,0:0:0:0:
19,141,39330,1,8,0:0:0:0:
103,42,39730,1,0,0:0:0:0:
224,87,40130,2,0,L|299:82,2,64.9999970245363,4|8|0,0:0|0:0|0:0,0:0:0:0:
151,195,40930,2,0,L|280:203,1,129.999994049073,8|0,0:0|0:0,0:0:0:0:
386,127,41730,6,0,P|376:194|383:265,1,129.999994049073,4|0,0:0|0:0,0:0:0:0:
467,352,42530,1,8,0:0:0:0:
337,337,42930,1,0,0:0:0:0:
207,353,43330,2,0,L|101:346,1,64.9999970245363,0|8,0:0|0:0,0:0:0:0:
77,344,43730,1,4,0:0:0:0:
129,225,44130,2,0,P|195:216|282:224,1,129.999994049073,8|0,0:0|0:0,0:0:0:0:
357,305,44930,6,0,B|340:220|340:220|353:165,1,129.999994049073,4|0,0:0|0:0,0:0:0:0:
438,82,45730,1,8,0:0:0:0:
309,99,46130,1,0,0:0:0:0:
182,69,46530,2,0,P|205:43|240:19,2,64.9999970245363,4|8|0,0:0|0:0|0:0,0:0:0:0:
56,103,47330,2,0,P|95:147|155:188,1,129.999994049073,8|0,0:0|0:0,0:0:0:0:
273,137,48130,1,4,0:0:0:0:
273,137,48330,6,0,B|373:168|373:168|414:268,1,194.999991073609,0|8,0:0|0:0,0:0:0:0:
308,336,49330,1,0,0:0:0:0:
224,236,49730,1,0,0:0:0:0:
224,236,49930,2,0,P|151:240|36:312,1,194.999991073609,8|8,0:0|0:0,0:0:0:0:
159,365,50930,1,0,0:0:0:0:
281,320,51330,1,4,0:0:0:0:
281,320,54530,6,0,L|277:178,1,129.999994049073,4|0,0:0|0:0,0:0:0:0:
219,73,55330,1,8,0:0:0:0:
114,150,55730,1,0,0:0:0:0:
60,31,56130,2,0,P|126:27|191:36,1,129.999994049073,0|4,0:0|0:0,0:0:0:0:
281,127,56930,2,0,P|347:131|412:122,1,129.999994049073,8|0,0:0|0:0,0:0:0:0:
489,225,57730,5,4,0:0:0:0:
399,319,58130,1,0,0:0:0:0:
310,224,58530,2,0,L|153:230,1,129.999994049073,8|0,0:0|0:0,0:0:0:0:
77,308,59330,2,0,B|95:241|95:241|82:151,1,129.999994049073,4|0,0:0|0:0,0:0:0:0:
42,58,60130,1,8,0:0:0:0:
165,97,60530,1,0,0:0:0:0:
278,33,60930,6,0,B|347:26|347:26|439:54,1,129.999994049073,4|0,0:0|0:0,0:0:0:0:
473,154,61730,1,8,0:0:0:0:
415,270,62130,1,0,0:0:0:0:
312,190,62530,2,0,P|249:187|167:196,1,129.999994049073,0|4,0:0|0:0,0:0:0:0:
175,323,63330,2,0,P|203:260|66:165,1,259.999988098145,8|0,0:0|0:0,0:0:0:0:
77,198,70530,6,0,L|307:188,1,194.999991073609,4|0,0:0|0:0,0:0:0:0:
336,181,71330,1,8,0:0:0:0:
511,372,72130,2,0,L|281:362,1,194.999991073609,4|0,0:0|0:0,0:0:0:0:
252,355,72930,1,8,0:0:0:0:
192,169,73530,2,0,L|112:172,1,64.9999970245363,4|4,0:0|0:0,0:0:0:0:
256,192,74530,12,0,76130,0:0:0:0:
374,315,76930,6,0,P|358:250|371:174,1,129.999994049073,4|0,0:0|0:0,0:0:0:0:
464,103,77730,1,8,0:0:0:0:
344,56,78130,1,0,0:0:0:0:
243,138,78530,2,0,P|207:135|174:131,2,64.9999970245363,4|8|0,0:0|0:0|0:0,0:0:0:0:
137,214,79330,2,0,P|202:221|267:226,1,129.999994049073,8|0,0:0|0:0,0:0:0:0:
362,316,80130,6,0,L|208:320,1,129.999994049073,4|0,0:1|0:1,0:0:0:0:
103,329,80930,1,8,0:0:0:0:
43,214,81330,1,0,0:0:0:0:
140,127,81730,2,0,L|139:51,1,64.9999970245363,0|8,0:0|0:0,0:0:0:0:
185,16,82130,1,4,0:0:0:0:
302,74,82530,2,0,P|303:139|295:234,1,129.999994049073,8|0,0:0|0:0,0:0:0:0:
213,302,83330,6,0,B|271:282|271:282|381:295,1,129.999994049073,4|0,0:0|0:0,0:0:0:0:
457,234,84130,1,8,0:0:0:0:
385,126,84530,1,0,0:0:0:0:
276,197,84930,2,0,L|350:205,2,64.9999970245363,4|8|0,0:0|0:0|0:0,0:0:0:0:
385,126,85730,2,0,L|255:111,1,129.999994049073,8|0,0:0|0:0,0:0:0:0:
153,192,86530,1,4,0:0:0:0:
153,192,86730,6,0,P|244:193|325:275,1,194.999991073609,0|8,0:0|0:0,0:0:0:0:
202,317,87730,1,0,0:0:0:0:
85,261,88130,1,0,0:0:0:0:
85,261,88330,2,0,L|91:60,1,194.999991073609,8|8,0:0|0:0,0:0:0:0:
215,25,89330,1,0,0:0:0:0:
292,131,89730,6,0,L|440:134,1,129.999994049073,4|0,0:0|0:0,0:0:0:0:
493,243,90530,1,8,0:0:0:0:
409,342,90930,1,0,0:0:0:0:
288,297,91330,2,0,L|213:302,2,64.9999970245363,4|8|0,0:0|0:0|0:0,0:0:0:0:
361,189,92130,2,0,L|231:180,1,129.999994049073,8|0,0:0|0:0,0:0:0:0:
126,257,92930,6,0,P|136:190|129:119,1,129.999994049073,4|0,0:0|0:0,0:0:0:0:
45,32,93730,1,8,0:0:0:0:
175,47,94130,1,0,0:0:0:0:
305,31,94530,2,0,L|411:38,1,64.9999970245363,0|8,0:0|0:0,0:0:0:0:
435,40,94930,1,4,0:0:0:0:
383,159,95330,2,0,P|316:167|230:160,1,129.999994049073,8|0,0:0|0:0,0:0:0:0:
155,79,96130,6,0,B|172:164|172:164|159:219,1,129.999994049073,4|0,0:0|0:0,0:0:0:0:
74,302,96930,1,8,0:0:0:0:
203,285,97330,1,0,0:0:0:0:
330,315,97730,2,0,P|307:341|272:365,2,64.9999970245363,4|8|0,0:0|0:0|0:0,0:0:0:0:
456,281,98530,2,0,P|416:236|356:195,1,129.999994049073,8|0,0:0|0:0,0:0:0:0:
239,247,99330,1,4,0:0:0:0:
239,247,99530,6,0,B|139:216|139:216|98:116,1,194.999991073609,0|8,0:0|0:0,0:0:0:0:
204,48,100530,1,0,0:0:0:0:
288,148,100930,1,0,0:0:0:0:
288,148,101130,2,0,P|361:144|476:72,1,194.999991073609,8|8,0:0|0:0,0:0:0:0:
353,19,102130,1,0,0:0:0:0:
231,64,102530,1,4,0:0:0:0:
