osu file format v14

[General]
AudioFilename: audio.mp3
AudioLeadIn: 0
PreviewTime: 25730
Countdown: 1
SampleSet: Normal
StackLeniency: 0.2
Mode: 0
LetterboxInBreaks: 0
WidescreenStoryboard: 1

[Editor]
Bookmarks: 54530
DistanceSpacing: 1
BeatDivisor: 4
GridSize: 32
TimelineZoom: 1

[Metadata]
Title:SAD!
TitleUnicode:SAD!
Artist:XXXTENTACION
ArtistUnicode:XXXTENTACION
Creator:George
Version:Hyper
Source:
Tags:?
BeatmapID:1741909
BeatmapSetID:831455

[Difficulty]
HPDrainRate:5
CircleSize:4
OverallDifficulty:6
ApproachRate:7
SliderMultiplier:2.4
SliderTickRate:1

[Events]
//Background and Video events
0,0,"deerfield.jpg",0,0
//Break Periods
//Storyboard Layer 0 (Background)
//Storyboard Layer 1 (Fail)
//Storyboard Layer 2 (Pass)
//Storyboard Layer 3 (Foreground)
//Storyboard Sound Samples

[TimingPoints]
12930,800,4,1,1,80,1,0
25730,-66.6666666666667,4,1,1,80,0,1
51330,-66.6666666666667,4,1,1,80,0,0
76930,-66.6666666666667,4,1,1,80,0,1
102530,-66.6666666666667,4,1,1,80,0,0

[Colours]
Combo1 : 40,185,255
Combo2 : 255,188,155
Combo3 : 164,255,255
Combo4 : 166,83,83

[HitObjects]
33,101,12930,6,0,P|141:69|227:174,1,240,4|0,0:0|0:0,0:0:0:0:
86,267,14330,1,4,0:0:0:0:
86,267,14530,2,0,P|22:266|-27:252,2,60,4|0|0,0:0|0:0|0:0,0:0:0:0:
191,209,15330,1,0,0:0:0:0:
338,312,15930,1,4,0:0:0:0:
338,312,16130,6,0,L|409:308,2,60,4|0|0,0:0|0:0|0:0,0:0:0:0:
292,272,16730,2,0,L|221:268,2,60,0|0|0,0:0|0:0|0:0,0:0:0:0:
337,233,17330,1,0,0:0:0:0:
382,193,17530,1,0,0:0:0:0:
422,149,17730,6,0,P|454:149|493:153,2,60,0|0|4,0:0|0:0|0:0,0:0:0:0:
371,116,18330,2,0,P|339:116|300:112,2,60,0|0|4,0:0|0:0|0:0,0:0:0:0:
416,76,18930,1,0,0:0:0:0:
435,19,19130,1,4,0:0:0:0:
321,32,19330,6,0,L|295:271,1,240,4|0,0:0|0:0,0:0:0:0:
151,161,20730,1,4,0:0:0:0:
151,161,20930,2,0,P|115:162|81:168,2,60,4|0|0,0:0|0:0|0:0,0:0:0:0:
255,220,21730,1,0,0:0:0:0:
371,82,22330,1,4,0:0:0:0:
371,82,22530,6,0,L|369:17,2,60,4|0|0,0:0|0:0|0:0,0:0:0:0:
384,140,23130,2,0,L|382:205,2,60,0|0|0,0:0|0:0|0:0,0:0:0:0:
430,101,23730,1,0,0:0:0:0:
470,145,23930,1,0,0:0:0:0:
497,198,24130,2,0,L|492:326,1,120,0|4,0:0|0:0,0:0:0:0:
383,370,24930,2,0,L|387:250,1,120,0|0,0:0|0:0,0:0:0:0:
300,92,25730,6,0,P|256:87|212:94,1,90.0000034332277,4|0,0:0|0:0,0:0:0:0:
156,166,26130,2,0,L|62:164,1,90.0000034332277,0|0,0:0|0:0,0:0:0:0:
15,238,26530,1,8,0:0:0:0:
80,299,26730,2,0,L|74:326,3,22.5000008583069,0|0|0|0,0:0|0:0|0:0|0:0,0:0:0:0:
175,269,27130,1,4,0:0:0:0:
175,269,27330,6,0,P|220:261|287:263,1,90.0000034332277,4|8,0:0|0:0,0:0:0:0:
316,334,27730,2,0,P|295:244|344:146,1,180.000006866455,0|8,0:0|0:0,0:0:0:0:
398,110,28330,2,0,L|427:108,4,22.5000008583069,0|0|0|0|0,0:0|0:0|0:0|0:0|0:0,0:0:0:0:
338,42,28730,1,4,0:0:0:0:
338,42,28930,6,0,L|234:48,1,90.0000034332277,4|0,0:1|0:1,0:0:0:0:
184,111,29330,2,0,L|80:105,1,90.0000034332277,0|0,0:1|0:0,0:0:0:0:
30,169,29730,1,8,0:0:0:0:
93,232,29930,2,0,L|90:257,3,22.5000008583069,0|0|0|0,0:0|0:0|0:0|0:0,0:0:0:0:
191,203,30330,1,4,0:0:0:0:
191,203,30530,2,0,P|206:242|195:315,1,90.0000034332277,0|8,0:0|0:0,0:0:0:0:
293,274,30930,2,0,P|278:235|289:162,1,90.0000034332277,4|0,0:0|0:0,0:0:0:0:
350,132,31330,2,0,L|168:126,1,180.000006866455,8|0,0:0|0:0,0:0:0:0:
98,71,31930,1,0,0:0:0:0:
98,71,32130,6,0,P|84:114|98:196,1,90.0000034332277,4|0,0:0|0:0,0:0:0:0:
148,221,32530,2,0,P|148:265|134:308,1,90.0000034332277,0|0,0:0|0:0,0:0:0:0:
218,343,32930,1,8,0:0:0:0:
278,275,33130,2,0,L|276:246,3,22.5000008583069,0|0|0|0,0:0|0:0|0:0|0:0,0:0:0:0:
331,154,33530,1,4,0:0:0:0:
331,154,33730,6,0,B|290:164|290:164|201:147,1,90.0000034332277,4|8,0:0|0:0,0:0:0:0:
197,77,34130,2,0,P|108:68|26:131,1,180.000006866455,0|8,0:0|0:0,0:0:0:0:
59,203,34730,2,0,L|26:202,4,22.5000008583069,0|0|0|0|0,0:0|0:0|0:0|0:0|0:0,0:0:0:0:
95,285,35130,1,4,0:0:0:0:
95,285,35330,5,4,0:0:0:0:
181,259,35530,2,0,L|367:271,1,180.000006866455,0|0,0:0|0:0,0:0:0:0:
396,353,36130,2,0,P|361:262|429:182,1,180.000006866455,8|0,0:0|0:0,0:0:0:0:
455,124,36730,2,0,P|408:114|338:123,1,90.0000034332277,4|0,0:0|0:0,0:0:0:0:
292,64,37130,2,0,L|287:258,1,180.000006866455,8|0,0:0|0:0,0:0:0:0:
213,295,37730,2,0,B|288:244|288:244|387:268,1,180.000006866455,8|0,0:0|0:0,0:0:0:0:
475,115,38530,6,0,L|379:117,1,90.0000034332277,4|0,0:0|0:0,0:0:0:0:
321,52,38930,2,0,L|225:50,1,90.0000034332277,0|0,0:0|0:0,0:0:0:0:
167,114,39330,1,8,0:0:0:0:
86,74,39530,2,0,L|88:47,3,22.5000008583069,0|0|0|0,0:0|0:0|0:0|0:0,0:0:0:0:
38,153,39930,1,4,0:0:0:0:
38,153,40130,6,0,P|58:189|55:241,1,90.0000034332277,4|8,0:0|0:0,0:0:0:0:
107,311,40530,2,0,L|308:310,1,180.000006866455,0|8,0:0|0:0,0:0:0:0:
350,246,41130,2,0,L|375:247,3,22.5000008583069,0|0|0|0,0:0|0:0|0:0|0:0,0:0:0:0:
303,157,41530,1,0,0:0:0:0:
303,157,41730,6,0,P|253:164|215:157,1,90.0000034332277,4|0,0:0|0:0,0:0:0:0:
258,78,42130,2,0,L|354:80,1,90.0000034332277,0|0,0:0|0:0,0:0:0:0:
404,150,42530,1,8,0:0:0:0:
460,220,42730,2,0,L|485:218,3,22.5000008583069,0|0|0|0,0:0|0:0|0:0|0:0,0:0:0:0:
399,294,43130,1,4,0:0:0:0:
399,294,43330,6,0,P|360:271|295:282,1,90.0000034332277,0|8,0:0|0:0,0:0:0:0:
208,383,43730,2,0,P|231:345|231:301,1,90.0000034332277,4|0,0:0|0:0,0:0:0:0:
150,260,44130,2,0,P|236:245|251:161,1,180.000006866455,8|0,0:0|0:0,0:0:0:0:
188,100,44730,1,0,0:0:0:0:
251,36,44930,6,0,L|348:39,1,90.0000034332277,4|0,0:0|0:0,0:0:0:0:
389,115,45330,2,0,P|372:159|384:239,1,90.0000034332277,0|0,0:0|0:0,0:0:0:0:
435,265,45730,1,8,0:0:0:0:
376,333,45930,2,0,L|378:364,3,22.5000008583069,0|0|0|0,0:0|0:0|0:0|0:0,0:0:0:0:
282,294,46330,1,4,0:0:0:0:
282,294,46530,6,0,L|281:186,1,90.0000034332277,4|8,0:0|0:0,0:0:0:0:
359,159,46930,2,0,P|277:204|194:165,1,180.000006866455,0|8,0:0|0:0,0:0:0:0:
272,117,47530,2,0,L|274:78,3,22.5000008583069,0|0|0|0,0:0|0:0|0:0|0:0,0:0:0:0:
370,37,47930,1,4,0:0:0:0:
370,37,48130,1,4,0:0:0:0:
433,100,48330,6,0,P|458:183|423:285,1,180.000006866455,0|0,0:0|0:0,0:0:0:0:
483,345,48930,2,0,L|301:340,1,180.000006866455,8|0,0:0|0:0,0:0:0:0:
260,260,49530,2,0,L|349:257,1,90.0000034332277,4|0,0:0|0:0,0:0:0:0:
380,172,49930,2,0,P|292:183|201:128,1,180.000006866455,8|0,0:0|0:0,0:0:0:0:
278,79,50530,2,0,P|297:170|197:231,1,180.000006866455,8|0,0:0|0:0,0:0:0:0:
118,150,51330,5,4,0:0:0:0:
118,150,54530,6,0,L|245:147,1,90.0000034332277,4|0,0:0|0:0,0:0:0:0:
285,194,54930,1,0,0:0:0:0:
285,194,55030,1,0,0:0:0:0:
285,194,55130,1,0,0:0:0:0:
367,156,55330,2,0,P|367:108|346:62,1,90.0000034332277,8|0,0:0|0:0,0:0:0:0:
271,27,55730,1,0,0:0:0:0:
215,97,55930,6,0,L|111:93,1,90.0000034332277,4|0,0:0|0:0,0:0:0:0:
52,147,56330,1,0,0:0:0:0:
115,210,56530,2,0,L|204:206,1,90.0000034332277,4|0,0:0|0:0,0:0:0:0:
268,142,56930,1,8,0:0:0:0:
341,194,57130,2,0,L|343:222,3,22.5000008583069,0|0|0|0,0:0|0:0|0:0|0:0,0:0:0:0:
403,121,57530,1,0,0:0:0:0:
403,121,57730,6,0,P|448:118|501:161,1,90.0000034332277,4|0,0:0|0:0,0:0:0:0:
510,226,58130,2,0,P|465:229|412:186,1,90.0000034332277,0|0,0:0|0:0,0:0:0:0:
403,121,58530,1,8,0:0:0:0:
319,153,58730,2,0,L|321:179,3,22.5000008583069,0|0|0|0,0:0|0:0|0:0|0:0,0:0:0:0:
251,264,59130,1,4,0:0:0:0:
251,264,59330,6,0,P|210:253|161:260,1,90.0000034332277,4|8,0:0|0:0,0:0:0:0:
202,340,59730,2,0,P|243:351|292:344,1,90.0000034332277,0|0,0:0|0:0,0:0:0:0:
355,282,60130,1,8,0:0:0:0:
418,218,60330,2,0,L|416:185,3,22.5000008583069,0|0|0|0,0:0|0:0|0:0|0:0,0:0:0:0:
484,286,60730,1,4,0:0:0:0:
484,286,60930,6,0,P|457:325|406:352,1,90.0000034332277,4|0,0:0|0:0,0:0:0:0:
355,282,61330,2,0,L|249:286,1,90.0000034332277,0|0,0:0|0:0,0:0:0:0:
201,349,61730,1,8,0:0:0:0:
137,285,61930,2,0,L|114:288,3,22.5000008583069,0|0|0|0,0:0|0:0|0:0|0:0,0:0:0:0:
186,201,62330,1,4,0:0:0:0:
186,201,62530,6,0,L|290:205,1,90.0000034332277,0|8,0:0|0:0,0:0:0:0:
339,268,62930,2,0,L|443:264,1,90.0000034332277,4|0,0:0|0:0,0:0:0:0:
475,342,63330,2,0,P|429:266|452:183,1,180.000006866455,8|0,0:0|0:0,0:0:0:0:
300,85,64130,5,0,0:0:0:0:
300,85,65730,1,0,0:0:0:0:
300,85,67330,1,0,0:0:0:0:
300,85,69330,1,0,0:0:0:0:
300,85,70530,6,0,P|234:133|139:88,1,180.000006866455,4|0,0:0|0:0,0:0:0:0:
55,255,71330,2,0,P|121:207|216:252,1,180.000006866455,8|0,0:0|0:0,0:0:0:0:
135,295,71930,1,4,0:0:0:0:
135,295,72130,2,0,P|201:343|296:298,1,180.000006866455,4|0,0:0|0:0,0:0:0:0:
371,152,72930,2,0,L|174:145,1,180.000006866455,8|0,0:0|0:0,0:0:0:0:
149,65,73530,1,4,0:0:0:0:
149,65,73730,2,0,P|192:142|150:253,1,180.000006866455,4|0,0:0|0:0,0:0:0:0:
23,329,74530,1,8,0:0:0:0:
292,307,75130,1,4,0:0:0:0:
212,292,76930,6,0,P|256:297|300:290,1,90.0000034332277,4|0,0:0|0:0,0:0:0:0:
356,218,77330,2,0,L|450:220,1,90.0000034332277,0|0,0:0|0:0,0:0:0:0:
497,146,77730,1,8,0:0:0:0:
432,85,77930,2,0,L|438:58,3,22.5000008583069,0|0|0|0,0:0|0:0|0:0|0:0,0:0:0:0:
337,115,78330,1,4,0:0:0:0:
337,115,78530,6,0,P|292:123|225:121,1,90.0000034332277,4|8,0:0|0:0,0:0:0:0:
196,50,78930,2,0,P|217:140|168:238,1,180.000006866455,0|8,0:0|0:0,0:0:0:0:
114,274,79530,2,0,L|85:276,4,22.5000008583069,0|0|0|0|0,0:0|0:0|0:0|0:0|0:0,0:0:0:0:
174,342,79930,1,0,0:0:0:0:
174,342,80130,6,0,L|278:336,1,90.0000034332277,4|0,0:1|0:1,0:0:0:0:
328,273,80530,2,0,L|432:279,1,90.0000034332277,0|0,0:1|0:0,0:0:0:0:
482,215,80930,1,8,0:0:0:0:
419,152,81130,2,0,L|422:127,3,22.5000008583069,0|0|0|0,0:0|0:0|0:0|0:0,0:0:0:0:
321,181,81530,1,4,0:0:0:0:
321,181,81730,2,0,P|306:142|317:69,1,90.0000034332277,0|8,0:0|0:0,0:0:0:0:
219,110,82130,2,0,P|234:149|223:222,1,90.0000034332277,4|0,0:0|0:0,0:0:0:0:
162,252,82530,2,0,L|344:258,1,180.000006866455,8|0,0:0|0:0,0:0:0:0:
414,313,83130,1,0,0:0:0:0:
414,313,83330,6,0,P|428:270|414:188,1,90.0000034332277,4|0,0:0|0:0,0:0:0:0:
364,163,83730,2,0,P|364:119|378:76,1,90.0000034332277,0|0,0:0|0:0,0:0:0:0:
294,41,84130,1,8,0:0:0:0:
234,109,84330,2,0,L|236:138,3,22.5000008583069,0|0|0|0,0:0|0:0|0:0|0:0,0:0:0:0:
181,230,84730,1,4,0:0:0:0:
181,230,84930,6,0,B|222:220|222:220|311:237,1,90.0000034332277,4|8,0:0|0:0,0:0:0:0:
315,307,85330,2,0,P|404:316|486:253,1,180.000006866455,0|8,0:0|0:0,0:0:0:0:
453,181,85930,2,0,L|486:182,4,22.5000008583069,0|0|0|0|0,0:0|0:0|0:0|0:0|0:0,0:0:0:0:
417,99,86330,1,4,0:0:0:0:
417,99,86530,5,4,0:0:0:0:
331,125,86730,2,0,L|145:113,1,180.000006866455,0|0,0:0|0:0,0:0:0:0:
116,31,87330,2,0,P|151:122|83:202,1,180.000006866455,8|0,0:0|0:0,0:0:0:0:
57,260,87930,2,0,P|104:270|174:261,1,90.0000034332277,4|0,0:0|0:0,0:0:0:0:
220,320,88330,2,0,L|225:126,1,180.000006866455,8|0,0:0|0:0,0:0:0:0:
299,89,88930,2,0,B|224:140|224:140|125:116,1,180.000006866455,8|0,0:0|0:0,0:0:0:0:
37,269,89730,6,0,L|133:267,1,90.0000034332277,4|0,0:0|0:0,0:0:0:0:
191,332,90130,2,0,L|287:334,1,90.0000034332277,0|0,0:0|0:0,0:0:0:0:
345,270,90530,1,8,0:0:0:0:
426,310,90730,2,0,L|424:337,3,22.5000008583069,0|0|0|0,0:0|0:0|0:0|0:0,0:0:0:0:
474,231,91130,1,4,0:0:0:0:
474,231,91330,6,0,P|454:195|457:143,1,90.0000034332277,4|8,0:0|0:0,0:0:0:0:
405,73,91730,2,0,L|204:74,1,180.000006866455,0|8,0:0|0:0,0:0:0:0:
162,138,92330,2,0,L|137:137,3,22.5000008583069,0|0|0|0,0:0|0:0|0:0|0:0,0:0:0:0:
209,227,92730,1,0,0:0:0:0:
209,227,92930,6,0,P|259:220|297:227,1,90.0000034332277,4|0,0:0|0:0,0:0:0:0:
254,306,93330,2,0,L|158:304,1,90.0000034332277,0|0,0:0|0:0,0:0:0:0:
108,234,93730,1,8,0:0:0:0:
52,164,93930,2,0,L|27:166,3,22.5000008583069,0|0|0|0,0:0|0:0|0:0|0:0,0:0:0:0:
113,90,94330,1,4,0:0:0:0:
113,90,94530,6,0,P|152:113|217:102,1,90.0000034332277,0|8,0:0|0:0,0:0:0:0:
304,1,94930,2,0,P|281:39|281:83,1,90.0000034332277,4|0,0:0|0:0,0:0:0:0:
362,124,95330,2,0,P|276:139|261:223,1,180.000006866455,8|0,0:0|0:0,0:0:0:0:
324,284,95930,1,0,0:0:0:0:
261,348,96130,6,0,L|164:345,1,90.0000034332277,4|0,0:0|0:0,0:0:0:0:
123,269,96530,2,0,P|140:225|128:145,1,90.0000034332277,0|0,0:0|0:0,0:0:0:0:
77,119,96930,1,8,0:0:0:0:
136,51,97130,2,0,L|134:20,3,22.5000008583069,0|0|0|0,0:0|0:0|0:0|0:0,0:0:0:0:
230,90,97530,1,4,0:0:0:0:
230,90,97730,6,0,L|231:198,1,90.0000034332277,4|8,0:0|0:0,0:0:0:0:
153,225,98130,2,0,P|235:180|318:219,1,180.000006866455,0|8,0:0|0:0,0:0:0:0:
240,267,98730,2,0,L|238:306,3,22.5000008583069,0|0|0|0,0:0|0:0|0:0|0:0,0:0:0:0:
142,347,99130,1,4,0:0:0:0:
142,347,99330,1,4,0:0:0:0:
79,284,99530,6,0,P|54:201|89:99,1,180.000006866455,0|0,0:0|0:0,0:0:0:0:
29,39,100130,2,0,L|211:44,1,180.000006866455,8|0,0:0|0:0,0:0:0:0:
252,124,100730,2,0,L|163:127,1,90.0000034332277,4|0,0:0|0:0,0:0:0:0:
132,212,101130,2,0,P|220:201|311:256,1,180.000006866455,8|0,0:0|0:0,0:0:0:0:
234,305,101730,2,0,P|215:214|315:153,1,180.000006866455,8|0,0:0|0:0,0:0:0:0:
394,234,102530,5,4,0:0:0:0:
