osu file format v14

[General]
AudioFilename: audio.mp3
AudioLeadIn: 0
PreviewTime: -1
Countdown: 1
SampleSet: None
StackLeniency: 0.7
Mode: 2
LetterboxInBreaks: 0
WidescreenStoryboard: 0

[Editor]
DistanceSpacing: 0.8
BeatDivisor: 12
GridSize: 32
TimelineZoom: 3.399999

[Metadata]
Title:SAD!
TitleUnicode:SAD!
Artist:XXXTENTACION
ArtistUnicode:XXXTENTACION
Creator:[225]
Version:SAD
Source:XXTENTACION
Tags:
BeatmapID:1706031
BeatmapSetID:813463

[Difficulty]
HPDrainRate:5
CircleSize:3
OverallDifficulty:7
ApproachRate:8
SliderMultiplier:1.6
SliderTickRate:1

[Events]
//Background and Video events
//Break Periods
//Storyboard Layer 0 (Background)
//Storyboard Layer 1 (Fail)
//Storyboard Layer 2 (Pass)
//Storyboard Layer 3 (Foreground)
//Storyboard Sound Samples

[TimingPoints]
12794,833.333333333333,4,1,0,100,1,0

[HitObjects]
256,192,9738,12,0,11682,0:0:0:0:
256,294,12307,5,0,0:0:0:0:
94,289,12863,6,8,L|99:104,1,160
132,108,14182,1,0,0:0:0:0:
179,75,14460,1,12,0:0:0:0:
414,198,14877,2,0,L|354:123,1,80,8|0,0:0|0:0,0:0:0:0:
367,90,15849,1,0,0:0:0:0:
334,56,16057,1,12,0:0:0:0:
256,192,16405,12,0,17585,0:0:0:0:
163,233,18071,6,8,L|225:126,1,120
259,103,18696,1,0,0:0:0:0:
329,104,19044,1,0,0:0:0:0:
259,103,19252,1,0,0:0:0:0:
124,228,20710,1,0,0:0:0:0:
91,178,20919,1,0,0:0:0:0:
145,109,22238,1,0,0:0:0:0:
220,61,22516,5,0,0:0:0:0:
256,192,22655,12,0,24321,0:0:0:0:
99,221,24460,6,12,L|219:191,2,106.666666666667
202,195,25710,1,0,0:0:0:0:
204,128,25849,1,0,0:0:0:0:
236,162,26057,2,0,L|277:162,1,40
375,164,26474,1,0,0:0:0:0:
195,97,26682,1,0,0:0:0:0:
195,97,26752,5,0,0:0:0:0:
195,97,26821,1,0,0:0:0:0:
257,185,27099,1,0,0:0:0:0:
306,188,27307,1,0,0:0:0:0:
346,188,27446,1,0,0:0:0:0:
346,188,27655,1,0,0:0:0:0:
392,188,27863,5,0,0:0:0:0:
443,190,28071,1,0,0:0:0:0:
346,188,28280,1,0,0:0:0:0:
346,188,28349,1,0,0:0:0:0:
346,188,28488,1,0,0:0:0:0:
257,186,28696,1,0,0:0:0:0:
190,187,28905,5,0,0:0:0:0:
153,186,29043,1,0,0:0:0:0:
153,186,29252,1,0,0:0:0:0:
101,186,29460,1,0,0:0:0:0:
44,188,29668,1,0,0:0:0:0:
101,186,29877,1,0,0:0:0:0:
101,186,29946,1,0,0:0:0:0:
167,188,30293,5,0,0:0:0:0:
254,190,30641,1,0,0:0:0:0:
396,189,30849,1,0,0:0:0:0:
254,190,31266,1,0,0:0:0:0:
144,190,31474,1,0,0:0:0:0:
243,191,32030,2,0,L|404:191,1,160
255,193,33488,5,0,0:0:0:0:
255,193,33696,1,0,0:0:0:0:
128,191,33905,1,0,0:0:0:0:
128,191,34044,1,0,0:0:0:0:
43,191,34252,1,0,0:0:0:0:
200,193,34460,1,0,0:0:0:0:
289,192,34669,5,0,0:0:0:0:
289,192,34738,1,0,0:0:0:0:
289,192,34877,1,0,0:0:0:0:
383,192,35085,1,0,0:0:0:0:
473,194,35294,1,0,0:0:0:0:
427,192,35432,1,0,0:0:0:0:
330,194,35641,5,0,0:0:0:0:
427,192,35849,1,0,0:0:0:0:
271,196,36057,1,0,0:0:0:0:
181,194,36266,1,0,0:0:0:0:
181,194,36335,1,0,0:0:0:0:
181,194,36405,1,0,0:0:0:0:
82,192,36682,5,0,0:0:0:0:
181,194,37030,1,0,0:0:0:0:
288,194,37238,1,0,0:0:0:0:
380,192,37446,1,0,0:0:0:0:
380,192,37655,1,0,0:0:0:0:
455,190,37863,1,0,0:0:0:0:
455,190,37932,1,0,0:0:0:0:
455,190,38002,1,0,0:0:0:0:
455,190,38071,5,0,0:0:0:0:
380,192,38280,1,0,0:0:0:0:
255,192,38488,1,0,0:0:0:0:
160,191,38627,1,0,0:0:0:0:
160,191,38835,1,0,0:0:0:0:
55,192,39043,1,0,0:0:0:0:
255,192,39252,5,0,0:0:0:0:
353,191,39460,1,0,0:0:0:0:
353,191,39530,1,0,0:0:0:0:
353,191,39599,1,0,0:0:0:0:
467,191,39877,1,0,0:0:0:0:
255,192,40085,1,0,0:0:0:0:
130,191,40293,5,0,0:0:0:0:
255,192,40432,1,0,0:0:0:0:
374,190,40641,1,0,0:0:0:0:
473,192,40849,1,0,0:0:0:0:
67,192,41057,1,0,0:0:0:0:
91,178,41127,1,0,0:0:0:0:
120,162,41196,5,0,0:0:0:0:
139,153,41266,1,0,0:0:0:0:
257,188,41474,2,0,L|256:137,1,40
257,188,41891,1,0,0:0:0:0:
