osu file format v14

[General]
AudioFilename: audio.mp3
AudioLeadIn: 0
PreviewTime: 14639
Countdown: 0
SampleSet: Normal
StackLeniency: 0.7
Mode: 1
LetterboxInBreaks: 0
WidescreenStoryboard: 1

[Editor]
Bookmarks: 15118,30118,45118,60118,75118,90118,105118
DistanceSpacing: 1.2
BeatDivisor: 4
GridSize: 32
TimelineZoom: 1.4

[Metadata]
Title:MOONLIGHT
TitleUnicode:MOONLIGHT
Artist:XXXTENTACION
ArtistUnicode:XXXTENTACION
Creator:Saoji
Version:Oni ft. Chromoxx
Source:
Tags:Bad Vibes Forever Hip Hop hiphop hip-hop English Chromoxx Yales cloud rap ? question mark
BeatmapID:3528008
BeatmapSetID:1726348

[Difficulty]
HPDrainRate:5
CircleSize:5
OverallDifficulty:5
ApproachRate:8
SliderMultiplier:1.4
SliderTickRate:1

[Events]
//Background and Video events
0,0,"moonlight.jpg",0,-100
//Break Periods
//Storyboard Layer 0 (Background)
//Storyboard Layer 1 (Fail)
//Storyboard Layer 2 (Pass)
//Storyboard Layer 3 (Foreground)
//Storyboard Layer 4 (Overlay)
//Storyboard Sound Samples

[TimingPoints]
15108,468.75,4,1,0,65,1,0
108740,-100,4,1,0,35,0,0

[HitObjects]
261,194,15108,5,0,0:0:0:0:
256,192,15342,1,8,0:0:0:0:
256,192,15459,1,8,0:0:0:0:
256,192,15576,1,0,0:0:0:0:
256,192,15811,1,0,0:0:0:0:
256,192,15928,1,8,0:0:0:0:
261,194,16045,1,0,0:0:0:0:
256,192,16279,1,8,0:0:0:0:
256,192,16514,1,0,0:0:0:0:
256,192,16631,1,0,0:0:0:0:
256,192,16748,1,8,0:0:0:0:
256,192,18858,1,0,0:0:0:0:
256,192,19092,1,0,0:0:0:0:
256,192,19326,1,8,0:0:0:0:
256,192,19443,1,0,0:0:0:0:
256,192,19561,1,8,0:0:0:0:
256,192,19795,1,8,0:0:0:0:
256,192,20029,1,0,0:0:0:0:
256,192,20264,1,8,0:0:0:0:
256,192,20381,1,0,0:0:0:0:
256,160,20498,1,8,0:0:0:0:
256,192,20615,1,8,0:0:0:0:
256,192,20733,1,0,0:0:0:0:
256,192,20967,1,0,0:0:0:0:
256,192,21201,1,8,0:0:0:0:
256,192,21670,1,0,0:0:0:0:
256,192,21904,1,8,0:0:0:0:
256,192,22139,1,0,0:0:0:0:
256,192,22295,1,0,0:0:0:0:
256,192,22451,1,0,0:0:0:0:
256,192,22608,1,8,0:0:0:0:
256,192,22842,1,0,0:0:0:0:
256,192,23076,1,8,0:0:0:0:
256,192,23311,1,8,0:0:0:0:
256,192,25420,1,8,0:0:0:0:
256,192,25654,1,0,0:0:0:0:
256,192,25889,1,8,0:0:0:0:
256,192,26045,1,8,0:0:0:0:
256,192,26201,1,8,0:0:0:0:
256,192,26358,1,0,0:0:0:0:
256,192,26592,1,0,0:0:0:0:
256,192,26826,1,8,0:0:0:0:
256,192,27295,1,0,0:0:0:0:
256,192,27764,1,0,0:0:0:0:
256,192,27881,1,0,0:0:0:0:
256,192,27998,1,8,0:0:0:0:
256,192,28115,1,0,0:0:0:0:
256,192,28233,1,8,0:0:0:0:
256,192,28467,1,8,0:0:0:0:
256,160,28701,1,0,0:0:0:0:
256,160,29170,1,8,0:0:0:0:
256,160,29404,1,0,0:0:0:0:
256,160,29639,1,8,0:0:0:0:
256,160,29795,1,8,0:0:0:0:
256,160,29951,1,8,0:0:0:0:
243,274,30108,1,0,0:0:0:0:
160,213,30576,1,8,0:0:0:0:
160,213,30693,1,8,0:0:0:0:
20,161,30811,1,8,0:0:0:0:
24,159,31045,1,0,0:0:0:0:
273,158,31514,1,8,0:0:0:0:
211,135,31631,1,8,0:0:0:0:
200,124,31748,1,0,0:0:0:0:
200,124,31865,1,8,0:0:0:0:
199,122,31983,1,0,0:0:0:0:
213,257,32217,1,0,0:0:0:0:
213,257,32334,1,0,0:0:0:0:
236,261,32451,1,8,0:0:0:0:
236,261,32686,1,8,0:0:0:0:
266,264,32920,1,0,0:0:0:0:
323,143,33389,1,8,0:0:0:0:
323,143,33545,1,8,0:0:0:0:
323,143,33701,1,8,0:0:0:0:
246,124,33858,1,0,0:0:0:0:
189,128,34092,1,0,0:0:0:0:
133,148,34209,1,0,0:0:0:0:
185,214,34326,1,0,0:0:0:0:
185,214,34561,1,8,0:0:0:0:
185,214,34795,1,0,0:0:0:0:
185,214,35264,1,8,0:0:0:0:
150,118,35381,1,0,0:0:0:0:
221,148,35498,1,0,0:0:0:0:
150,118,35615,1,8,0:0:0:0:
150,118,35733,1,0,0:0:0:0:
255,252,35967,1,8,0:0:0:0:
225,237,36084,1,8,0:0:0:0:
184,223,36201,1,8,0:0:0:0:
211,201,36436,1,8,0:0:0:0:
211,201,36670,1,0,0:0:0:0:
321,98,37139,1,8,0:0:0:0:
321,98,37295,1,8,0:0:0:0:
321,98,37451,1,8,0:0:0:0:
214,98,37608,1,0,0:0:0:0:
287,225,37842,1,0,0:0:0:0:
287,225,38076,1,0,0:0:0:0:
287,225,38545,1,8,0:0:0:0:
204,188,39014,1,8,0:0:0:0:
188,196,39131,1,8,0:0:0:0:
186,191,39248,1,0,0:0:0:0:
186,191,39365,1,0,0:0:0:0:
177,184,39483,1,0,0:0:0:0:
177,184,39717,1,0,0:0:0:0:
216,154,39834,1,8,0:0:0:0:
216,154,39951,1,0,0:0:0:0:
79,105,40186,1,0,0:0:0:0:
216,154,40420,1,8,0:0:0:0:
314,202,40889,1,8,0:0:0:0:
314,202,41045,1,8,0:0:0:0:
314,202,41201,1,8,0:0:0:0:
166,131,41358,1,0,0:0:0:0:
222,247,41592,1,0,0:0:0:0:
222,247,41709,1,0,0:0:0:0:
210,225,41826,1,8,0:0:0:0:
210,225,42061,1,8,0:0:0:0:
210,225,42295,1,0,0:0:0:0:
258,254,42764,1,8,0:0:0:0:
258,254,42881,1,8,0:0:0:0:
179,170,42998,1,0,0:0:0:0:
179,170,43115,1,8,0:0:0:0:
168,162,43233,1,0,0:0:0:0:
168,162,43350,1,0,0:0:0:0:
168,162,43467,1,0,0:0:0:0:
223,159,43701,1,8,0:0:0:0:
223,159,43936,1,8,0:0:0:0:
256,159,44170,1,0,0:0:0:0:
284,99,44639,1,8,0:0:0:0:
284,99,44795,1,8,0:0:0:0:
284,99,44951,1,8,0:0:0:0:
174,59,45108,1,0,0:0:0:0:
251,201,45342,1,0,0:0:0:0:
255,198,45576,1,8,0:0:0:0:
247,194,46045,1,8,0:0:0:0:
262,197,46201,1,8,0:0:0:0:
259,201,46358,1,0,0:0:0:0:
261,198,46514,1,0,0:0:0:0:
264,202,46670,1,8,0:0:0:0:
264,192,46826,1,8,0:0:0:0:
265,202,46983,1,0,0:0:0:0:
270,195,47451,1,0,0:0:0:0:
280,199,47686,1,0,0:0:0:0:
270,195,47920,1,8,0:0:0:0:
270,195,48389,1,8,0:0:0:0:
270,195,48545,1,0,0:0:0:0:
270,195,48701,1,0,0:0:0:0:
278,193,48858,1,8,0:0:0:0:
281,195,49092,1,0,0:0:0:0:
296,198,49326,1,8,0:0:0:0:
289,194,49795,1,8,0:0:0:0:
297,184,49951,1,8,0:0:0:0:
292,197,50108,1,0,0:0:0:0:
296,198,50264,1,8,0:0:0:0:
286,201,50420,1,0,0:0:0:0:
291,202,50576,1,0,0:0:0:0:
291,198,50733,1,8,0:0:0:0:
289,205,51201,1,0,0:0:0:0:
291,207,51436,1,0,0:0:0:0:
291,198,51670,1,8,0:0:0:0:
299,204,51904,1,0,0:0:0:0:
298,202,52139,1,8,0:0:0:0:
296,201,52295,1,8,0:0:0:0:
314,202,52451,1,0,0:0:0:0:
314,204,52608,1,8,0:0:0:0:
309,205,52842,1,0,0:0:0:0:
310,200,53076,1,8,0:0:0:0:
308,200,53545,1,8,0:0:0:0:
320,206,53701,1,0,0:0:0:0:
311,214,53858,1,0,0:0:0:0:
321,194,54014,1,8,0:0:0:0:
308,200,54170,1,0,0:0:0:0:
308,200,54326,1,0,0:0:0:0:
308,200,54483,1,8,0:0:0:0:
313,195,54951,1,0,0:0:0:0:
303,190,55186,1,0,0:0:0:0:
312,184,55420,1,8,0:0:0:0:
305,182,55654,1,0,0:0:0:0:
310,185,55889,1,8,0:0:0:0:
311,190,56045,1,0,0:0:0:0:
327,184,56201,1,0,0:0:0:0:
311,191,56358,1,8,0:0:0:0:
314,191,56592,1,0,0:0:0:0:
318,187,56826,1,8,0:0:0:0:
321,182,57295,1,8,0:0:0:0:
323,185,57451,1,0,0:0:0:0:
320,182,57608,1,0,0:0:0:0:
317,181,57764,1,8,0:0:0:0:
321,182,57920,1,8,0:0:0:0:
321,182,58076,1,0,0:0:0:0:
321,182,58233,1,8,0:0:0:0:
336,173,58701,1,8,0:0:0:0:
318,165,58936,1,0,0:0:0:0:
342,166,59170,1,8,0:0:0:0:
341,164,59404,1,0,0:0:0:0:
339,164,59639,1,8,0:0:0:0:
342,166,59795,1,8,0:0:0:0:
342,166,59951,1,8,0:0:0:0:
342,166,60108,1,0,0:0:0:0:
199,249,60342,1,0,0:0:0:0:
199,249,60576,1,0,0:0:0:0:
199,249,61045,1,8,0:0:0:0:
154,227,61514,1,0,0:0:0:0:
154,227,61748,1,8,0:0:0:0:
164,176,62217,1,8,0:0:0:0:
260,186,63858,1,0,0:0:0:0:
260,186,64092,1,0,0:0:0:0:
260,186,64326,1,0,0:0:0:0:
201,193,64795,1,8,0:0:0:0:
201,193,65264,1,0,0:0:0:0:
201,193,65498,1,8,0:0:0:0:
303,151,67139,1,8,0:0:0:0:
303,151,67295,1,8,0:0:0:0:
303,151,67451,1,8,0:0:0:0:
254,113,67608,1,0,0:0:0:0:
237,196,67842,1,0,0:0:0:0:
237,196,68076,1,0,0:0:0:0:
237,196,68545,1,8,0:0:0:0:
237,196,69014,1,0,0:0:0:0:
237,196,69248,1,8,0:0:0:0:
237,196,69717,1,8,0:0:0:0:
237,196,69951,1,0,0:0:0:0:
140,229,70186,1,0,0:0:0:0:
140,229,70420,1,8,0:0:0:0:
201,288,70889,1,8,0:0:0:0:
201,288,71045,1,8,0:0:0:0:
201,288,71201,1,8,0:0:0:0:
259,131,71358,1,0,0:0:0:0:
197,84,71592,1,0,0:0:0:0:
197,84,71826,1,0,0:0:0:0:
207,199,72295,1,8,0:0:0:0:
207,199,72764,1,0,0:0:0:0:
207,199,72998,1,8,0:0:0:0:
182,196,73467,1,8,0:0:0:0:
182,196,73701,1,0,0:0:0:0:
182,196,73936,1,0,0:0:0:0:
182,196,74170,1,8,0:0:0:0:
374,244,74404,1,0,0:0:0:0:
252,237,74639,1,8,0:0:0:0:
252,237,74795,1,8,0:0:0:0:
252,237,74951,1,8,0:0:0:0:
252,237,75108,1,0,0:0:0:0:
211,202,76045,1,8,0:0:0:0:
211,202,76279,1,8,0:0:0:0:
204,200,76514,1,0,0:0:0:0:
204,201,76983,1,0,0:0:0:0:
199,204,77451,1,8,0:0:0:0:
199,204,78154,1,0,0:0:0:0:
199,204,78272,1,8,0:0:0:0:
199,204,78389,1,0,0:0:0:0:
199,204,78858,1,8,0:0:0:0:
199,204,79326,1,0,0:0:0:0:
199,204,80029,1,0,0:0:0:0:
199,204,80264,1,8,0:0:0:0:
199,204,80733,1,8,0:0:0:0:
199,204,81201,1,8,0:0:0:0:
199,204,81670,1,0,0:0:0:0:
210,192,81904,1,8,0:0:0:0:
259,184,82608,1,8,0:0:0:0:
247,182,83428,1,8,0:0:0:0:
249,181,83545,1,0,0:0:0:0:
278,179,83779,1,8,0:0:0:0:
265,180,84014,1,8,0:0:0:0:
244,173,84248,1,0,0:0:0:0:
250,167,84717,1,0,0:0:0:0:
251,167,84951,1,8,0:0:0:0:
250,167,85420,1,8,0:0:0:0:
248,162,85654,1,0,0:0:0:0:
252,159,85889,1,8,0:0:0:0:
255,162,86045,1,8,0:0:0:0:
254,162,86201,1,8,0:0:0:0:
254,162,86358,1,0,0:0:0:0:
250,173,86826,1,0,0:0:0:0:
253,174,87178,1,0,0:0:0:0:
254,162,87295,1,8,0:0:0:0:
250,173,87529,1,8,0:0:0:0:
250,173,87764,1,0,0:0:0:0:
271,177,87998,1,8,0:0:0:0:
266,240,90108,1,0,0:0:0:0:
222,243,90342,1,0,0:0:0:0:
325,255,90459,1,8,0:0:0:0:
324,269,90576,1,0,0:0:0:0:
212,315,90811,1,0,0:0:0:0:
212,315,91045,1,8,0:0:0:0:
138,147,91279,1,0,0:0:0:0:
135,153,91514,1,8,0:0:0:0:
405,249,91631,1,0,0:0:0:0:
328,244,91748,1,8,0:0:0:0:
246,119,91865,1,8,0:0:0:0:
246,119,91983,1,0,0:0:0:0:
246,119,92100,1,0,0:0:0:0:
188,257,92217,1,8,0:0:0:0:
246,267,92451,1,0,0:0:0:0:
238,198,92920,1,8,0:0:0:0:
156,189,93154,1,0,0:0:0:0:
272,162,93389,1,8,0:0:0:0:
273,156,93545,1,8,0:0:0:0:
273,156,93701,1,8,0:0:0:0:
273,156,93858,1,0,0:0:0:0:
229,91,94092,1,0,0:0:0:0:
229,91,94209,1,8,0:0:0:0:
212,89,94326,1,0,0:0:0:0:
212,89,94561,1,0,0:0:0:0:
192,153,94795,1,8,0:0:0:0:
252,252,95029,1,0,0:0:0:0:
328,256,95264,1,8,0:0:0:0:
419,286,95381,1,8,0:0:0:0:
282,126,95498,1,0,0:0:0:0:
208,251,95615,1,8,0:0:0:0:
139,244,95733,1,0,0:0:0:0:
304,303,95850,1,0,0:0:0:0:
186,299,95967,1,0,0:0:0:0:
243,287,96201,1,8,0:0:0:0:
214,337,96670,1,0,0:0:0:0:
230,240,96904,1,8,0:0:0:0:
357,240,97139,1,0,0:0:0:0:
357,240,97295,1,0,0:0:0:0:
357,240,97451,1,0,0:0:0:0:
357,240,97608,1,8,0:0:0:0:
222,243,97842,1,8,0:0:0:0:
325,255,97959,1,0,0:0:0:0:
324,269,98076,1,8,0:0:0:0:
212,315,98311,1,8,0:0:0:0:
212,315,98545,1,0,0:0:0:0:
138,147,98779,1,8,0:0:0:0:
135,153,99014,1,0,0:0:0:0:
405,249,99131,1,8,0:0:0:0:
328,244,99248,1,0,0:0:0:0:
246,119,99365,1,0,0:0:0:0:
246,119,99483,1,8,0:0:0:0:
246,119,99600,1,8,0:0:0:0:
188,257,99717,1,0,0:0:0:0:
246,267,99951,1,8,0:0:0:0:
238,198,100420,1,0,0:0:0:0:
156,189,100654,1,8,0:0:0:0:
272,162,100889,1,0,0:0:0:0:
273,156,101045,1,0,0:0:0:0:
273,156,101201,1,0,0:0:0:0:
273,156,101358,1,8,0:0:0:0:
229,91,101592,1,8,0:0:0:0:
229,91,101709,1,0,0:0:0:0:
212,89,101826,1,8,0:0:0:0:
212,89,102061,1,8,0:0:0:0:
192,153,102295,1,0,0:0:0:0:
252,252,102529,1,8,0:0:0:0:
328,256,102764,1,0,0:0:0:0:
419,286,102881,1,0,0:0:0:0:
282,126,102998,1,8,0:0:0:0:
208,251,103115,1,0,0:0:0:0:
139,244,103233,1,8,0:0:0:0:
304,303,103350,1,8,0:0:0:0:
186,299,103467,1,8,0:0:0:0:
243,287,103701,1,0,0:0:0:0:
214,337,104170,1,8,0:0:0:0:
230,240,104404,5,0,0:0:0:0:
357,240,104639,1,8,0:0:0:0:
357,240,105108,1,0,0:0:0:0:
92,193,105342,1,0,0:0:0:0:
92,193,105576,1,0,0:0:0:0:
256,198,105928,1,8,0:0:0:0:
255,198,106045,1,0,0:0:0:0:
255,195,106279,1,8,0:0:0:0:
254,199,106514,1,0,0:0:0:0:
256,198,106865,1,0,0:0:0:0:
256,198,106982,1,8,0:0:0:0:
266,201,107217,1,0,0:0:0:0:
260,201,107451,1,8,0:0:0:0:
259,212,107920,1,8,0:0:0:0:
263,211,108154,1,0,0:0:0:0:
263,211,108272,1,8,0:0:0:0:
263,211,108389,1,0,0:0:0:0:
259,212,108623,1,0,0:0:0:0:
259,212,108858,1,8,0:0:0:0:
263,211,109092,1,8,0:0:0:0:
263,211,109326,1,0,0:0:0:0:
264,210,109795,1,8,0:0:0:0:
267,208,110029,1,0,0:0:0:0:
267,208,110147,1,8,0:0:0:0:
267,208,110264,1,0,0:0:0:0:
277,207,110615,1,0,0:0:0:0:
271,207,110733,1,8,0:0:0:0:
