osu file format v14

[General]
AudioFilename: audio.mp3
AudioLeadIn: 0
PreviewTime: 14639
Countdown: 0
SampleSet: Normal
StackLeniency: 0.7
Mode: 1
LetterboxInBreaks: 0
WidescreenStoryboard: 1

[Editor]
Bookmarks: 15118,30118,45118,60118,75118,90118,105118
DistanceSpacing: 1.2
BeatDivisor: 4
GridSize: 32
TimelineZoom: 1.4

[Metadata]
Title:MOONLIGHT
TitleUnicode:MOONLIGHT
Artist:XXXTENTACION
ArtistUnicode:XXXTENTACION
Creator:Saoji
Version:Kantan ft. Chromoxx
Source:
Tags:Bad Vibes Forever Hip Hop hiphop hip-hop English Chromoxx Yales cloud rap ? question mark
BeatmapID:3528010
BeatmapSetID:1726348

[Difficulty]
HPDrainRate:8
CircleSize:5
OverallDifficulty:2
ApproachRate:8
SliderMultiplier:1.4
SliderTickRate:1

[Events]
//Background and Video events
0,0,"moonlight.jpg",0,-100
//Break Periods
//Storyboard Layer 0 (Background)
//Storyboard Layer 1 (Fail)
//Storyboard Layer 2 (Pass)
//Storyboard Layer 3 (Foreground)
//Storyboard Layer 4 (Overlay)
//Storyboard Sound Samples

[TimingPoints]
15108,468.75,4,1,0,65,1,0
108740,-100,4,1,0,35,0,0

[HitObjects]
256,192,15108,5,8,0:0:0:0:
256,192,16045,1,0,0:0:0:0:
256,192,16514,1,8,0:0:0:0:
256,192,18858,1,8,0:0:0:0:
256,192,19326,1,8,0:0:0:0:
256,192,19795,1,0,0:0:0:0:
256,192,20733,1,8,0:0:0:0:
256,192,21201,1,0,0:0:0:0:
256,192,22139,1,8,0:0:0:0:
256,192,22608,1,0,0:0:0:0:
256,192,23076,1,8,0:0:0:0:
256,192,25420,1,0,0:0:0:0:
256,192,26358,1,8,0:0:0:0:
256,192,26826,1,8,0:0:0:0:
256,192,27295,1,8,0:0:0:0:
256,192,28701,1,8,0:0:0:0:
256,192,29170,1,0,0:0:0:0:
230,121,30108,1,8,0:0:0:0:
230,121,31045,1,8,0:0:0:0:
229,236,31748,1,8,0:0:0:0:
181,213,32451,1,0,0:0:0:0:
181,213,32920,1,8,0:0:0:0:
170,210,33858,1,0,0:0:0:0:
280,109,34795,1,0,0:0:0:0:
280,109,35498,1,0,0:0:0:0:
248,105,36201,1,8,0:0:0:0:
248,105,36670,1,0,0:0:0:0:
207,104,37608,1,8,0:0:0:0:
197,228,38545,1,8,0:0:0:0:
197,228,39248,1,8,0:0:0:0:
197,228,39951,1,0,0:0:0:0:
197,228,40420,1,8,0:0:0:0:
158,228,41358,1,0,0:0:0:0:
158,228,42295,1,0,0:0:0:0:
293,207,42998,1,0,0:0:0:0:
293,207,43701,1,8,0:0:0:0:
293,207,44170,1,0,0:0:0:0:
261,189,45108,1,8,0:0:0:0:
261,189,45576,1,0,0:0:0:0:
272,190,46045,1,8,0:0:0:0:
282,177,47451,1,0,0:0:0:0:
281,174,47920,1,8,0:0:0:0:
281,174,48858,1,8,0:0:0:0:
267,167,49326,1,8,0:0:0:0:
273,170,49795,1,0,0:0:0:0:
253,194,51201,1,0,0:0:0:0:
263,191,51904,1,8,0:0:0:0:
263,180,52608,1,0,0:0:0:0:
268,186,53076,1,8,0:0:0:0:
273,187,53545,1,8,0:0:0:0:
280,191,54951,1,0,0:0:0:0:
264,190,55420,1,8,0:0:0:0:
264,190,56358,1,8,0:0:0:0:
264,190,56826,1,0,0:0:0:0:
264,190,57295,1,8,0:0:0:0:
262,190,58701,1,0,0:0:0:0:
262,190,59404,1,8,0:0:0:0:
248,192,60108,1,0,0:0:0:0:
249,161,61045,1,8,0:0:0:0:
133,107,61748,1,8,0:0:0:0:
133,107,62217,1,8,0:0:0:0:
237,247,63858,1,0,0:0:0:0:
237,247,64795,1,8,0:0:0:0:
237,247,65498,1,8,0:0:0:0:
203,156,67608,1,0,0:0:0:0:
203,156,68545,1,8,0:0:0:0:
203,156,69248,1,8,0:0:0:0:
203,156,69717,1,8,0:0:0:0:
117,167,70420,1,0,0:0:0:0:
283,173,71358,1,8,0:0:0:0:
174,194,72295,1,0,0:0:0:0:
217,191,72998,1,0,0:0:0:0:
217,191,73467,1,0,0:0:0:0:
166,151,74170,1,8,0:0:0:0:
259,192,75108,1,8,0:0:0:0:
260,177,76514,1,0,0:0:0:0:
251,199,77451,1,8,0:0:0:0:
251,199,78154,1,8,0:0:0:0:
258,201,78858,1,0,0:0:0:0:
266,188,80264,1,0,0:0:0:0:
254,200,81201,1,8,0:0:0:0:
254,200,81904,1,8,0:0:0:0:
254,200,82608,1,0,0:0:0:0:
254,200,83545,1,8,0:0:0:0:
254,200,84248,1,8,0:0:0:0:
266,200,84951,1,8,0:0:0:0:
262,195,85420,1,0,0:0:0:0:
271,212,85889,1,0,0:0:0:0:
264,209,86358,1,8,0:0:0:0:
266,213,87295,1,8,0:0:0:0:
266,213,87998,1,8,0:0:0:0:
251,207,90108,1,0,0:0:0:0:
251,207,90576,1,0,0:0:0:0:
251,207,91045,1,8,0:0:0:0:
164,237,91748,1,8,0:0:0:0:
164,237,92451,1,0,0:0:0:0:
164,237,92920,1,8,0:0:0:0:
302,283,93858,1,0,0:0:0:0:
302,283,94326,1,8,0:0:0:0:
280,285,94795,1,0,0:0:0:0:
258,278,95498,1,8,0:0:0:0:
177,268,96201,1,8,0:0:0:0:
177,268,96670,1,0,0:0:0:0:
177,268,97608,1,8,0:0:0:0:
177,268,98076,1,8,0:0:0:0:
177,268,98545,1,0,0:0:0:0:
182,248,99248,1,0,0:0:0:0:
275,252,99951,1,8,0:0:0:0:
275,252,100420,1,0,0:0:0:0:
156,285,101358,1,8,0:0:0:0:
156,285,101826,1,0,0:0:0:0:
156,285,102295,1,8,0:0:0:0:
156,285,102998,1,0,0:0:0:0:
249,253,104170,1,8,0:0:0:0:
256,192,105108,5,0,0:0:0:0:
256,192,105576,5,0,0:0:0:0:
264,192,106045,1,8,0:0:0:0:
256,192,106983,1,8,0:0:0:0:
256,192,107451,1,0,0:0:0:0:
256,192,107920,1,8,0:0:0:0:
256,192,108858,1,0,0:0:0:0:
261,194,109326,1,0,0:0:0:0:
262,205,109795,1,8,0:0:0:0:
262,205,110733,1,8,0:0:0:0:
