osu file format v14

[General]
AudioFilename: audio.mp3
AudioLeadIn: 0
PreviewTime: 69261
Countdown: 0
SampleSet: Normal
StackLeniency: 0.7
Mode: 1
LetterboxInBreaks: 0
WidescreenStoryboard: 1

[Editor]
DistanceSpacing: 0.8
BeatDivisor: 4
GridSize: 32
TimelineZoom: 1.6

[Metadata]
Title:LIMBO (feat. Killstation)
TitleUnicode:LIMBO (feat. Killstation)
Artist:XXXTENTACION
ArtistUnicode:XXXTENTACION
Creator:clockbite
Version:MUZUKASHII
Source:
Tags:english pop indie-pop emo scream alternative bad vibes forever
BeatmapID:3384035
BeatmapSetID:1652561

[Difficulty]
HPDrainRate:8
CircleSize:5
OverallDifficulty:3.5
ApproachRate:5
SliderMultiplier:1.4
SliderTickRate:1

[Events]
//Background and Video events
0,0,"1.jpg",0,-32
//Break Periods
//Storyboard Layer 0 (Background)
//Storyboard Layer 1 (Fail)
//Storyboard Layer 2 (Pass)
//Storyboard Layer 3 (Foreground)
//Storyboard Layer 4 (Overlay)
//Storyboard Sound Samples

[TimingPoints]
83,540.540540540541,5,1,0,30,1,0
83,-125,5,1,0,30,0,0
2286,540.540540540541,4,1,0,30,1,0
2286,-125,4,1,0,30,0,0
4425,540.540540540541,4,1,0,30,1,0
4425,-125,4,1,0,30,0,0
8730,540.540540540541,5,1,0,30,1,0
8730,-125,5,1,0,30,0,0
10940,540.540540540541,4,1,0,30,1,0
10940,-125,4,1,0,30,0,0
13074,540.540540540541,4,1,0,30,1,0
13074,-125,4,1,0,30,0,0
16829,-125,4,1,0,50,0,0
17370,540.540540540541,4,1,0,50,1,0
17370,-125,4,1,0,50,0,0
34130,-125,4,1,0,60,0,0
51428,-125,4,1,0,65,0,0
68727,-125,4,1,0,85,0,0
69261,-125,4,1,0,85,0,1
70342,-125,4,1,0,85,0,0
73586,-125,4,1,0,85,0,1
74667,-125,4,1,0,85,0,0
77910,-125,4,1,0,85,0,1
85478,-125,4,1,0,85,0,0
86559,-125,4,1,0,85,0,1
87640,-125,4,1,0,85,0,0
89802,-125,4,1,0,85,0,1
93045,-125,4,1,0,85,0,0
94126,-125,4,1,0,85,0,1
98451,-125,4,1,0,85,0,0
99532,-125,4,1,0,85,0,1
101153,-125,4,1,0,85,0,1
102775,-125,4,1,0,85,0,0
103325,-125,4,1,0,30,0,0
103721,540.540540540541,4,1,0,30,1,8
103862,540.540540540541,5,1,0,30,1,0
103862,-125,5,1,0,30,0,0
106080,540.540540540541,4,1,0,30,1,0
106080,-125,4,1,0,30,0,0
108218,540.540540540541,4,1,0,30,1,0
108218,-125,4,1,0,30,0,0
110374,540.540540540541,4,1,0,30,1,0
110374,-125,4,1,0,30,0,0
112530,540.540540540541,4,1,0,30,1,0
112530,-125,4,1,0,30,0,0
120624,-125,4,1,0,50,0,0
121155,540.540540540541,4,1,0,50,1,0
121155,-125,4,1,0,50,0,0
129273,-125,4,1,0,60,0,0
137923,-125,4,1,0,85,0,0
138317,540.540540540541,4,1,0,85,1,8
138456,540.540540540541,4,1,0,85,1,1
138456,-125,4,1,0,85,0,1
139537,-125,4,1,0,85,0,0
140077,-125,4,1,0,85,0,1
141699,-125,4,1,0,85,0,0
142780,-125,4,1,0,85,0,1
143861,-125,4,1,0,85,0,0
144401,-125,4,1,0,85,0,1
146564,-125,4,1,0,85,0,0
147104,-125,4,1,0,85,0,1
150347,-125,4,1,0,85,0,0
150888,-125,4,1,0,85,0,1
154672,-125,4,1,0,85,0,0
155753,-125,4,1,0,85,0,1
156834,-125,4,1,0,85,0,0
157374,-125,4,1,0,85,0,1
159537,-125,4,1,0,85,0,0
160077,-125,4,1,0,85,0,1
163861,-125,4,1,0,85,0,0
164401,-125,4,1,0,85,0,1
168050,-125,4,1,0,85,0,0
168726,-125,4,1,0,85,0,1
170888,-125,4,1,0,85,0,1
171714,-125,4,1,0,80,0,1
171969,-125,4,1,0,80,0,0
172254,-125,4,1,0,70,0,0
172660,-125,4,1,0,65,0,0
172930,-125,4,1,0,60,0,0
174687,-125,4,1,0,30,0,0
175212,540.540540540541,4,1,0,30,1,8
175245,540.540540540541,4,1,0,30,1,0
175245,-125,4,1,0,30,0,0
179555,540.540540540541,4,1,0,30,1,0
179555,-125,4,1,0,30,0,0
186025,540.540540540541,4,1,0,30,1,0
186025,-125,4,1,0,30,0,0
186295,-125,4,1,0,5,0,0

[HitObjects]
175,124,83,5,0,0:0:0:0:
374,215,623,1,8,0:0:0:0:
40,196,2286,1,0,0:0:0:0:
479,175,4425,1,8,0:0:0:0:
44,285,6587,1,8,0:0:0:0:
472,153,8730,1,0,0:0:0:0:
390,229,9270,1,8,0:0:0:0:
54,243,10940,1,0,0:0:0:0:
501,263,13074,1,8,0:0:0:0:
203,103,17370,1,0,0:0:0:0:
271,153,17910,1,0,0:0:0:0:
245,123,18180,1,0,0:0:0:0:
199,96,18451,1,8,0:0:0:0:
254,169,18721,1,8,0:0:0:0:
267,148,18991,1,0,0:0:0:0:
110,189,19802,1,0,0:0:0:0:
84,163,20072,1,8,0:0:0:0:
84,163,20342,1,8,0:0:0:0:
84,163,20613,1,0,0:0:0:0:
161,190,21153,1,8,0:0:0:0:
221,135,21694,1,0,0:0:0:0:
270,48,22234,1,8,0:0:0:0:
241,85,22505,1,0,0:0:0:0:
217,116,22775,1,8,0:0:0:0:
311,184,23045,1,8,0:0:0:0:
176,193,23315,1,0,0:0:0:0:
217,116,23586,1,0,0:0:0:0:
222,107,23856,1,8,0:0:0:0:
141,133,24397,1,0,0:0:0:0:
203,103,26018,1,0,0:0:0:0:
271,153,26559,1,8,0:0:0:0:
245,123,26829,1,0,0:0:0:0:
199,96,27099,1,8,0:0:0:0:
86,151,27370,1,8,0:0:0:0:
267,148,27640,1,0,0:0:0:0:
228,111,28451,1,0,0:0:0:0:
84,163,28721,1,8,0:0:0:0:
84,163,28991,1,0,0:0:0:0:
84,163,29261,1,8,0:0:0:0:
161,190,29802,1,0,0:0:0:0:
221,135,30342,1,0,0:0:0:0:
270,48,30883,1,0,0:0:0:0:
241,85,31153,1,0,0:0:0:0:
217,116,31424,1,8,0:0:0:0:
375,153,31694,1,0,0:0:0:0:
176,193,31964,1,8,0:0:0:0:
217,116,32234,1,8,0:0:0:0:
222,107,32505,1,0,0:0:0:0:
141,133,33045,1,0,0:0:0:0:
378,4,34667,1,0,0:0:0:0:
313,53,35207,1,0,0:0:0:0:
244,105,35748,1,8,0:0:0:0:
244,105,36018,1,0,0:0:0:0:
244,105,36288,1,0,0:0:0:0:
244,105,36559,1,8,0:0:0:0:
244,105,37099,1,8,0:0:0:0:
233,73,37370,1,8,0:0:0:0:
244,105,37640,1,0,0:0:0:0:
288,108,37910,1,0,0:0:0:0:
244,105,38180,1,8,0:0:0:0:
268,186,38721,1,0,0:0:0:0:
244,105,39261,1,8,0:0:0:0:
315,167,39532,1,8,0:0:0:0:
246,106,39802,1,0,0:0:0:0:
250,126,40342,1,0,0:0:0:0:
385,193,40613,1,0,0:0:0:0:
239,103,40883,1,8,0:0:0:0:
346,148,41424,1,8,0:0:0:0:
237,102,41964,1,0,0:0:0:0:
378,4,43315,1,0,0:0:0:0:
361,55,43631,1,8,0:0:0:0:
308,177,43856,1,0,0:0:0:0:
244,105,44397,1,0,0:0:0:0:
244,105,44667,1,8,0:0:0:0:
244,105,44937,1,0,0:0:0:0:
244,105,45207,1,8,0:0:0:0:
244,105,45748,1,8,0:0:0:0:
244,105,46018,1,0,0:0:0:0:
233,73,46288,1,8,0:0:0:0:
284,133,46559,1,8,0:0:0:0:
268,186,46829,1,0,0:0:0:0:
244,105,47370,1,8,0:0:0:0:
244,105,47910,1,8,0:0:0:0:
246,106,48180,1,0,0:0:0:0:
349,179,48451,1,8,0:0:0:0:
234,148,48991,1,0,0:0:0:0:
377,171,49261,1,0,0:0:0:0:
239,103,49532,1,8,0:0:0:0:
377,171,50072,1,8,0:0:0:0:
228,18,50613,1,0,0:0:0:0:
378,4,51964,1,0,0:0:0:0:
313,53,52505,1,0,0:0:0:0:
244,105,53045,1,8,0:0:0:0:
244,105,53315,1,8,0:0:0:0:
244,105,53586,1,0,0:0:0:0:
244,105,53856,1,8,0:0:0:0:
244,105,54397,1,8,0:0:0:0:
244,105,54667,1,0,0:0:0:0:
233,73,54937,1,0,0:0:0:0:
296,124,55207,1,8,0:0:0:0:
268,186,55478,1,0,0:0:0:0:
244,105,56018,1,8,0:0:0:0:
244,105,56559,1,0,0:0:0:0:
390,144,56829,1,8,0:0:0:0:
246,106,57099,1,0,0:0:0:0:
290,159,57640,1,8,0:0:0:0:
246,122,57910,1,0,0:0:0:0:
239,103,58180,1,8,0:0:0:0:
378,4,60613,1,0,0:0:0:0:
350,48,60928,1,8,0:0:0:0:
313,53,61153,1,0,0:0:0:0:
244,105,61694,1,0,0:0:0:0:
244,105,61964,1,0,0:0:0:0:
244,105,62234,1,0,0:0:0:0:
244,105,62505,1,8,0:0:0:0:
244,105,63045,1,8,0:0:0:0:
233,73,63315,1,8,0:0:0:0:
244,105,63586,1,0,0:0:0:0:
268,146,63856,1,8,0:0:0:0:
268,186,64126,1,0,0:0:0:0:
244,105,64667,1,8,0:0:0:0:
244,105,65207,1,8,0:0:0:0:
246,106,65478,1,0,0:0:0:0:
270,160,65748,1,8,0:0:0:0:
162,103,66288,1,0,0:0:0:0:
194,113,66559,1,0,0:0:0:0:
239,103,66829,1,8,0:0:0:0:
347,233,69261,1,4,0:0:0:0:
243,243,69802,1,4,0:0:0:0:
312,220,73586,1,4,0:0:0:0:
387,204,73856,1,8,0:0:0:0:
218,281,74126,1,0,0:0:0:0:
218,281,74397,1,0,0:0:0:0:
429,257,74667,1,8,0:0:0:0:
311,220,76829,1,8,0:0:0:0:
295,177,77099,1,8,0:0:0:0:
255,228,77370,1,0,0:0:0:0:
217,133,77505,1,0,0:0:0:0:
255,228,77640,1,0,0:0:0:0:
312,220,77910,1,12,0:0:0:0:
218,281,78451,1,0,0:0:0:0:
218,281,78721,1,0,0:0:0:0:
429,257,78991,1,8,0:0:0:0:
377,154,79261,1,0,0:0:0:0:
317,250,79532,1,8,0:0:0:0:
206,259,80072,1,8,0:0:0:0:
261,247,80342,1,8,0:0:0:0:
206,259,80613,1,0,0:0:0:0:
236,149,80883,1,0,0:0:0:0:
311,220,81153,1,8,0:0:0:0:
255,228,81694,1,0,0:0:0:0:
302,168,81964,1,8,0:0:0:0:
312,220,82234,1,4,0:0:0:0:
218,281,82775,1,8,0:0:0:0:
218,281,83045,1,8,0:0:0:0:
429,257,83315,1,0,0:0:0:0:
217,142,83586,1,8,0:0:0:0:
317,250,83856,1,0,0:0:0:0:
261,247,84126,1,0,0:0:0:0:
206,259,84397,1,8,0:0:0:0:
229,174,84937,1,0,0:0:0:0:
311,211,85478,1,8,0:0:0:0:
330,172,85613,1,8,0:0:0:0:
295,177,85748,1,8,0:0:0:0:
255,228,86018,1,0,0:0:0:0:
265,170,86153,1,0,0:0:0:0:
255,228,86288,1,0,0:0:0:0:
312,220,86559,1,12,0:0:0:0:
219,158,86829,1,8,0:0:0:0:
218,281,87099,1,4,0:0:0:0:
304,157,87370,1,0,0:0:0:0:
358,215,87640,1,8,0:0:0:0:
311,220,89802,1,12,0:0:0:0:
261,141,90072,1,0,0:0:0:0:
255,228,90342,1,8,0:0:0:0:
234,97,90478,1,8,0:0:0:0:
290,164,90613,1,8,0:0:0:0:
312,220,90883,1,4,0:0:0:0:
218,281,91424,1,8,0:0:0:0:
218,281,91694,1,0,0:0:0:0:
429,257,91964,1,8,0:0:0:0:
326,168,92234,1,8,0:0:0:0:
317,250,92505,1,0,0:0:0:0:
261,247,92775,1,0,0:0:0:0:
206,259,93045,1,8,0:0:0:0:
311,220,94126,1,4,0:0:0:0:
246,155,94397,1,8,0:0:0:0:
255,228,94667,1,0,0:0:0:0:
159,137,94802,1,0,0:0:0:0:
271,136,94937,1,0,0:0:0:0:
312,220,95207,1,12,0:0:0:0:
218,281,95748,1,0,0:0:0:0:
429,257,96018,1,8,0:0:0:0:
218,281,96288,1,8,0:0:0:0:
245,112,96559,1,0,0:0:0:0:
317,250,96829,1,0,0:0:0:0:
206,259,97370,1,8,0:0:0:0:
275,151,97505,1,8,0:0:0:0:
261,247,97640,1,8,0:0:0:0:
206,259,97910,1,0,0:0:0:0:
232,118,98180,1,0,0:0:0:0:
311,220,98451,1,8,0:0:0:0:
312,220,99532,1,4,0:0:0:0:
218,281,100072,1,8,0:0:0:0:
429,257,100342,1,0,0:0:0:0:
218,281,100613,1,8,0:0:0:0:
382,173,100883,1,8,0:0:0:0:
317,250,101153,1,0,0:0:0:0:
261,247,101424,1,0,0:0:0:0:
206,259,101694,1,8,0:0:0:0:
189,176,102234,1,0,0:0:0:0:
183,157,103862,1,8,0:0:0:0:
243,168,106080,1,0,0:0:0:0:
442,182,108218,1,8,0:0:0:0:
100,105,110374,1,8,0:0:0:0:
435,212,112530,1,0,0:0:0:0:
83,100,114692,1,0,0:0:0:0:
417,188,116854,1,8,0:0:0:0:
78,110,119016,1,0,0:0:0:0:
458,145,121155,1,0,0:0:0:0:
303,220,122236,1,8,0:0:0:0:
96,61,123857,1,0,0:0:0:0:
301,112,124398,1,8,0:0:0:0:
161,223,125479,1,0,0:0:0:0:
332,167,126560,1,8,0:0:0:0:
248,171,127100,1,0,0:0:0:0:
268,169,129803,1,0,0:0:0:0:
292,245,130344,1,0,0:0:0:0:
424,231,130884,1,8,0:0:0:0:
175,128,132506,1,0,0:0:0:0:
254,153,133046,1,8,0:0:0:0:
177,315,134127,1,0,0:0:0:0:
332,226,135208,1,8,0:0:0:0:
261,212,138456,5,4,0:0:0:0:
11,133,140077,1,4,0:0:0:0:
175,174,141158,1,4,0:0:0:0:
264,198,141699,1,8,0:0:0:0:
397,166,141834,1,8,0:0:0:0:
305,210,141969,1,8,0:0:0:0:
305,210,142239,1,0,0:0:0:0:
306,154,142374,1,0,0:0:0:0:
305,210,142510,1,0,0:0:0:0:
305,210,142780,1,12,0:0:0:0:
320,151,143050,1,8,0:0:0:0:
229,171,143320,1,0,0:0:0:0:
229,171,143591,1,0,0:0:0:0:
301,223,143861,1,8,0:0:0:0:
216,194,144401,1,12,0:0:0:0:
216,194,144672,1,0,0:0:0:0:
260,190,144942,1,8,0:0:0:0:
317,164,145077,1,8,0:0:0:0:
289,142,145212,1,8,0:0:0:0:
216,194,145483,1,0,0:0:0:0:
250,129,145753,1,0,0:0:0:0:
216,194,146023,1,8,0:0:0:0:
263,109,146293,1,0,0:0:0:0:
276,163,147104,1,4,0:0:0:0:
272,104,147374,1,0,0:0:0:0:
198,117,147645,1,8,0:0:0:0:
236,140,147915,1,0,0:0:0:0:
236,140,148185,1,8,0:0:0:0:
161,90,148726,1,0,0:0:0:0:
161,90,148996,1,0,0:0:0:0:
116,94,149266,1,8,0:0:0:0:
259,188,149401,1,8,0:0:0:0:
75,113,149537,1,8,0:0:0:0:
117,126,149807,1,0,0:0:0:0:
254,144,150077,1,0,0:0:0:0:
203,149,150347,1,8,0:0:0:0:
276,163,150888,1,0,0:0:0:0:
218,148,151023,1,0,0:0:0:0:
218,148,151158,1,0,0:0:0:0:
276,163,151428,1,4,0:0:0:0:
274,152,151699,1,8,0:0:0:0:
198,117,151969,1,0,0:0:0:0:
236,140,152239,1,0,0:0:0:0:
236,140,152510,1,8,0:0:0:0:
161,90,153050,1,8,0:0:0:0:
161,90,153320,1,8,0:0:0:0:
116,94,153591,1,0,0:0:0:0:
75,113,153861,1,8,0:0:0:0:
117,126,154131,1,0,0:0:0:0:
171,73,154401,1,0,0:0:0:0:
197,140,154672,1,8,0:0:0:0:
237,152,154942,1,0,0:0:0:0:
267,188,155212,1,8,0:0:0:0:
386,174,155347,1,8,0:0:0:0:
267,188,155483,1,8,0:0:0:0:
368,143,155753,1,4,0:0:0:0:
248,165,156564,1,0,0:0:0:0:
406,311,156834,1,8,0:0:0:0:
342,259,157374,1,4,0:0:0:0:
276,163,157915,1,8,0:0:0:0:
357,160,158050,1,8,0:0:0:0:
309,177,158185,1,8,0:0:0:0:
198,117,158456,1,0,0:0:0:0:
236,140,158726,1,0,0:0:0:0:
236,140,158996,1,8,0:0:0:0:
277,149,159266,1,8,0:0:0:0:
161,90,159537,1,0,0:0:0:0:
276,163,160077,1,4,0:0:0:0:
241,156,160347,1,0,0:0:0:0:
198,117,160618,1,8,0:0:0:0:
236,140,160888,1,0,0:0:0:0:
236,140,161158,1,8,0:0:0:0:
161,90,161699,1,8,0:0:0:0:
324,165,161834,1,8,0:0:0:0:
161,90,161969,1,8,0:0:0:0:
116,94,162239,1,0,0:0:0:0:
117,126,162510,1,0,0:0:0:0:
75,113,162780,1,8,0:0:0:0:
238,120,163050,1,0,0:0:0:0:
159,138,163320,1,8,0:0:0:0:
194,55,163861,1,0,0:0:0:0:
276,163,164401,1,4,0:0:0:0:
281,157,164672,1,8,0:0:0:0:
198,117,164942,1,8,0:0:0:0:
236,140,165212,1,0,0:0:0:0:
236,140,165483,1,8,0:0:0:0:
161,90,166023,1,0,0:0:0:0:
161,90,166293,1,0,0:0:0:0:
313,167,166564,1,8,0:0:0:0:
296,161,166699,1,8,0:0:0:0:
75,113,166834,1,8,0:0:0:0:
117,126,167104,1,0,0:0:0:0:
237,129,167374,1,0,0:0:0:0:
203,148,167645,1,8,0:0:0:0:
294,138,167915,1,0,0:0:0:0:
276,163,168726,1,4,0:0:0:0:
363,151,168996,1,0,0:0:0:0:
198,117,169266,1,8,0:0:0:0:
236,140,169537,1,0,0:0:0:0:
236,140,169807,1,8,0:0:0:0:
277,149,170077,1,8,0:0:0:0:
161,90,170347,1,0,0:0:0:0:
257,148,170483,1,0,0:0:0:0:
341,138,170618,1,0,0:0:0:0:
116,94,170888,1,8,0:0:0:0:
275,172,171428,1,8,0:0:0:0:
199,138,171969,1,0,0:0:0:0:
364,173,172510,1,8,0:0:0:0:
275,172,172780,1,0,0:0:0:0:
317,186,173050,1,8,0:0:0:0:
203,141,175245,1,0,0:0:0:0:
507,339,177407,1,8,0:0:0:0:
200,170,179555,1,8,0:0:0:0:
492,377,181717,1,0,0:0:0:0:
253,102,183879,1,0,0:0:0:0:
309,151,186025,1,8,0:0:0:0:
256,192,186565,12,0,188187,0:0:0:0:
