osu file format v14

[General]
AudioFilename: audio.mp3
AudioLeadIn: 0
PreviewTime: 36856
Countdown: 0
SampleSet: Soft
StackLeniency: 1
Mode: 0
LetterboxInBreaks: 0
WidescreenStoryboard: 1

[Editor]
DistanceSpacing: 1.3
BeatDivisor: 6
GridSize: 8
TimelineZoom: 1.5

[Metadata]
Title:INUYASHA
TitleUnicode:INUYASHA
Artist:XXXTENTACION
ArtistUnicode:XXXTENTACION
Creator:Morfeene
Version:INUYASHA
Source:
Tags:xxxtentacion inuyasha rap original hip hop x jahseh dwayne ricardo onfroy jah ice hotel kagome higurashi sango miroku shippou inu yasha 犬夜叉 2014 soundcloud trap prod bitoy feat drugz
BeatmapID:2899760
BeatmapSetID:1404991

[Difficulty]
HPDrainRate:5
CircleSize:4
OverallDifficulty:9
ApproachRate:9.7
SliderMultiplier:1.19999990463257
SliderTickRate:2

[Events]
//Background and Video events
0,0,"inuyasha-inuyashaworldaesthetic-aesthetictumblr-aesthe.jpg",0,0
//Break Periods
2,73341,90392
//Storyboard Layer 0 (Background)
//Storyboard Layer 1 (Fail)
//Storyboard Layer 2 (Pass)
//Storyboard Layer 3 (Foreground)
//Storyboard Layer 4 (Overlay)
//Storyboard Sound Samples

[TimingPoints]
18285,285.714285714286,4,2,0,40,1,0
18332,-133.333333333333,4,2,0,40,0,0
21928,-250,4,1,0,70,0,0
22499,-133.333333333333,4,2,0,40,0,0
26499,-80,4,3,0,70,0,0
27094,-250,4,1,0,70,0,0
27499,-133.333333333333,4,2,0,40,0,0
31071,-250,4,1,0,70,0,0
31499,-133.333333333333,4,2,0,40,0,0
34850,-100,4,1,0,100,0,0
36571,-66.6666666666667,4,1,0,100,0,1
45094,-66.6666666666667,4,3,0,70,0,1
45951,-80,4,1,0,100,0,1
54190,-66.6666666666667,4,3,0,70,0,1
55094,-133.333333333333,4,2,0,40,0,0
58523,-250,4,1,0,70,0,0
59142,-133.333333333333,4,2,0,40,0,0
63094,-80,4,3,0,70,0,0
63666,-250,4,1,0,70,0,0
64237,-133.333333333333,4,2,0,40,0,0
67666,-250,4,1,0,70,0,0
68285,-133.333333333333,4,2,0,40,0,0
70523,-33.3333333333333,4,3,0,100,0,0
71618,-28.5714285714286,4,3,0,100,0,0
72809,-28.5714285714286,4,3,0,70,0,0
90999,-100,4,1,0,100,0,0

[HitObjects]
98,92,18569,6,2,P|152:124|221:108,1,134.999994421005
427,163,19141,2,0,P|378:199|307:177,1,134.999994421005
105,228,19712,2,8,P|164:265|222:241,1,134.999994421005
269,300,20284,6,2,P|300:244|265:179,1,134.999994421005
181,60,20855,2,0,P|154:124|188:185,1,134.999994421005
246,147,21427,2,0,P|253:215|194:260,1,134.999994421005
368,67,21999,6,4,B|386:90|386:90|366:74,1,47.9999961853028
256,183,22999,5,8,0:0:0:0:
116,309,23142,6,2,P|126:241|188:223,1,134.999994421005
298,258,23713,2,0,P|246:300|183:291,1,134.999994421005
275,187,24285,2,8,P|350:196|383:240,1,134.999994421005
241,361,24856,6,2,P|245:296|210:237,1,134.999994421005
19,157,25428,2,0,P|80:190|151:173,1,134.999994421005
349,144,25999,2,0,P|277:132|226:172,1,134.999994421005
119,366,26571,5,10,0:0:0:0:
146,317,26666,5,10,0:0:0:0:
202,312,26761,5,10,0:0:0:0:
231,264,26856,5,10,0:0:0:0:
283,253,26951,5,10,0:0:0:0:
297,200,27047,5,10,0:0:0:0:
60,41,27142,6,4,B|80:54|80:54|57:49,1,47.9999961853028
350,178,27570,5,8,0:0:0:0:
410,312,27712,6,2,P|440:259|422:190,1,134.999994421005
235,228,28284,2,0,P|292:263|358:240,1,134.999994421005
295,53,28855,2,8,P|278:125|302:184,1,134.999994421005
478,124,29427,6,2,P|413:97|353:121,1,134.999994421005
188,204,29999,2,0,P|253:231|313:207,1,134.999994421005
478,124,30570,2,0,P|413:97|353:121,1,134.999994421005
81,80,31142,6,4,B|66:61|66:61|72:86,1,47.9999961853028
189,198,31713,5,8,0:0:0:0:
303,322,31999,5,10,0:0:0:0:
189,198,32142,5,8,0:0:0:0:
124,253,32285,6,2,P|183:290|241:266,1,134.999994421005
446,188,32857,2,0,P|397:224|326:202,1,134.999994421005
117,117,33427,2,8,P|171:149|240:133,1,134.999994421005
316,54,34000,6,2,P|347:110|304:159,1,134.999994421005
63,377,34571,6,4,B|97:333|97:333|111:341|111:341|150:297|150:297|207:280|207:280|234:225|234:225|253:209|253:209|275:225|275:225|296:281|296:281|353:298|353:298|374:343|374:343|389:337|389:337|419:380,1,539.999977684021
176,240,36856,5,0,0:0:0:0:
256,120,37046,1,0,0:0:0:0:
336,240,37237,1,0,0:0:0:0:
135,204,37427,5,0,0:0:0:0:
295,107,37617,1,0,0:0:0:0:
323,292,37808,1,0,0:0:0:0:
112,169,37999,6,8,L|158:149,1,29.9999987602234
328,106,38189,1,0,0:0:0:0:
303,329,38380,1,0,0:0:0:0:
107,42,38570,5,0,0:0:0:0:
255,187,38761,1,0,0:0:0:0:
57,237,38951,1,0,0:0:0:0:
403,42,39142,5,0,0:0:0:0:
255,187,39333,1,0,0:0:0:0:
453,237,39523,1,0,0:0:0:0:
407,25,39713,5,0,0:0:0:0:
237,191,39903,1,0,0:0:0:0:
465,249,40094,1,0,0:0:0:0:
332,288,40285,6,8,L|369:252,1,29.9999987602234
503,122,40475,1,0,0:0:0:0:
275,64,40665,1,0,0:0:0:0:
332,288,40856,5,0,0:0:0:0:
503,122,41046,1,0,0:0:0:0:
275,64,41236,1,0,0:0:0:0:
432,208,41427,5,0,0:0:0:0:
256,176,41618,1,0,0:0:0:0:
52,214,41808,1,0,0:0:0:0:
152,320,41999,5,0,0:0:0:0:
256,176,42190,1,0,0:0:0:0:
433,53,42380,1,0,0:0:0:0:
368,325,42570,6,8,L|355:299,1,29.9999987602234
256,176,42761,1,0,0:0:0:0:
92,35,42951,1,0,0:0:0:0:
51,240,43142,5,0,0:0:0:0:
268,347,43332,1,0,0:0:0:0:
488,191,43523,5,0,0:0:0:0:
250,273,43713,1,0,0:0:0:0:
52,103,43904,5,0,0:0:0:0:
305,218,44094,1,0,0:0:0:0:
478,42,44285,5,8,0:0:0:0:
210,166,44475,1,0,0:0:0:0:
77,0,44666,5,0,0:0:0:0:
319,119,44856,2,8,L|296:147,1,29.9999987602234
36,343,45142,5,10,0:0:0:0:
84,308,45236,5,10,0:0:0:0:
135,341,45331,5,10,0:0:0:0:
188,310,45427,5,10,0:0:0:0:
241,342,45523,5,10,0:0:0:0:
298,320,45618,5,10,0:0:0:0:
357,351,45713,5,10,0:0:0:0:
417,330,45809,5,10,0:0:0:0:
478,355,45904,5,10,0:0:0:0:
263,56,45999,5,0,0:0:0:0:
364,253,46189,1,0,0:0:0:0:
133,241,46380,1,0,0:0:0:0:
263,42,46570,5,0,0:0:0:0:
374,259,46760,1,0,0:0:0:0:
120,245,46951,1,0,0:0:0:0:
384,105,47142,6,0,L|366:143,1,24.9999980131785
243,331,47332,1,0,0:0:0:0:
113,85,47523,1,0,0:0:0:0:
403,92,47714,5,0,0:0:0:0:
241,351,47904,1,0,0:0:0:0:
91,69,48094,1,0,0:0:0:0:
358,72,48285,5,0,0:0:0:0:
480,288,48475,1,0,0:0:0:0:
240,288,48665,1,0,0:0:0:0:
235,47,48856,5,8,0:0:0:0:
458,168,49046,1,0,0:0:0:0:
283,288,49237,5,0,0:0:0:0:
235,47,49427,1,4,0:0:0:0:
60,217,49618,5,0,0:0:0:0:
269,380,49808,1,0,0:0:0:0:
273,218,49999,1,0,0:0:0:0:
125,161,50190,5,0,0:0:0:0:
355,343,50380,1,0,0:0:0:0:
360,157,50571,1,0,0:0:0:0:
155,94,50761,5,0,0:0:0:0:
420,303,50951,1,0,0:0:0:0:
426,89,51142,1,0,0:0:0:0:
249,347,51332,5,0,0:0:0:0:
124,74,51523,1,0,0:0:0:0:
436,153,51713,2,8,L|407:181,1,24.9999980131785
224,354,51904,5,0,0:0:0:0:
133,46,52094,1,0,0:0:0:0:
452,176,52285,1,0,0:0:0:0:
107,332,52475,5,0,0:0:0:0:
185,0,52666,1,0,0:0:0:0:
438,260,52857,1,0,0:0:0:0:
53,101,53046,5,0,0:0:0:0:
157,359,53237,1,0,0:0:0:0:
253,0,53428,1,8,0:0:0:0:
453,322,53618,1,0,0:0:0:0:
26,125,53808,1,0,0:0:0:0:
508,328,53999,2,8,L|503:300,1,24.9999980131785
439,10,54285,5,10,0:0:0:0:
452,59,54380,1,10,0:0:0:0:
456,116,54475,1,10,0:0:0:0:
434,176,54571,1,10,0:0:0:0:
379,232,54666,1,10,0:0:0:0:
311,275,54761,1,10,0:0:0:0:
231,283,54856,1,10,0:0:0:0:
149,264,54951,1,10,0:0:0:0:
82,204,55047,1,10,0:0:0:0:
78,106,55142,6,2,P|88:174|150:192,1,134.999994421005
260,157,55713,2,0,P|208:115|145:124,1,134.999994421005
310,238,56285,2,8,P|385:229|418:185,1,134.999994421005
223,95,56856,6,2,P|227:160|192:219,1,134.999994421005
1,299,57428,2,0,P|62:266|133:283,1,134.999994421005
331,312,57999,2,0,P|259:324|208:284,1,134.999994421005
472,360,58571,6,4,B|451:351|451:351|478:351,1,47.9999961853028
178,344,59570,5,10,0:0:0:0:
410,312,59712,2,2,P|440:259|422:190,1,134.999994421005
235,228,60284,2,0,P|292:263|358:240,1,134.999994421005
295,53,60855,2,8,P|278:125|302:184,1,134.999994421005
478,124,61427,6,2,P|413:97|353:121,1,134.999994421005
188,204,61999,2,0,P|253:231|313:207,1,134.999994421005
478,124,62570,2,0,P|413:97|353:121,1,134.999994421005
109,88,63142,5,10,0:0:0:0:
118,144,63237,5,10,0:0:0:0:
87,190,63332,5,10,0:0:0:0:
97,242,63428,5,10,0:0:0:0:
65,288,63523,5,10,0:0:0:0:
71,340,63618,5,10,0:0:0:0:
479,32,63713,2,4,B|457:47|457:47|470:28,1,47.9999961853028
24,22,64142,5,8,0:0:0:0:
414,292,64285,6,2,P|360:260|291:276,1,134.999994421005
85,221,64857,2,0,P|134:185|205:207,1,134.999994421005
407,156,65428,2,8,P|348:119|290:143,1,134.999994421005
243,84,66000,6,2,P|212:140|247:205,1,134.999994421005
331,324,66571,2,0,P|358:260|324:199,1,134.999994421005
266,244,67143,2,0,P|259:176|318:131,1,134.999994421005
84,364,67715,6,4,B|66:341|66:341|86:357,1,47.9999961853028
234,182,68713,5,8,0:0:0:0:
264,271,68856,2,2,P|268:316|346:351,1,134.999994421005
437,169,69427,2,0,P|385:130|319:153,1,134.999994421005
412,343,69999,2,8,P|462:314|461:240,1,134.999994421005
96,64,70570,6,2,L|47:113,6,69.9999951044719
256,160,71142,5,8,0:0:0:0:
416,64,71713,6,2,L|465:113,6,69.9999951044719
256,160,72285,5,8,0:0:0:0:
256,361,72856,6,4,B|265:303|265:303|260:307|260:307|266:253|266:253|261:260|261:260|270:188|270:188|265:195|265:195|278:128|278:128|271:132|271:132|283:81|283:81|276:83|276:83|282:17|282:17|276:26|276:26,1,419.999970626831
32,32,91142,5,4,0:0:0:0:
480,32,91428,1,4,0:0:0:0:
