osu file format v14

[General]
AudioFilename: audio.mp3
AudioLeadIn: 0
PreviewTime: 36856
Countdown: 0
SampleSet: Drum
StackLeniency: 0
Mode: 0
LetterboxInBreaks: 0
WidescreenStoryboard: 1

[Editor]
DistanceSpacing: 1.3
BeatDivisor: 6
GridSize: 16
TimelineZoom: 1.8

[Metadata]
Title:INUYASHA
TitleUnicode:INUYASHA
Artist:XXXTENTACION
ArtistUnicode:XXXTENTACION
Creator:Morfeene
Version:Hard
Source:
Tags:xxxtentacion inuyasha rap original hip hop x jahseh dwayne ricardo onfroy jah ice hotel kagome higurashi sango miroku shippou inu yasha 犬夜叉 2014 soundcloud trap prod bitoy feat drugz
BeatmapID:3148816
BeatmapSetID:1404991

[Difficulty]
HPDrainRate:4.5
CircleSize:3.4
OverallDifficulty:6
ApproachRate:8
SliderMultiplier:0.799999904632566
SliderTickRate:1

[Events]
//Background and Video events
0,0,"inuyasha 3.jpg",0,0
//Break Periods
2,73341,90392
//Storyboard Layer 0 (Background)
//Storyboard Layer 1 (Fail)
//Storyboard Layer 2 (Pass)
//Storyboard Layer 3 (Foreground)
//Storyboard Layer 4 (Overlay)
//Storyboard Sound Samples

[TimingPoints]
18571,285.714285714286,4,2,0,40,1,0
21928,-200,4,1,0,70,0,0
22499,-100,4,2,0,40,0,0
26499,-66.6666666666667,4,3,0,70,0,0
27142,-200,4,1,0,70,0,0
27499,-100,4,2,0,40,0,0
31071,-200,4,1,0,70,0,0
31499,-100,4,2,0,40,0,0
34523,-89.2857142857143,4,1,0,100,0,0
36593,-80,4,1,0,100,0,1
45094,-66.6666666666667,4,3,0,70,0,1
45951,-80,4,1,0,100,0,1
54190,-66.6666666666667,4,3,0,70,0,1
55094,-100,4,2,0,40,0,0
58523,-200,4,1,0,70,0,0
59666,-100,4,2,0,40,0,0
63094,-66.6666666666667,4,3,0,70,0,0
63666,-200,4,1,0,70,0,0
64237,-100,4,2,0,40,0,0
67666,-200,4,1,0,70,0,0
68809,-100,4,2,0,40,0,0
70523,-50,4,1,0,100,0,0
71618,-28.5714285714286,4,1,0,100,0,0
72809,-25,4,1,0,100,0,0
90999,-100,4,1,0,100,0,0

[HitObjects]
95,151,18570,6,0,P|103:193|160:248,1,119.999985694885
204,181,19142,2,0,P|229:208|239:294,1,119.999985694885
176,326,19713,2,0,P|208:359|249:363,1,79.9999904632566
396,337,20285,6,0,P|414:298|400:220,1,119.999985694885
325,248,20857,2,0,P|320:211|363:136,1,119.999985694885
433,147,21428,2,0,P|426:101|395:74,1,79.9999904632566
486,264,21999,6,0,L|470:226,1,39.9999952316283
152,93,22999,5,0,0:0:0:0:
180,61,23142,2,0,P|219:51|301:77,1,119.999985694885
207,237,23713,2,0,P|235:201|231:127,1,119.999985694885
93,124,24285,2,0,P|115:154|164:169,1,79.9999904632566
401,286,24856,6,0,P|360:288|285:247,1,119.999985694885
406,108,25427,2,0,P|371:137|361:211,1,119.999985694885
496,241,25999,2,0,P|480:207|434:183,1,79.9999904632566
262,151,26571,6,0,L|278:173,9,19.9999983787535
124,66,27142,6,0,L|146:103,1,39.9999952316283
367,220,27571,5,0,0:0:0:0:
352,249,27713,2,0,P|322:286|247:295,1,119.999985694885
147,230,28285,2,0,P|195:192|260:195,1,119.999985694885
352,249,28856,2,0,P|322:286|280:288,1,79.9999904632566
156,88,29428,6,0,P|186:51|261:42,1,119.999985694885
361,107,30000,2,0,P|313:145|248:142,1,119.999985694885
156,88,30571,2,0,P|186:51|228:49,1,79.9999904632566
76,203,31142,6,0,L|104:172,1,39.9999952316283
237,75,32142,5,0,0:0:0:0:
365,165,32285,2,0,P|330:192|308:264,1,119.999985694885
387,275,32856,2,0,P|365:328|305:344,1,119.999985694885
290,350,33428,2,0,P|231:345|211:330,1,79.9999904632566
45,212,33999,6,0,P|80:185|102:113,1,119.999985694885
252,284,34571,6,0,P|271:283|230:280,1,537.599942475584
111,262,36856,6,0,L|168:308,1,66.6666587193805
254,259,37237,5,0,0:0:0:0:
296,340,37428,1,0,0:0:0:0:
405,329,37618,2,0,L|418:261,1,66.6666587193805
415,129,37999,5,0,0:0:0:0:
415,129,38190,2,0,L|347:104,1,66.6666587193805
217,53,38571,2,0,L|199:124,1,66.6666587193805
192,241,38951,2,0,L|263:228,1,66.6666587193805
346,144,39332,2,0,L|383:212,1,66.6666587193805
451,269,39713,5,0,0:0:0:0:
370,340,39904,1,0,0:0:0:0:
262,298,40094,2,0,L|231:232,1,66.6666587193805
117,127,40475,2,0,L|110:207,1,66.6666587193805
152,349,40856,5,0,0:0:0:0:
30,240,41047,1,0,0:0:0:0:
201,167,41237,1,0,0:0:0:0:
260,259,41428,2,0,L|328:234,1,66.6666587193805
458,183,41809,2,0,L|476:254,1,66.6666587193805
483,371,42189,2,0,L|412:358,1,66.6666587193805
329,274,42570,2,0,L|292:342,1,66.6666587193805
277,330,42951,5,0,0:0:0:0:
202,225,43142,1,0,0:0:0:0:
169,354,43332,6,0,L|122:290,1,66.6666587193805
60,192,43713,5,0,0:0:0:0:
108,77,43904,1,0,0:0:0:0:
268,160,44094,2,0,L|230:93,1,66.6666587193805
299,26,44475,5,0,0:0:0:0:
421,100,44666,1,0,0:0:0:0:
429,231,44856,1,0,0:0:0:0:
231,309,45142,6,0,L|210:331,15,19.9999983787535
115,155,45999,6,0,L|184:161,1,66.6666587193805
383,206,46380,2,0,L|305:217,1,66.6666587193805
107,303,46761,2,0,L|178:300,1,66.6666587193805
336,321,47142,5,0,0:0:0:0:
270,226,47332,1,0,0:0:0:0:
444,297,47523,6,0,L|401:233,1,66.6666587193805
406,86,47904,2,0,L|331:97,1,66.6666587193805
185,34,48285,5,0,0:0:0:0:
185,34,48475,2,0,L|180:103,1,66.6666587193805
191,229,48856,2,0,L|261:205,1,66.6666587193805
327,120,49237,5,0,0:0:0:0:
387,232,49428,1,0,0:0:0:0:
305,328,49618,1,0,0:0:0:0:
305,328,49809,2,0,L|233:318,1,66.6666587193805
101,217,50190,2,0,L|172:236,1,66.6666587193805
366,153,50571,6,0,L|371:226,1,66.6666587193805
228,186,50951,5,0,0:0:0:0:
294,282,51142,1,0,0:0:0:0:
185,201,51332,1,0,0:0:0:0:
196,330,51523,6,0,L|135:290,1,66.6666587193805
85,148,51904,5,0,0:0:0:0:
41,252,52094,1,0,0:0:0:0:
46,114,52285,1,0,0:0:0:0:
200,234,52475,6,0,L|177:168,1,66.6666587193805
344,193,52856,5,0,0:0:0:0:
257,76,53047,1,0,0:0:0:0:
416,185,53237,1,0,0:0:0:0:
330,325,53428,5,0,0:0:0:0:
205,221,53619,1,0,0:0:0:0:
385,326,53809,1,0,0:0:0:0:
229,175,53999,1,0,0:0:0:0:
412,203,54285,6,0,L|401:180,15,19.9999983787535
417,233,55142,6,0,P|409:191|352:136,1,119.999985694885
308,203,55714,2,0,P|283:176|273:90,1,119.999985694885
336,58,56285,2,0,P|304:25|263:21,1,79.9999904632566
116,47,56857,6,0,P|98:86|112:164,1,119.999985694885
187,136,57429,2,0,P|192:173|149:248,1,119.999985694885
79,237,58000,2,0,P|86:283|117:310,1,79.9999904632566
26,120,58571,6,0,L|42:158,1,39.9999952316283
360,291,59571,5,0,0:0:0:0:
332,323,59714,2,0,P|293:333|211:307,1,119.999985694885
305,147,60285,2,0,P|277:183|281:257,1,119.999985694885
419,260,60857,2,0,P|397:230|348:215,1,79.9999904632566
111,98,61428,6,0,P|152:96|227:137,1,119.999985694885
106,276,61999,2,0,P|141:247|151:173,1,119.999985694885
16,143,62571,2,0,P|32:177|78:201,1,79.9999904632566
250,233,63143,6,0,L|234:211,9,19.9999983787535
388,318,63714,6,0,L|366:281,1,39.9999952316283
145,164,64143,5,0,0:0:0:0:
160,135,64285,2,0,P|190:98|265:89,1,119.999985694885
365,154,64857,2,0,P|317:192|252:189,1,119.999985694885
160,135,65428,2,0,P|190:98|232:96,1,79.9999904632566
356,296,66000,6,0,P|326:333|251:342,1,119.999985694885
151,277,66572,2,0,P|199:239|264:242,1,119.999985694885
356,296,67143,2,0,P|326:333|284:335,1,79.9999904632566
436,181,67714,6,0,L|408:212,1,39.9999952316283
275,309,68714,5,0,0:0:0:0:
147,219,68857,2,0,P|182:192|204:120,1,119.999985694885
125,109,69428,2,0,P|147:56|207:40,1,119.999985694885
223,31,70000,2,0,P|282:36|302:51,1,79.9999904632566
428,143,70571,6,0,L|312:262,1,159.999980926513
209,169,71713,6,0,P|170:219|309:338,1,279.999969291686
253,26,72856,6,0,B|251:122|251:122|274:126|217:141|217:141|256:181|255:319,1,319.999961853026
217,214,91142,6,0,L|300:193,1,79.9999904632566
