osu file format v14

[General]
AudioFilename: audio.mp3
AudioLeadIn: 0
PreviewTime: 19003
Countdown: 1
SampleSet: Soft
StackLeniency: 0.7
Mode: 0
LetterboxInBreaks: 0
WidescreenStoryboard: 0

[Editor]
DistanceSpacing: 0.8
BeatDivisor: 4
GridSize: 16
TimelineZoom: 1

[Metadata]
Title:I Don't Wanna Do This Anymore
TitleUnicode:I Don't Wanna Do This Anymore
Artist:XXXTENTACION
ArtistUnicode:XXXTENTACION
Creator:Mishima Yurara
Version:Hard
Source:
Tags:Revenge foxygrandpa spaghetti vinxis
BeatmapID:1573191
BeatmapSetID:746419

[Difficulty]
HPDrainRate:6
CircleSize:5
OverallDifficulty:7
ApproachRate:8
SliderMultiplier:2.1
SliderTickRate:1

[Events]
//Background and Video events
0,0,"xxxxxxxxx.jpg",0,0
//Break Periods
//Storyboard Layer 0 (Background)
//Storyboard Layer 1 (Fail)
//Storyboard Layer 2 (Pass)
//Storyboard Layer 3 (Foreground)
//Storyboard Sound Samples

[TimingPoints]
1194,564.389500209996,4,2,1,60,1,0
19003,524.989500209996,4,2,1,40,1,0
19003,-181.818181818181,4,2,1,40,0,0
19527,524.989500209996,4,2,1,60,1,0
27401,-181.818181818181,4,2,1,60,0,0
27795,-181.818181818181,4,2,1,5,0,0
27926,-100,4,2,1,60,0,0
28320,-100,4,2,1,5,0,0
28451,-181.818181818181,4,2,1,60,0,0
28845,-181.818181818181,4,2,1,5,0,0
28976,-100,4,2,1,60,0,0
29370,-100,4,2,1,5,0,0
29501,-181.818181818181,4,2,1,60,0,0
29895,-181.818181818181,4,2,1,5,0,0
30026,-100,4,2,1,60,0,0
30420,-100,4,2,1,5,0,0
30551,-181.818181818181,4,2,1,60,0,0
30945,-181.818181818181,4,2,1,5,0,0
31076,-100,4,2,1,60,0,0
31470,-100,4,2,1,5,0,0
31601,-181.818181818181,4,2,1,60,0,0
31995,-181.818181818181,4,2,1,5,0,0
32126,-100,4,2,1,60,0,0
32520,-100,4,2,1,5,0,0
32651,-181.818181818181,4,2,1,60,0,0
33045,-181.818181818181,4,2,1,5,0,0
33176,-100,4,2,1,60,0,0
33570,-100,4,2,1,5,0,0
33701,-181.818181818181,4,2,1,60,0,0
34095,-181.818181818181,4,2,1,5,0,0
34226,-100,4,2,1,60,0,0
34620,-100,4,2,1,5,0,0
34751,-181.818181818181,4,2,1,60,0,0
35801,-100,4,2,1,60,0,0
44201,-181.818181818181,4,2,1,60,0,0
44595,-181.818181818181,4,2,1,5,0,0
44726,-100,4,2,1,60,0,0
45120,-100,4,2,1,5,0,0
45251,-181.818181818181,4,2,1,60,0,0
45645,-181.818181818181,4,2,1,5,0,0
45776,-100,4,2,1,60,0,0
46170,-100,4,2,1,5,0,0
46301,-181.818181818181,4,2,1,60,0,0
46695,-181.818181818181,4,2,1,5,0,0
46826,-100,4,2,1,60,0,0
47220,-100,4,2,1,5,0,0
47351,-181.818181818181,4,2,1,60,0,0
47745,-181.818181818181,4,2,1,5,0,0
47876,-100,4,2,1,60,0,0
48270,-100,4,2,1,5,0,0
48401,-181.818181818181,4,2,1,60,0,0
48795,-181.818181818181,4,2,1,5,0,0
48926,-100,4,2,1,60,0,0
49320,-100,4,2,1,5,0,0
49451,-181.818181818181,4,2,1,60,0,0
49845,-181.818181818181,4,2,1,5,0,0
49976,-100,4,2,1,60,0,0
50370,-100,4,2,1,5,0,0
50501,-181.818181818181,4,2,1,60,0,0
50895,-181.818181818181,4,2,1,5,0,0
51026,-125,4,2,1,60,0,0
53126,-100,4,2,1,60,0,0
83050,-100,4,2,1,53,0,0
83575,-100,4,2,1,46,0,0
84100,-100,4,2,1,39,0,0
84625,-100,4,2,1,33,0,0
85150,-100,4,2,1,26,0,0
85675,-100,4,2,1,19,0,0
86200,-100,4,2,1,12,0,0
86725,-100,4,2,1,5,0,0

[Colours]
Combo1 : 0,255,128
Combo2 : 0,128,128
Combo3 : 128,255,255
Combo4 : 0,64,128

[HitObjects]
164,186,347,5,0,0:0:0:0:
117,121,629,2,0,P|113:68|123:17,1,105
210,250,1194,6,0,P|213:302|203:353,2,105,2|0|0,0:2|0:0|0:0,0:0:0:0:
164,186,2040,1,0,0:0:0:0:
235,142,2322,1,0,3:0:0:0:
318,132,2604,1,0,0:0:0:0:
394,166,2887,1,0,0:0:0:0:
440,235,3169,1,0,0:0:0:0:
483,307,3451,6,0,P|441:338|391:351,1,105,2|0,1:2|0:0,0:0:0:0:
394,166,4015,2,0,P|444:178|485:210,1,105
415,256,4580,1,0,3:0:0:0:
333,237,4862,1,0,0:0:0:0:
251,216,5144,2,0,L|267:170,4,26.25,2|0|0|0|0,0:0|0:0|0:0|0:0|0:0,0:0:0:0:
184,267,5709,6,0,L|67:265,1,105,2|0,1:2|0:0,0:0:0:0:
326,140,6273,2,0,L|443:142,1,105
484,206,6837,1,0,3:0:0:0:
433,273,7120,1,0,0:0:0:0:
485,339,7402,1,0,0:0:0:0:
402,351,7684,1,0,0:0:0:0:
323,323,7966,6,0,P|252:325|214:336,2,105,2|0|0,1:2|0:0|0:0,0:0:0:0:
402,351,8813,1,0,0:0:0:0:
433,273,9095,1,0,3:0:0:0:
363,226,9377,1,0,0:0:0:0:
292,181,9659,2,0,L|301:137,4,26.25,2|0|0|0|0,0:0|0:0|0:0|0:0|0:0,0:0:0:0:
211,204,10224,6,0,P|122:211|90:209,2,105,2|0|0,1:2|0:0|0:0,0:0:0:0:
284,161,11070,1,0,0:0:0:0:
286,76,11353,1,0,3:0:0:0:
359,33,11635,2,0,P|448:26|480:28,1,105
500,100,12199,1,0,0:0:0:0:
473,178,12481,6,0,P|384:185|352:183,1,105,2|0,0:0|0:0,0:0:0:0:
223,101,13046,2,0,P|171:94|119:94,1,105
306,124,13610,1,0,3:0:0:0:
389,116,13892,1,0,0:0:0:0:
469,139,14174,2,0,L|514:133,4,26.25,2|0|0|0|0,0:0|0:0|0:0|0:0|0:0,0:0:0:0:
361,192,14739,6,0,L|256:192,1,105,2|0,0:0|0:0,0:0:0:0:
152,179,15303,1,0,0:0:0:0:
152,284,15585,1,0,0:0:0:0:
256,192,15868,2,0,L|256:87,1,105,0|0,3:0|0:0,0:0:0:0:
152,179,16432,2,0,L|152:284,1,105
359,204,16996,6,0,P|308:193|256:192,1,105
152,179,17561,2,0,P|203:190|256:192,1,105,6|0,0:0|0:0,0:0:0:0:
255,192,18125,1,0,3:0:0:0:
152,179,19003,6,0,P|104:163|115:127,1,86.6250026435853,2|0,0:0|0:0,0:0:0:0:
120,111,19527,6,0,P|143:71|199:42,1,105,2|0,0:0|0:0,0:0:0:0:
257,76,19920,2,0,P|296:52|359:55,1,105,2|0,0:0|0:0,0:0:0:0:
393,114,20314,2,0,P|439:113|492:147,2,105,2|8|0,0:0|0:0|0:0,0:0:0:0:
181,66,21101,1,0,0:0:0:0:
174,111,21232,1,0,0:0:0:0:
168,156,21363,1,0,0:0:0:0:
161,202,21494,1,0,0:0:0:0:
155,247,21626,6,0,P|100:250|46:231,1,105,2|0,3:2|0:0,0:0:0:0:
235,195,22020,2,0,P|259:145|303:108,1,105,2|0,0:0|0:0,0:0:0:0:
240,290,22414,2,0,P|270:336|280:392,2,105,2|8|0,0:0|0:0|0:0,0:0:0:0:
53,234,23201,2,0,P|64:183|93:139,1,105
75,73,23595,1,0,0:0:0:0:
75,73,23726,6,0,L|192:67,1,105,2|0,3:2|0:0,0:0:0:0:
234,115,24120,2,0,L|338:168,1,105,2|0,0:0|0:0,0:0:0:0:
350,230,24514,2,0,L|413:328,2,105,2|8|0,0:0|0:0|0:0,0:0:0:0:
218,199,25301,1,0,0:0:0:0:
172,200,25432,1,0,0:0:0:0:
128,212,25563,1,0,0:0:0:0:
88,234,25694,1,0,0:0:0:0:
53,264,25826,6,0,L|32:388,1,105,2|0,3:2|0:0,0:0:0:0:
80,148,26220,2,0,L|-16:67,1,105,2|0,0:0|0:0,0:0:0:0:
166,229,26614,2,0,L|283:185,2,105,2|8|0,0:0|0:0|0:0,0:0:0:0:
385,234,27401,6,0,P|401:194|403:150,1,86.6250026435853,2|0,0:0|0:0,0:0:0:0:
443,120,27926,6,0,P|444:198|411:272,1,157.5,2|0,3:2|0:0,0:0:0:0:
252,316,28451,2,0,L|338:334,1,86.6250026435853,2|0,0:0|0:0,0:0:0:0:
367,366,28976,6,0,L|195:330,1,157.5,10|0,0:0|0:0,0:0:0:0:
130,270,29501,2,0,P|113:309|111:353,1,86.6250026435853,2|0,0:0|0:0,0:0:0:0:
72,384,30026,6,0,P|70:305|104:232,1,157.5,2|0,0:0|0:0,0:0:0:0:
166,101,30551,2,0,L|80:119,1,86.6250026435853,2|0,0:0|0:0,0:0:0:0:
51,151,31076,6,0,L|222:115,1,157.5,10|0,0:0|0:0,0:0:0:0:
292,185,31601,2,0,P|308:145|310:101,1,86.6250026435853,2|0,0:0|0:0,0:0:0:0:
350,71,32126,6,0,P|351:149|318:223,1,157.5,2|0,0:0|0:0,0:0:0:0:
258,315,32651,2,0,L|344:333,1,86.6250026435853,2|0,0:0|0:0,0:0:0:0:
373,365,33176,6,0,L|201:329,1,157.5,10|0,0:0|0:0,0:0:0:0:
136,269,33701,2,0,P|119:308|117:352,1,86.6250026435853,2|0,0:0|0:0,0:0:0:0:
78,383,34226,6,0,P|76:304|110:231,1,157.5,2|0,0:0|0:0,0:0:0:0:
160,128,34751,2,0,L|42:115,1,115.50000352478,2|8,0:0|0:0,0:0:0:0:
45,115,35801,1,0,0:0:0:0:
90,120,35932,1,0,0:0:0:0:
136,125,36063,1,0,0:0:0:0:
182,130,36194,1,0,0:0:0:0:
227,135,36326,6,0,B|278:147|278:147|311:188,1,105,2|0,3:2|0:0,0:0:0:0:
161,299,36720,2,0,B|145:249|145:249|165:200,1,105,2|0,0:0|0:0,0:0:0:0:
337,273,37114,2,0,B|302:311|302:311|250:320,2,105,2|8|0,0:0|0:0|0:0,0:0:0:0:
164,200,37901,1,0,0:0:0:0:
117,193,38032,1,0,0:0:0:0:
71,204,38163,1,0,0:0:0:0:
30,228,38294,1,0,0:0:0:0:
0,266,38426,6,0,B|12:317|12:317|53:350,1,105,2|0,3:2|0:0,0:0:0:0:
165,200,38820,2,0,B|114:184|114:184|65:203,1,105,2|0,0:0|0:0,0:0:0:0:
139,376,39214,2,0,B|177:340|177:340|185:288,2,105,2|8|0,0:0|0:0|0:0,0:0:0:0:
165,200,40001,1,0,0:0:0:0:
210,204,40132,1,0,0:0:0:0:
256,209,40263,1,0,0:0:0:0:
302,213,40394,1,0,0:0:0:0:
347,218,40526,6,0,B|398:206|398:206|431:165,1,105,2|0,3:2|0:0,0:0:0:0:
281,54,40920,2,0,B|265:104|265:104|285:153,1,105,2|0,0:0|0:0,0:0:0:0:
457,80,41314,2,0,B|422:42|422:42|370:33,2,105,2|8|0,0:0|0:0|0:0,0:0:0:0:
284,152,42101,2,0,P|227:148|181:127,1,105
82,116,42495,1,0,0:0:0:0:
82,116,42626,6,0,B|94:167|94:167|135:200,1,105,2|0,3:2|0:0,0:0:0:0:
246,50,43020,2,0,B|196:34|196:34|147:54,1,105,2|0,0:0|0:0,0:0:0:0:
220,226,43414,2,0,B|258:191|258:191|267:139,2,105,2|8|0,0:0|0:0|0:0,0:0:0:0:
128,349,44201,6,0,L|41:322,1,86.6250026435853,2|0,0:0|0:0,0:0:0:0:
35,359,44726,6,0,B|110:380|110:380|198:359,1,157.5,2|0,3:2|0:0,0:0:0:0:
291,268,45251,2,0,L|378:241,1,86.6250026435853,2|0,0:0|0:0,0:0:0:0:
384,278,45776,6,0,B|309:299|309:299|221:278,1,157.5,10|0,0:0|0:0,0:0:0:0:
128,187,46301,2,0,L|41:160,1,86.6250026435853,2|0,0:0|0:0,0:0:0:0:
35,197,46826,6,0,B|110:218|110:218|198:197,1,157.5,2|0,0:0|0:0,0:0:0:0:
291,106,47351,2,0,L|378:79,1,86.6250026435853,2|0,0:0|0:0,0:0:0:0:
384,116,47876,6,0,B|309:137|309:137|221:116,1,157.5,10|0,0:0|0:0,0:0:0:0:
128,25,48401,2,0,L|41:-2,1,86.6250026435853,2|0,0:0|0:0,0:0:0:0:
35,35,48926,6,0,B|110:56|110:56|198:35,1,157.5,2|0,0:0|0:0,0:0:0:0:
328,0,49451,2,0,L|305:92,1,86.6250026435853,2|0,0:0|0:0,0:0:0:0:
280,105,49976,6,0,L|291:266,1,157.5,10|0,0:0|0:0,0:0:0:0:
168,255,50501,2,0,L|191:347,1,86.6250026435853,2|0,0:0|0:0,0:0:0:0:
216,360,51026,6,0,L|192:21,1,336,2|8,0:0|0:0,0:0:0:0:
99,29,52338,1,0,0:0:0:0:
66,117,52601,2,0,L|62:142,4,21
203,35,53126,6,0,L|98:28,1,105,2|0,3:2|0:0,0:0:0:0:
292,124,53651,2,0,P|353:103|450:104,1,157.5,2|0,0:0|0:0,0:0:0:0:
474,90,54176,1,8,0:0:0:0:
418,191,54438,1,0,0:0:0:0:
487,283,54701,1,0,0:0:0:0:
495,168,54963,1,0,0:0:0:0:
342,216,55226,6,0,L|229:197,1,105,2|0,3:2|0:0,0:0:0:0:
123,184,55751,2,0,P|109:226|112:351,1,157.5
128,362,56276,1,8,0:0:0:0:
32,297,56538,1,0,0:0:0:0:
21,181,56801,2,0,L|23:152,4,26.25,2|0|0|0|0,0:0|0:0|0:0|0:0|0:0,0:0:0:0:
197,210,57326,6,0,L|316:200,1,105,2|0,3:2|0:0,0:0:0:0:
196,123,57851,2,0,P|148:128|44:186,1,157.5,2|0,0:0|0:0,0:0:0:0:
21,181,58376,1,8,0:0:0:0:
26,62,58638,1,0,0:0:0:0:
140,53,58901,1,0,0:0:0:0:
254,44,59163,1,0,0:0:0:0:
340,120,59426,6,0,L|336:230,1,105,2|0,3:2|0:0,0:0:0:0:
254,44,59951,2,0,P|324:15|413:13,1,157.5
434,24,60476,1,8,0:0:0:0:
484,127,60738,1,0,0:0:0:0:
438,233,61001,2,0,L|435:260,4,26.25,2|0|0|0|0,0:0|0:0|0:0|0:0|0:0,0:0:0:0:
349,323,61526,6,0,L|452:340,1,105,2|0,3:2|0:0,0:0:0:0:
293,250,62051,2,0,P|220:260|130:236,1,157.5,2|0,0:0|0:0,0:0:0:0:
124,213,62576,1,8,0:0:0:0:
25,272,62838,1,0,0:0:0:0:
6,157,63101,1,0,0:0:0:0:
49,50,63363,1,0,0:0:0:0:
155,3,63626,6,0,L|261:14,1,105,2|0,0:0|0:0,0:0:0:0:
374,28,64151,2,0,P|375:83|337:197,1,157.5
320,199,64676,1,8,0:0:0:0:
204,200,64938,1,0,0:0:0:0:
91,171,65201,2,0,L|89:132,4,26.25,2|0|0|0|0,0:0|0:0|0:0|0:0|0:0,0:0:0:0:
116,320,65726,6,0,L|243:328,1,105,2|0,0:0|0:0,0:0:0:0:
260,153,66251,2,0,P|190:188|112:194,1,157.5,2|0,0:0|0:0,0:0:0:0:
91,171,66776,1,8,0:0:0:0:
60,282,67038,1,0,0:0:0:0:
175,292,67301,1,0,0:0:0:0:
290,302,67563,1,0,0:0:0:0:
379,228,67826,6,0,L|387:102,1,105,2|0,0:0|0:0,0:0:0:0:
290,302,68351,2,0,P|362:331|441:336,1,157.5
467,318,68876,1,8,0:0:0:0:
488,205,69138,6,0,L|480:100,1,105,2|0,0:0|0:0,0:0:0:0:
487,205,69663,2,0,P|463:103|474:0,1,210,2|0,0:0|0:0,0:0:0:0:
474,0,70450,1,2,0:0:0:0:
25,205,70975,1,8,0:0:0:0:
24,205,71238,6,0,L|31:100,1,105,2|0,0:0|0:0,0:0:0:0:
25,205,71763,2,0,P|48:103|37:0,1,210,2|0,0:0|0:0,0:0:0:0:
36,0,72550,1,0,0:0:0:0:
372,350,73075,1,8,0:0:0:0:
372,350,73338,6,0,L|364:242,1,105,2|0,0:0|0:0,0:0:0:0:
371,350,73863,2,0,P|353:291|358:145,1,210,2|0,0:0|0:0,0:0:0:0:
358,144,74650,1,2,0:0:0:0:
140,350,75175,1,8,0:0:0:0:
140,350,75438,6,0,L|148:242,1,105,2|0,0:0|0:0,0:0:0:0:
141,350,75963,2,0,P|159:291|154:145,1,210,2|0,0:0|0:0,0:0:0:0:
153,144,76750,1,0,0:0:0:0:
380,26,77275,1,8,0:0:0:0:
380,26,77538,6,0,L|272:34,1,105,2|0,0:0|0:0,0:0:0:0:
380,27,78063,2,0,P|321:45|175:40,1,210,2|0,0:0|0:0,0:0:0:0:
174,39,78850,1,2,0:0:0:0:
380,358,79375,1,8,0:0:0:0:
380,358,79638,6,0,L|272:350,1,105,2|0,0:0|0:0,0:0:0:0:
380,357,80163,2,0,P|321:339|175:344,1,210,2|0,0:0|0:0,0:0:0:0:
174,344,80950,1,0,0:0:0:0:
256,192,81475,5,8,0:0:0:0:
256,192,82000,2,0,L|256:240,4,26.25,2|0|0|0|0,0:0|0:0|0:0|0:0|0:0,0:0:0:0:
256,192,82525,12,0,86725,0:0:0:0:
