osu file format v14

[General]
AudioFilename: audio.mp3
AudioLeadIn: 0
PreviewTime: 19003
Countdown: 1
SampleSet: Soft
StackLeniency: 0.7
Mode: 0
LetterboxInBreaks: 0
WidescreenStoryboard: 1

[Editor]
Bookmarks: 72025
DistanceSpacing: 1
BeatDivisor: 2
GridSize: 16
TimelineZoom: 1

[Metadata]
Title:I Don't Wanna Do This Anymore
TitleUnicode:I Don't Wanna Do This Anymore
Artist:XXXTENTACION
ArtistUnicode:XXXTENTACION
Creator:Mishima Yurara
Version:Foxy's Easy
Source:
Tags:Revenge foxygrandpa spaghetti vinxis
BeatmapID:1573190
BeatmapSetID:746419

[Difficulty]
HPDrainRate:3
CircleSize:3
OverallDifficulty:3
ApproachRate:3
SliderMultiplier:0.999999999999999
SliderTickRate:1

[Events]
//Background and Video events
0,0,"xxxxxxxxx.jpg",0,0
//Break Periods
//Storyboard Layer 0 (Background)
//Storyboard Layer 1 (Fail)
//Storyboard Layer 2 (Pass)
//Storyboard Layer 3 (Foreground)
//Storyboard Sound Samples

[TimingPoints]
1194,564.389500209996,4,2,1,60,1,0
19003,524.989500209996,4,2,1,40,1,0
19527,524.989500209996,4,2,1,60,1,0
83050,-100,4,2,1,53,0,0
83575,-100,4,2,1,46,0,0
84100,-100,4,2,1,39,0,0
84625,-100,4,2,1,33,0,0
85150,-100,4,2,1,26,0,0
85675,-100,4,2,1,19,0,0
86200,-100,4,2,1,12,0,0
86725,-100,4,2,1,5,0,0

[Colours]
Combo1 : 0,255,128
Combo2 : 0,128,128
Combo3 : 128,255,255
Combo4 : 0,64,128

[HitObjects]
134,90,1194,6,0,P|190:115|234:173,1,99.9999999999999,2|0,0:2|0:0,0:0:0:0:
130,190,2322,2,0,L|128:316,1,99.9999999999999,0|0,3:0|0:0,0:0:0:0:
215,242,3451,2,0,L|217:116,1,99.9999999999999,2|0,1:2|0:0,0:0:0:0:
217,42,4580,1,0,3:0:0:0:
298,99,5144,2,0,P|333:116|363:113,1,50,2|0,0:0|0:0,0:0:0:0:
393,112,5709,6,0,P|402:162|392:221,1,99.9999999999999,2|0,1:2|0:0,0:0:0:0:
303,249,6837,1,0,3:0:0:0:
224,188,7402,1,0,0:0:0:0:
214,289,7966,2,0,P|190:332|121:344,1,99.9999999999999,2|0,1:2|0:0,0:0:0:0:
50,313,9095,1,0,3:0:0:0:
66,214,9659,2,0,P|101:197|131:200,1,50,2|0,0:0|0:0,0:0:0:0:
161,204,10224,6,0,P|170:154|160:95,1,99.9999999999999,2|0,1:2|0:0,0:0:0:0:
63,115,11353,2,0,P|56:164|65:213,1,99.9999999999999,0|0,3:0|0:0,0:0:0:0:
127,291,12481,2,0,P|187:274|329:345,1,200,2|0,0:0|3:0,0:0:0:0:
407,294,14174,2,0,L|407:241,1,50,2|0,0:0|0:0,0:0:0:0:
381,200,14739,6,0,P|332:177|304:117,2,99.9999999999999,2|0|0,0:0|0:0|3:0,0:0:0:0:
401,101,16432,1,0,0:0:0:0:
319,42,16996,2,0,L|178:52,2,99.9999999999999,2|0|0,0:0|0:0|0:0,0:0:0:0:
319,42,19527,6,0,B|297:88|297:88|300:171,1,99.9999999999999,2|0,0:0|0:0,0:0:0:0:
369,207,20576,2,0,B|335:242|335:242|287:259,1,99.9999999999999,8|0,0:0|0:0,0:0:0:0:
189,234,21626,2,0,P|123:276|1:253,1,200,2|8,3:2|0:0,0:0:0:0:
20,160,23201,2,0,P|37:139|62:129,1,50,0|0,0:0|0:0,0:0:0:0:
108,136,23726,6,0,P|166:100|185:38,1,99.9999999999999,2|0,3:2|0:0,0:0:0:0:
245,0,24776,2,0,P|276:42|274:106,1,99.9999999999999,8|0,0:0|0:0,0:0:0:0:
217,167,25826,2,0,B|245:198|218:256|218:256|268:262|296:327,1,200,2|8,3:2|0:0,0:0:0:0:
198,353,27401,2,0,L|131:353,1,50,2|0,0:0|0:0,0:0:0:0:
97,353,27926,5,2,3:2:0:0:
87,253,28451,2,0,L|-5:284,2,50,2|0|10,0:0|0:0|0:0,0:0:0:0:
161,186,29501,2,0,L|205:219,2,50,2|0|2,0:0|0:0|0:0,0:0:0:0:
73,137,30551,2,0,L|29:170,2,50,2|0|10,0:0|0:0|0:0,0:0:0:0:
147,70,31601,2,0,L|191:103,1,50,2|0,0:0|0:0,0:0:0:0:
227,130,32126,5,2,0:0:0:0:
322,101,32651,2,0,L|381:75,2,50,2|0|10,0:0|0:0|0:0,0:0:0:0:
345,198,33701,2,0,L|408:188,2,50,2|0|2,0:0|0:0|0:0,0:0:0:0:
353,297,34751,2,0,L|417:303,2,50,2|0|8,0:0|0:0|0:0,0:0:0:0:
256,270,35801,2,0,P|254:300|243:325,1,50,0|0,0:0|0:0,0:0:0:0:
190,317,36326,6,0,B|167:268|167:268|166:206,1,99.9999999999999,2|0,3:2|0:0,0:0:0:0:
244,158,37376,1,8,0:0:0:0:
152,118,37901,1,0,0:0:0:0:
63,85,38426,2,0,P|62:145|167:222,1,200,2|8,3:2|0:0,0:0:0:0:
257,180,40001,2,0,P|276:201|302:212,1,50,0|0,0:0|0:0,0:0:0:0:
345,209,40526,6,0,P|314:230|276:301,1,99.9999999999999,2|0,3:2|0:0,0:0:0:0:
207,350,41576,2,0,P|182:306|142:277,1,99.9999999999999,8|0,0:0|0:0,0:0:0:0:
41,267,42626,2,0,B|3:224|15:178|15:178|72:142|61:57,1,200,2|8,3:2|0:0,0:0:0:0:
155,55,44201,2,0,L|159:120,1,50,2|0,0:0|0:0,0:0:0:0:
163,154,44726,5,2,3:2:0:0:
182,251,45251,2,0,L|138:284,2,50,2|0|10,0:0|0:0|0:0,0:0:0:0:
256,184,46301,2,0,L|300:217,2,50,2|0|2,0:0|0:0|0:0,0:0:0:0:
168,135,47351,2,0,L|124:168,2,50,2|0|10,0:0|0:0|0:0,0:0:0:0:
242,68,48401,2,0,L|286:101,1,50,2|0,0:0|0:0,0:0:0:0:
322,128,48926,5,2,0:0:0:0:
420,121,49451,2,0,L|479:95,2,50,2|0|10,0:0|0:0|0:0,0:0:0:0:
454,215,50501,2,0,L|517:205,2,50,2|0|2,0:0|0:0|0:0,0:0:0:0:
260,163,52076,2,0,P|257:138|259:113,2,50,8|0|0,0:0|0:0|0:0,0:0:0:0:
344,217,53126,6,0,P|388:194|407:148,1,99.9999999999999,2|2,3:2|0:0,0:0:0:0:
498,108,54176,2,0,L|503:207,1,99.9999999999999,8|0,0:0|0:0,0:0:0:0:
429,275,55226,2,0,L|435:388,1,99.9999999999999,2|0,3:2|0:0,0:0:0:0:
335,361,56276,2,0,P|289:342|243:358,1,99.9999999999999,8|2,0:0|0:0,0:0:0:0:
196,375,57063,1,0,0:0:0:0:
148,360,57326,6,0,P|115:302|104:241,1,99.9999999999999,2|2,3:2|0:0,0:0:0:0:
138,178,58376,2,0,L|264:183,1,99.9999999999999,8|0,0:0|0:0,0:0:0:0:
183,268,59426,2,0,L|57:273,1,99.9999999999999,2|0,3:2|0:0,0:0:0:0:
16,197,60476,1,8,0:0:0:0:
84,122,61001,2,0,P|115:91|120:68,1,50,2|0,0:0|0:0,0:0:0:0:
166,93,61526,6,0,B|215:107|215:107|292:78,1,99.9999999999999,2|2,3:2|0:0,0:0:0:0:
360,78,62576,2,0,B|312:164|416:206|360:287,1,200,8|2,0:0|0:0,0:0:0:0:
294,339,64151,1,2,0:0:0:0:
196,362,64676,1,8,0:0:0:0:
98,340,65201,2,0,P|82:302|83:281,1,50,2|0,0:0|0:0,0:0:0:0:
107,251,65726,6,0,P|130:212|205:182,1,99.9999999999999,2|2,0:0|0:0,0:0:0:0:
199,87,66776,2,0,P|284:103|336:87,1,99.9999999999999,8|0,0:0|0:0,0:0:0:0:
367,30,67826,2,0,P|414:14|464:15,1,99.9999999999999,2|0,0:0|0:0,0:0:0:0:
441,113,68876,1,8,0:0:0:0:
506,188,69401,2,0,L|507:258,1,50,0|2,0:0|0:0,0:0:0:0:
469,269,69925,6,0,P|397:266|363:229,1,99.9999999999999,0|2,0:0|0:0,0:0:0:0:
294,196,70975,1,8,0:0:0:0:
390,20,72025,2,0,P|438:73|436:123,1,99.9999999999999,0|0,0:0|0:0,0:0:0:0:
428,197,73075,1,8,0:0:0:0:
337,154,73600,2,2,P|310:147|281:148,1,50,0|2,0:0|0:0,0:0:0:0:
243,170,74125,6,0,P|175:166|132:137,1,99.9999999999999,0|2,0:0|0:0,0:0:0:0:
77,80,75175,1,8,0:0:0:0:
261,2,76225,2,0,P|251:65|219:99,1,99.9999999999999,0|0,0:0|0:0,0:0:0:0:
148,151,77275,1,8,0:0:0:0:
68,211,77800,2,2,P|87:238|109:250,1,50,0|2,0:0|0:0,0:0:0:0:
150,256,78325,6,0,P|208:260|248:284,1,99.9999999999999,0|2,0:0|0:0,0:0:0:0:
312,353,79375,1,8,0:0:0:0:
379,164,80425,2,0,P|336:139|286:134,1,99.9999999999999,0|0,0:0|0:0,0:0:0:0:
187,151,81475,1,8,0:0:0:0:
107,211,82000,2,0,P|80:206|54:190,1,50,2|0,0:0|0:0,0:0:0:0:
256,192,82525,12,0,86725,0:0:0:0:
