osu file format v14

[General]
AudioFilename: audio.mp3
AudioLeadIn: 0
PreviewTime: 29919
Countdown: 0
SampleSet: Soft
StackLeniency: 0.2
Mode: 0
LetterboxInBreaks: 0
WidescreenStoryboard: 1

[Editor]
DistanceSpacing: 1.5
BeatDivisor: 8
GridSize: 32
TimelineZoom: 2.999999

[Metadata]
Title:Hope
TitleUnicode:Hope
Artist:XXXTENTACION
ArtistUnicode:XXXTENTACION
Creator:Beige
Version:R.I.P
Source:
Tags:w_h_i_t_e hip hop mumble rap english
BeatmapID:2281378
BeatmapSetID:1091268

[Difficulty]
HPDrainRate:5.5
CircleSize:4
OverallDifficulty:8.5
ApproachRate:9
SliderMultiplier:3.44
SliderTickRate:1

[Events]
//Background and Video events
0,0,"bg.jpg",0,0
//Break Periods
//Storyboard Layer 0 (Background)
//Storyboard Layer 1 (Fail)
//Storyboard Layer 2 (Pass)
//Storyboard Layer 3 (Foreground)
//Storyboard Layer 4 (Overlay)
//Storyboard Sound Samples

[TimingPoints]
29920,410.958904109589,4,2,1,60,1,0
30330,-100,4,2,1,90,0,0
30433,-100,4,2,2,5,0,0
30485,-100,4,2,1,90,0,0
30639,-100,4,2,2,5,0,0
30690,-100,4,2,1,90,0,0
30896,-100,4,2,2,5,0,0
30947,-100,4,2,1,90,0,0
31050,-100,4,2,2,5,0,0
31101,-100,4,2,1,90,0,0
31255,-100,4,2,2,5,0,0
31306,-100,4,2,1,90,0,0
31461,-100,4,2,2,5,0,0
31512,-100,4,2,1,90,0,0
31717,-100,4,2,2,5,0,0
31769,-100,4,2,1,40,0,0
31872,-100,4,2,2,5,0,0
31923,-100,4,2,1,90,0,0
32077,-100,4,2,2,5,0,0
32128,-100,4,2,1,90,0,0
32283,-100,4,2,2,5,0,0
32334,-100,4,2,1,90,0,0
32488,-100,4,2,2,5,0,0
32539,-100,4,2,1,90,0,0
32693,-100,4,2,2,5,0,0
32745,-100,4,2,1,90,0,0
33207,-66.6666666666667,4,2,1,90,0,0
33515,-66.6666666666667,4,2,2,5,0,0
33618,-100,4,2,1,90,0,0
33721,-100,4,2,2,5,0,0
33772,-100,4,2,1,90,0,0
33926,-100,4,2,2,5,0,0
33978,-100,4,2,1,90,0,0
34132,-100,4,2,2,5,0,0
34183,-100,4,2,1,90,0,0
34337,-100,4,2,2,5,0,0
34389,-100,4,2,1,90,0,0
34543,-100,4,2,2,5,0,0
34594,-100,4,2,1,90,0,0
34748,-100,4,2,2,5,0,0
34800,-100,4,2,1,90,0,0
35365,-100,4,2,2,5,0,0
35416,-100,4,2,1,90,0,0
35570,-100,4,2,2,5,0,0
35622,-100,4,2,1,90,0,0
35776,-100,4,2,2,5,0,0
35827,-100,4,2,1,90,0,0
35981,-100,4,2,2,5,0,0
36033,-100,4,2,1,90,0,0
37009,-100,4,2,2,5,0,0
37060,-100,4,2,1,90,0,0
37214,-100,4,2,2,5,0,0
37265,-100,4,2,1,90,0,0
37471,-100,4,2,2,5,0,0
37522,-100,4,2,1,90,0,0
37625,-100,4,2,2,5,0,0
37676,-100,4,2,1,90,0,0
37830,-100,4,2,2,5,0,0
37882,-100,4,2,1,90,0,0
38036,-100,4,2,2,5,0,0
38087,-100,4,2,1,90,0,0
38293,-100,4,2,2,5,0,0
38344,-100,4,2,1,90,0,0
38447,-100,4,2,2,5,0,0
38498,-100,4,2,1,90,0,0
38652,-100,4,2,2,5,0,0
38704,-100,4,2,1,90,0,0
38858,-100,4,2,2,5,0,0
38909,-100,4,2,1,90,0,0
39063,-100,4,2,2,5,0,0
39115,-100,4,2,1,90,0,0
39269,-100,4,2,2,5,0,0
39320,-100,4,2,1,90,0,0
39783,-66.6666666666667,4,2,1,90,0,0
40091,-100,4,2,2,5,0,0
40193,-100,4,2,1,90,0,0
40296,-100,4,2,2,5,0,0
40348,-100,4,2,1,90,0,0
40502,-100,4,2,2,5,0,0
40553,-100,4,2,1,90,0,0
40707,-100,4,2,2,5,0,0
40759,-100,4,2,1,90,0,0
40913,-100,4,2,2,5,0,0
40964,-100,4,2,1,90,0,0
41169,-100,4,2,2,5,0,0
41221,-100,4,2,1,90,0,0
41324,-100,4,2,2,5,0,0
41375,-100,4,2,1,90,0,0
41940,-100,4,2,2,5,0,0
41991,-100,4,2,1,90,0,0
42146,-100,4,2,2,5,0,0
42197,-100,4,2,1,90,0,0
42351,-100,4,2,2,5,0,0
42402,-100,4,2,1,90,0,0
42556,-100,4,2,2,5,0,0
42608,-125,4,2,1,90,0,0
42762,-125,4,2,2,5,0,0
42813,-125,4,2,1,60,0,0
42967,-125,4,2,2,5,0,0
43019,-125,4,2,1,60,0,0
43173,-125,4,2,2,5,0,0
43224,-125,4,2,1,60,0,0
43378,-125,4,2,2,5,0,0
43430,-66.6666666666667,4,2,1,90,0,0
43789,-100,4,2,2,5,0,0
43841,-125,4,2,1,90,0,0
44200,-100,4,2,2,5,0,0
44252,-100,4,2,1,90,0,0
44406,-100,4,2,2,5,0,0
44457,-100,4,2,1,90,0,0
44611,-100,4,2,2,5,0,0
44663,-100,4,2,1,90,0,0
44817,-100,4,2,2,5,0,0
44868,-100,4,2,1,90,0,0
45022,-100,4,2,2,5,0,0
45074,-66.6666666666667,4,2,1,90,0,0
45433,-100,4,2,2,5,0,0
45485,-125,4,2,1,90,0,0
45844,-100,4,2,2,5,0,0
45896,-100,4,2,1,90,0,0
46050,-100,4,2,2,5,0,0
46101,-100,4,2,1,90,0,0
46255,-100,4,2,2,5,0,0
46306,-100,4,2,1,90,0,0
46461,-100,4,2,2,5,0,0
46512,-100,4,2,1,90,0,0
46666,-100,4,2,2,5,0,0
46717,-66.6666666666667,4,2,1,90,0,0
47077,-100,4,2,2,5,0,0
47128,-125,4,2,1,90,0,0
47488,-100,4,2,2,5,0,0
47539,-100,4,2,1,90,0,0
47693,-100,4,2,2,5,0,0
47745,-100,4,2,1,90,0,0
47899,-100,4,2,2,5,0,0
47950,-100,4,2,1,90,0,0
48104,-100,4,2,2,5,0,0
48156,-100,4,2,1,90,0,0
48310,-100,4,2,2,5,0,0
48361,-66.6666666666667,4,2,1,90,0,0
48721,-100,4,2,2,5,0,0
48824,-90.9090909090909,4,2,1,90,0,0
49029,-100,4,2,2,5,0,0
49080,-125,4,2,1,60,0,0
49337,-125,4,2,2,5,0,0
49389,-125,4,2,1,60,0,0
49543,-125,4,2,2,5,0,0
49594,-125,4,2,1,60,0,0
49748,-100,4,2,2,5,0,0
49800,-100,4,2,1,90,0,0
50159,-100,4,2,2,5,0,0
50211,-100,4,2,1,90,0,0
50365,-100,4,2,2,5,0,0
50416,-100,4,2,1,90,0,0
50570,-100,4,2,2,5,0,0
50622,-100,4,2,1,90,0,0
50981,-100,4,2,2,5,0,0
51033,-100,4,2,1,90,0,0
51187,-100,4,2,2,5,0,0
51238,-100,4,2,1,90,0,0
51392,-100,4,2,2,5,0,0
51443,-100,4,2,1,90,0,0
51598,-100,4,2,2,5,0,0
51649,-100,4,2,1,90,0,0
51803,-100,4,2,2,5,0,0
51854,-100,4,2,1,90,0,0
52009,-100,4,2,2,5,0,0
52060,-100,4,2,1,90,0,0
52214,-100,4,2,2,5,0,0
52265,-100,4,2,1,90,0,0
52676,-100,4,2,2,5,0,0
52728,-100,4,2,1,90,0,0
52830,-100,4,2,2,5,0,0
52882,-100,4,2,1,90,0,0
53036,-100,4,2,2,5,0,0
53087,-100,4,2,1,90,0,0
53241,-100,4,2,2,5,0,0
53293,-100,4,2,1,90,0,0
53447,-100,4,2,2,5,0,0
53498,-100,4,2,1,90,0,0
53652,-100,4,2,2,5,0,0
53704,-100,4,2,1,90,0,0
53858,-100,4,2,2,5,0,0
53909,-100,4,2,1,90,0,0
54269,-100,4,2,2,5,0,0
54320,-100,4,2,1,90,0,0
54474,-100,4,2,2,5,0,0
54526,-100,4,2,1,90,0,0
54680,-100,4,2,2,5,0,0
54731,-100,4,2,1,90,0,0
54885,-100,4,2,2,5,0,0
54937,-100,4,2,1,90,0,0
55091,-100,4,2,2,5,0,0
55142,-100,4,2,1,90,0,0
55296,-100,4,2,2,5,0,0
55348,-100,4,2,1,90,0,0
55502,-100,4,2,2,5,0,0
55553,-100,4,2,1,90,0,0
55707,-100,4,2,2,5,0,0
55759,-100,4,2,1,90,0,0
56632,-250,4,2,2,60,0,0
61974,-250,4,2,3,60,0,0
62077,-250,4,2,2,60,0,0
68550,-250,4,2,3,60,0,0
68652,-250,4,2,2,60,0,0
82522,-100,4,2,1,60,0,0
82933,-100,4,2,1,90,0,0
83036,-100,4,2,2,5,0,0
83088,-100,4,2,1,90,0,0
83242,-100,4,2,2,5,0,0
83293,-100,4,2,1,90,0,0
83499,-100,4,2,2,5,0,0
83550,-100,4,2,1,90,0,0
83653,-100,4,2,2,5,0,0
83704,-100,4,2,1,90,0,0
83858,-100,4,2,2,5,0,0
83909,-100,4,2,1,90,0,0
84064,-100,4,2,2,5,0,0
84115,-100,4,2,1,90,0,0
84320,-100,4,2,2,5,0,0
84372,-100,4,2,1,90,0,0
84475,-100,4,2,2,5,0,0
84526,-100,4,2,1,90,0,0
84680,-100,4,2,2,5,0,0
84731,-100,4,2,1,90,0,0
84886,-100,4,2,2,5,0,0
84937,-100,4,2,1,90,0,0
85091,-100,4,2,2,5,0,0
85142,-100,4,2,1,90,0,0
85296,-100,4,2,2,5,0,0
85348,-100,4,2,1,90,0,0
85810,-66.6666666666667,4,2,1,90,0,0
86118,-66.6666666666667,4,2,2,5,0,0
86221,-100,4,2,1,90,0,0
86324,-100,4,2,2,5,0,0
86375,-100,4,2,1,90,0,0
86529,-100,4,2,2,5,0,0
86581,-100,4,2,1,90,0,0
86735,-100,4,2,2,5,0,0
86786,-100,4,2,1,90,0,0
86940,-100,4,2,2,5,0,0
86992,-100,4,2,1,90,0,0
87146,-100,4,2,2,5,0,0
87197,-100,4,2,1,90,0,0
87351,-100,4,2,2,5,0,0
87403,-100,4,2,1,90,0,0
87968,-100,4,2,2,5,0,0
88019,-100,4,2,1,90,0,0
88173,-100,4,2,2,5,0,0
88225,-100,4,2,1,90,0,0
88379,-100,4,2,2,5,0,0
88430,-100,4,2,1,90,0,0
88584,-100,4,2,2,5,0,0
88636,-100,4,2,1,90,0,0
89612,-100,4,2,2,5,0,0
89663,-100,4,2,1,90,0,0
89817,-100,4,2,2,5,0,0
89868,-100,4,2,1,90,0,0
90074,-100,4,2,2,5,0,0
90125,-100,4,2,1,90,0,0
90228,-100,4,2,2,5,0,0
90279,-100,4,2,1,90,0,0
90433,-100,4,2,2,5,0,0
90485,-100,4,2,1,90,0,0
90639,-100,4,2,2,5,0,0
90690,-100,4,2,1,90,0,0
90896,-100,4,2,2,5,0,0
90947,-100,4,2,1,90,0,0
91050,-100,4,2,2,5,0,0
91101,-100,4,2,1,90,0,0
91255,-100,4,2,2,5,0,0
91307,-100,4,2,1,90,0,0
91461,-100,4,2,2,5,0,0
91512,-100,4,2,1,90,0,0
91666,-100,4,2,2,5,0,0
91718,-100,4,2,1,90,0,0
91872,-100,4,2,2,5,0,0
91923,-100,4,2,1,90,0,0
92385,-66.6666666666667,4,2,1,90,0,0
92694,-100,4,2,2,5,0,0
92796,-100,4,2,1,90,0,0
92899,-100,4,2,2,5,0,0
92951,-100,4,2,1,90,0,0
93105,-100,4,2,2,5,0,0
93156,-100,4,2,1,90,0,0
93310,-100,4,2,2,5,0,0
93362,-100,4,2,1,90,0,0
93516,-100,4,2,2,5,0,0
93567,-100,4,2,1,90,0,0
93772,-100,4,2,2,5,0,0
93824,-100,4,2,1,90,0,0
93927,-100,4,2,2,5,0,0
93978,-100,4,2,1,90,0,0
94543,-100,4,2,2,5,0,0
94594,-100,4,2,1,90,0,0
94749,-100,4,2,2,5,0,0
94800,-100,4,2,1,90,0,0
94954,-100,4,2,2,5,0,0
95005,-100,4,2,1,90,0,0
95159,-100,4,2,2,5,0,0
95211,-125,4,2,1,90,0,0
95365,-125,4,2,2,5,0,0
95416,-125,4,2,1,60,0,0
95570,-125,4,2,2,5,0,0
95622,-125,4,2,1,60,0,0
95776,-125,4,2,2,5,0,0
95827,-125,4,2,1,60,0,0
95981,-125,4,2,2,5,0,0
96033,-66.6666666666667,4,2,1,90,0,0
96392,-100,4,2,2,5,0,0
96444,-125,4,2,1,90,0,0
96803,-100,4,2,2,5,0,0
96855,-100,4,2,1,90,0,0
97009,-100,4,2,2,5,0,0
97060,-100,4,2,1,90,0,0
97214,-100,4,2,2,5,0,0
97266,-100,4,2,1,90,0,0
97420,-100,4,2,2,5,0,0
97471,-100,4,2,1,90,0,0
97625,-100,4,2,2,5,0,0
97677,-66.6666666666667,4,2,1,90,0,0
98036,-100,4,2,2,5,0,0
98088,-125,4,2,1,90,0,0
98447,-100,4,2,2,5,0,0
98499,-100,4,2,1,90,0,0
98653,-100,4,2,2,5,0,0
98704,-100,4,2,1,90,0,0
98858,-100,4,2,2,5,0,0
98909,-100,4,2,1,90,0,0
99064,-100,4,2,2,5,0,0
99115,-100,4,2,1,90,0,0
99269,-100,4,2,2,5,0,0
99320,-66.6666666666667,4,2,1,90,0,0
99680,-100,4,2,2,5,0,0
99731,-125,4,2,1,90,0,0
100091,-100,4,2,2,5,0,0
100142,-100,4,2,1,90,0,0
100296,-100,4,2,2,5,0,0
100348,-100,4,2,1,90,0,0
100502,-100,4,2,2,5,0,0
100553,-100,4,2,1,90,0,0
100707,-100,4,2,2,5,0,0
100759,-100,4,2,1,90,0,0
100913,-100,4,2,2,5,0,0
100964,-66.6666666666667,4,2,1,90,0,0
101324,-100,4,2,2,5,0,0
101427,-100,4,2,1,90,0,0
101632,-100,4,2,2,5,0,0
101683,-125,4,2,1,60,0,0
101940,-125,4,2,2,5,0,0
101992,-125,4,2,1,60,0,0
102146,-125,4,2,2,5,0,0
102197,-125,4,2,1,60,0,0
102351,-100,4,2,2,5,0,0
102403,-100,4,2,1,90,0,0
102762,-100,4,2,2,5,0,0
102814,-100,4,2,1,90,0,0
102968,-100,4,2,2,5,0,0
103019,-100,4,2,1,90,0,0
103173,-100,4,2,2,5,0,0
103225,-100,4,2,1,90,0,0
103584,-100,4,2,2,5,0,0
103636,-100,4,2,1,90,0,0
103790,-100,4,2,2,5,0,0
103841,-100,4,2,1,90,0,0
103995,-100,4,2,2,5,0,0
104046,-100,4,2,1,90,0,0
104201,-100,4,2,2,5,0,0
104252,-100,4,2,1,90,0,0
104406,-100,4,2,2,5,0,0
104457,-100,4,2,1,90,0,0
104612,-100,4,2,2,5,0,0
104663,-100,4,2,1,90,0,0
104817,-100,4,2,2,5,0,0
104868,-100,4,2,1,90,0,0
105279,-100,4,2,2,5,0,0
105331,-100,4,2,1,90,0,0
105433,-100,4,2,2,5,0,0
105485,-100,4,2,1,90,0,0
105639,-100,4,2,2,5,0,0
105690,-100,4,2,1,90,0,0
105844,-100,4,2,2,5,0,0
105896,-100,4,2,1,90,0,0
106050,-100,4,2,2,5,0,0
106101,-100,4,2,1,90,0,0
106255,-100,4,2,2,5,0,0
106307,-100,4,2,1,90,0,0
106461,-100,4,2,2,5,0,0
106512,-100,4,2,1,90,0,0
106872,-100,4,2,2,5,0,0
106923,-100,4,2,1,90,0,0
107077,-100,4,2,2,5,0,0
107129,-100,4,2,1,90,0,0
107283,-100,4,2,2,5,0,0
107334,-100,4,2,1,90,0,0
107488,-100,4,2,2,5,0,0
107540,-100,4,2,1,90,0,0
107694,-100,4,2,2,5,0,0
107745,-100,4,2,1,90,0,0
107899,-100,4,2,2,5,0,0
107951,-100,4,2,1,90,0,0
108105,-100,4,2,2,5,0,0
108156,-100,4,2,1,90,0,0
108310,-100,4,2,2,5,0,0
108362,-100,4,2,1,90,0,0
109337,-100,4,2,1,75,0,0
109646,-100,4,2,1,50,0,0
110056,-100,4,2,1,25,0,0
110467,-100,4,2,2,5,0,0

[Colours]
Combo1 : 210,165,248
Combo2 : 255,132,132
Combo3 : 255,247,142
Combo4 : 125,233,255
Combo5 : 208,206,219
Combo6 : 164,154,184

[HitObjects]
296,240,29919,5,0,0:0:0:0:
376,248,30125,1,0,0:0:0:0:
344,176,30330,6,0,P|304:160|240:184,1,86,0|0,1:0|0:0,0:0:0:0:
248,305,30536,2,0,P|288:321|352:297,1,86,0|0,0:0|0:0,0:0:0:0:
375,106,30741,2,0,P|319:85|227:101,1,129,2|0,0:0|0:0,0:0:0:0:
251,90,30947,2,0,L|167:78,1,86
83,131,31152,6,0,P|66:82|77:40,1,86,8|0,0:0|0:0,0:0:0:0:
86,227,31358,2,0,P|35:217|4:186,1,86,0|0,0:0|0:0,0:0:0:0:
184,251,31563,2,0,P|152:309|78:332,1,129,2|0,0:0|0:0,0:0:0:0:
96,332,31769,2,0,L|181:319,1,86,0|0,0:0|0:0,0:0:0:0:
448,256,31974,38,0,L|362:243,1,86
264,344,32180,2,0,L|350:331,1,86,8|0,0:0|0:0,0:0:0:0:
509,124,32385,2,0,L|423:111,1,86,2|0,1:2|0:0,0:0:0:0:
203,212,32591,2,0,L|289:199,1,86,0|0,0:0|0:0,0:0:0:0:
312,54,32796,2,0,L|142:80,1,172,8|0,0:0|0:0,0:0:0:0:
142,80,33207,6,0,P|113:160|105:32,1,387.000014762879,2|0,0:0|0:0,0:0:0:0:
69,98,33618,6,0,L|50:187,1,86,0|0,1:0|0:0,0:0:0:0:
156,356,33824,2,0,P|164:313|149:270,1,86,0|0,0:0|0:0,0:0:0:0:
0,240,34029,2,0,L|19:329,1,86,2|0,0:0|0:0,0:0:0:0:
220,228,34235,2,0,P|186:199|142:191,1,86,0|0,0:0|0:0,0:0:0:0:
369,318,34440,6,0,P|410:308|442:280,1,86,8|0,0:0|0:0,0:0:0:0:
320,234,34646,2,0,P|332:193|324:151,1,86,0|0,0:0|0:0,0:0:0:0:
220,228,34851,2,0,B|194:190|146:192|146:192|124:232|151:273,1,172,2|0,0:0|0:0,0:0:0:0:
151,273,35262,38,0,L|133:357,1,86
255,113,35467,2,0,L|272:28,1,86,8|0,0:0|0:0,0:0:0:0:
283,245,35673,2,0,L|367:262,1,86,2|0,1:2|0:0,0:0:0:0:
123,141,35878,2,0,L|38:123,1,86,0|0,0:0|0:0,0:0:0:0:
255,113,36084,2,0,L|447:61,1,172,8|0,0:0|0:0,0:0:0:0:
421,68,36495,5,8,0:0:0:0:
459,208,36632,1,8,0:0:0:0:
318,170,36769,1,8,0:0:0:0:
401,148,36906,6,0,L|499:121,1,86,0|0,1:0|0:0,0:0:0:0:
296,252,37111,2,0,B|265:259|265:259|212:244,1,86,0|0,0:0|0:0,0:0:0:0:
108,124,37317,2,0,L|235:158,1,129,2|0,0:0|0:0,0:0:0:0:
232,157,37522,2,0,P|187:159|151:179,1,86,0|0,0:0|0:0,0:0:0:0:
360,316,37728,6,0,P|380:276|380:235,1,86,8|0,0:0|0:0,0:0:0:0:
184,364,37933,2,0,L|282:337,1,86,0|0,0:0|0:0,0:0:0:0:
124,264,38139,2,0,L|-3:229,1,129,2|0,0:0|0:0,0:0:0:0:
0,231,38344,2,0,P|44:228|80:208,1,86,0|0,0:0|0:0,0:0:0:0:
172,56,38550,38,0,P|134:35|91:32,1,86
292,92,38755,2,0,P|279:51|251:19,1,86,8|0,0:0|0:0,0:0:0:0:
351,202,38961,2,0,P|371:164|374:121,1,86,2|0,1:2|0:0,0:0:0:0:
314,321,39166,2,0,P|354:308|386:280,1,86,0|0,0:0|0:0,0:0:0:0:
236,188,39372,2,0,P|168:168|80:208,1,172,8|0,0:0|0:0,0:0:0:0:
80,209,39783,6,0,B|121:161|189:158|237:188|237:188|241:263|172:302|109:275|122:244|164:230|197:249,1,387.000014762879,2|0,0:0|0:0,0:0:0:0:
262,307,40193,6,0,P|218:336|180:346,1,86,0|0,1:0|0:0,0:0:0:0:
13,260,40399,2,0,P|0:208|4:169,1,86
226,102,40604,2,0,P|237:144|236:187,1,86,2|0,0:0|0:0,0:0:0:0:
66,67,40810,2,0,P|107:55|150:57,1,86
390,53,41015,6,0,P|331:57|255:9,1,129,8|0,0:0|0:0,0:0:0:0:
270,26,41221,2,0,P|306:64|318:103,1,86,0|0,0:0|0:0,0:0:0:0:
305,334,41426,2,0,P|283:229|315:178,1,172,2|0,0:0|0:0,0:0:0:0:
315,178,41837,38,0,P|289:212|279:254,1,86
389,138,42043,2,0,P|432:143|473:132,1,86,8|0,0:0|0:0,0:0:0:0:
316,95,42248,2,0,P|300:55|270:26,1,86,2|0,1:2|0:0,0:0:0:0:
140,160,42454,2,0,L|160:281,1,86,8|0,0:0|0:0,0:0:0:0:
224,372,42659,54,0,L|212:304,1,68.8,8|0,0:0|0:0,0:0:0:0:
352,316,42865,2,0,L|363:248,1,68.8,0|0,0:0|0:0,0:0:0:0:
154,244,43070,2,0,L|140:160,1,68.8,0|0,0:0|0:0,0:0:0:0:
376,172,43275,2,0,L|390:87,1,68.8,0|0,0:0|0:0,0:0:0:0:
232,104,43481,38,0,B|497:59|497:59|388:104,1,387.000014762879,0|0,1:0|0:0,0:0:0:0:
296,165,43892,6,0,L|92:130,1,206.4,2|0,0:0|0:0,0:0:0:0:
25,176,44303,6,0,P|11:133|23:88,1,86,8|0,0:0|0:0,0:0:0:0:
206,195,44509,2,0,P|220:238|208:283,1,86,0|0,0:0|0:0,0:0:0:0:
86,50,44714,38,0,P|116:16|161:4,1,86,2|0,0:0|0:0,0:0:0:0:
145,321,44920,2,0,P|114:354|69:366,1,86,0|0,0:0|0:0,0:0:0:0:
206,195,45125,6,0,B|255:157|320:162|362:185|357:195|352:206|394:228|479:243|505:168|461:110|387:126|384:197,1,387.000014762879
320,287,45536,6,0,P|253:264|315:271,1,206.4,2|0,1:2|0:0,0:0:0:0:
399,299,45947,6,0,P|439:302|487:297,1,86,8|0,0:0|0:0,0:0:0:0:
319,98,46152,2,0,P|279:95|231:100,1,86,0|0,0:0|0:0,0:0:0:0:
166,315,46358,38,0,P|208:317|251:313,1,86,2|0,0:0|0:0,0:0:0:0:
113,179,46563,2,0,P|70:176|27:180,1,86,0|0,0:0|0:0,0:0:0:0:
319,98,46769,6,0,B|364:-11|364:-11|319:254,1,387.000014762879,0|0,1:0|0:0,0:0:0:0:
249,208,47180,6,0,P|334:174|402:257,1,206.4,2|0,0:0|0:0,0:0:0:0:
365,325,47591,6,0,L|268:339,1,86,8|0,0:0|0:0,0:0:0:0:
5,253,47796,2,0,L|90:265,1,86,0|0,0:0|0:0,0:0:0:0:
319,254,48002,38,0,L|222:268,1,86,2|0,0:0|0:0,0:0:0:0:
51,182,48207,2,0,L|148:196,1,86
401,88,48413,6,0,B|338:99|290:68|264:5|264:5|307:77|287:153|219:185,1,387.000014762879
147,100,48824,6,0,P|183:109|139:85,1,189.200005773926,2|0,1:2|0:0,0:0:0:0:
139,80,49235,38,0,P|154:40|185:9,1,68.8
242,50,49441,2,0,P|280:33|323:33,1,68.8
335,101,49646,2,0,P|373:115|404:146,1,68.8,2|0,0:0|0:0,0:0:0:0:
394,133,50056,54,0,P|407:173|403:216,1,86,0|0,1:0|0:0,0:0:0:0:
324,261,50262,2,0,P|304:298|271:326,1,86,0|0,0:0|0:0,0:0:0:0:
181,303,50467,2,0,P|141:316|97:312,1,86,2|0,0:0|0:0,0:0:0:0:
98,312,50878,38,0,L|72:209,1,86,8|0,0:0|0:0,0:0:0:0:
267,153,51084,2,0,L|245:236,1,86
16,120,51289,38,0,L|-6:37,1,86,2|0,0:0|0:0,0:0:0:0:
184,112,51495,2,0,L|163:196,1,86
209,328,51700,38,0,P|252:332|293:319,1,86
472,356,51906,2,0,P|454:317|422:288,1,86,8|0,0:0|0:0,0:0:0:0:
366,115,52111,2,0,P|341:149|332:191,1,86,2|0,1:2|0:0,0:0:0:0:
332,192,52522,38,0,P|352:132|405:96,1,129,8|0,0:0|0:0,0:0:0:0:
404,96,52728,2,0,B|366:111|366:111|323:101,1,86,0|0,0:0|0:0,0:0:0:0:
296,266,52933,2,0,B|302:225|302:225|332:193,1,86,2|0,0:0|0:0,0:0:0:0:
203,87,53139,2,0,B|235:112|235:112|247:155,1,86,0|0,0:0|0:0,0:0:0:0:
176,316,53344,38,0,L|92:300,1,86,0|0,1:0|0:0,0:0:0:0:
373,259,53550,2,0,L|457:243,1,86
140,140,53755,2,0,L|56:124,1,86,2|0,0:0|0:0,0:0:0:0:
56,124,54166,38,0,P|36:160|40:204,1,86,8|0,0:0|0:0,0:0:0:0:
188,320,54372,2,0,P|192:277|171:240,1,86,0|0,0:0|0:0,0:0:0:0:
340,240,54577,38,0,P|319:277|324:320,1,86,2|0,0:0|0:0,0:0:0:0:
472,203,54783,2,0,P|476:161|456:124,1,86,0|0,0:0|0:0,0:0:0:0:
252,68,54988,38,0,B|212:60|192:92|192:92|208:88,1,86
272,164,55193,2,0,B|238:186|246:223|246:223|255:209,1,86,8|0,0:0|0:0,0:0:0:0:
340,240,55399,2,0,B|332:280|364:300|364:300|360:284,1,86,2|0,1:2|0:0,0:0:0:0:
188,320,55604,38,0,B|196:360|164:380|164:380|168:364,1,86,8|0,0:0|0:0,0:0:0:0:
39,203,55810,2,0,B|22:158|56:102|97:87|97:87|86:118,1,172,8|0,0:0|0:0,0:0:0:0:
87,115,56221,5,8,0:0:0:0:
0,290,56358,1,8,0:0:0:0:
190,288,56495,1,8,0:0:0:0:
107,266,56632,38,0,P|237:360|196:202,1,412.8,0|0,1:0|0:0,0:0:0:0:
205,203,58276,2,0,L|347:190,1,137.6,2|0,0:0|1:0,0:0:0:0:
388,267,58892,2,0,P|427:215|347:100,1,206.4,0|2,0:0|0:0,0:0:0:0:
168,60,59919,6,0,L|80:50,1,68.8,0|0,1:0|0:0,0:0:0:0:
236,104,60330,2,0,B|278:135|334:131|370:112|365:104|361:94|397:74|452:70|494:104,1,275.2,2|0,0:0|0:0,0:0:0:0:
494,104,61563,2,0,L|470:308,2,206.4,2|0|2,0:0|0:0|0:0,0:0:0:0:
342,192,63207,70,0,P|203:231|56:32,1,412.8,0|0,1:0|0:0,0:0:0:0:
55,43,64851,2,0,L|197:30,1,137.6,2|0,0:0|1:0,0:0:0:0:
253,96,65467,2,0,P|356:120|420:55,1,206.4,0|2,0:0|0:0,0:0:0:0:
480,224,66495,6,0,L|380:232,1,68.8,0|0,1:0|0:0,0:0:0:0:
236,280,66906,2,0,B|332:272|332:272|404:312|404:312|500:304,1,275.2,2|0,0:0|0:0,0:0:0:0:
200,364,68139,2,0,P|148:308|264:192,1,275.2,2|0,0:0|0:0,0:0:0:0:
258,190,69783,70,0,B|434:147|434:147|338:143,2,275.2,2|0|2,1:2|0:0|0:0,0:0:0:0:
235,279,71837,2,0,P|163:177|257:95,1,275.2,0|0,1:0|0:0,0:0:0:0:
434,147,73070,6,0,L|34:30,1,412.8,0|0,1:0|0:0,0:0:0:0:
164,178,74714,2,0,P|180:239|153:307,1,137.6,2|0,0:0|1:0,0:0:0:0:
63,353,75330,2,0,P|123:314|271:344,1,206.4,0|2,0:0|0:0,0:0:0:0:
464,213,76358,70,0,P|375:221|281:58,1,275.2,0|2,1:0|0:0,0:0:0:0:
276,82,78002,2,0,P|316:131|334:203,1,137.6,2|0,0:0|1:0,0:0:0:0:
318,332,78618,2,0,L|92:318,1,206.4,0|2,0:0|0:0,0:0:0:0:
22,149,79646,6,0,B|50:99|118:85|169:125|178:176|178:176|188:233|247:269|308:248|334:203,1,412.8,0|0,1:0|0:0,0:0:0:0:
263,160,81289,1,2,0:0:0:0:
263,160,82522,21,0,0:0:0:0:
178,176,82728,1,0,0:0:0:0:
93,192,82933,6,0,L|105:277,1,86,0|0,1:0|0:0,0:0:0:0:
206,94,83139,2,0,L|218:9,1,86
279,245,83344,2,0,L|298:383,1,129,2|0,0:0|0:0,0:0:0:0:
297,372,83550,2,0,P|345:349|391:352,1,86
500,238,83755,6,0,P|457:235|420:213,1,86,8|0,0:0|0:0,0:0:0:0:
292,105,83961,2,0,P|329:83|371:81,1,86
342,196,84166,2,0,P|265:204|196:165,1,129,2|0,0:0|0:0,0:0:0:0:
218,184,84372,2,0,L|230:269,1,86,0|0,0:0|0:0,0:0:0:0:
15,101,84577,38,0,L|27:16,1,86
125,121,84783,2,0,L|162:43,1,86,8|0,0:0|0:0,0:0:0:0:
218,184,84988,2,0,L|277:122,1,86,2|0,1:2|0:0,0:0:0:0:
286,272,85193,2,0,L|361:231,1,86,0|0,0:0|0:0,0:0:0:0:
323,376,85399,2,0,L|492:346,1,172,8|0,0:0|0:0,0:0:0:0:
492,346,85810,6,0,B|323:377|323:377|251:389|215:349|235:301|279:289|315:317|304:369,1,387.000014762879,2|0,0:0|0:0,0:0:0:0:
168,348,86221,6,0,P|125:351|85:335,1,86,0|0,1:0|0:0,0:0:0:0:
216,256,86426,2,0,P|256:240|300:244,1,86,0|0,0:0|0:0,0:0:0:0:
20,280,86632,2,0,L|8:195,1,86,2|0,0:0|0:0,0:0:0:0:
168,4,86837,2,0,L|156:89,1,86
112,184,87043,6,0,B|143:191|143:191|196:176,1,86,8|0,0:0|0:0,0:0:0:0:
340,88,87248,2,0,B|309:81|309:81|256:96,1,86,0|0,0:0|0:0,0:0:0:0:
298,243,87454,2,0,B|360:257|360:257|466:227,1,172,2|0,0:0|0:0,0:0:0:0:
464,227,87865,38,0,P|444:264|448:308,1,86
222,91,88070,2,0,P|260:73|282:37,1,86,8|0,0:0|0:0,0:0:0:0:
339,343,88276,2,0,P|298:336|259:352,1,86,2|0,1:2|0:0,0:0:0:0:
392,70,88481,2,0,P|420:100|462:110,1,86,0|0,0:0|0:0,0:0:0:0:
190,260,88687,2,0,P|162:218|19:186,1,172,8|0,0:0|0:0,0:0:0:0:
52,178,89098,5,8,0:0:0:0:
186,127,89235,1,8,0:0:0:0:
74,33,89372,1,8,0:0:0:0:
104,113,89509,6,0,L|138:208,1,86,0|0,1:0|0:0,0:0:0:0:
104,372,89714,2,0,L|69:276,1,86
248,172,89919,2,0,L|204:293,1,129,2|0,0:0|0:0,0:0:0:0:
204,293,90125,2,0,P|248:268|312:276,1,86,0|0,0:0|0:0,0:0:0:0:
456,380,90330,6,0,P|412:355|387:295,1,86,8|0,0:0|0:0,0:0:0:0:
405,120,90536,2,0,P|407:162|389:201,1,86,0|0,0:0|0:0,0:0:0:0:
248,172,90741,2,0,P|229:111|231:44,1,129,2|0,0:0|0:0,0:0:0:0:
231,46,90947,2,0,L|196:141,1,86,0|0,0:0|0:0,0:0:0:0:
37,275,91152,38,0,P|25:235|26:191,1,86
204,293,91358,2,0,P|162:291|120:277,1,86,8|0,0:0|0:0,0:0:0:0:
272,139,91563,2,0,P|258:178|231:213,1,86,2|0,1:2|0:0,0:0:0:0:
146,26,91769,2,0,P|179:51|203:87,1,86,0|0,0:0|0:0,0:0:0:0:
0,110,91974,2,0,B|22:89|48:77|76:75|76:75|93:50|118:34|145:26,1,172,8|0,0:0|0:0,0:0:0:0:
145,26,92385,6,0,B|77:45|45:102|81:182|81:182|137:212|173:164|158:99|88:106|91:170,1,387.000014762879,2|0,0:0|0:0,0:0:0:0:
203,87,92796,6,0,P|246:75|287:72,1,86,0|0,1:0|0:0,0:0:0:0:
459,290,93002,2,0,P|416:286|374:275,1,86
217,160,93207,2,0,P|260:148|301:145,1,86,2|0,0:0|0:0,0:0:0:0:
473,216,93413,2,0,P|430:212|388:201,1,86
162,284,93618,6,0,P|225:272|289:268,1,129,8|0,0:0|0:0,0:0:0:0:
290,268,93824,2,0,P|332:275|375:275,1,86
217,160,94029,2,0,P|131:172|49:195,1,172,2|0,0:0|0:0,0:0:0:0:
49,196,94440,38,0,P|88:183|136:172,1,86
278,220,94646,2,0,P|247:192|213:156,1,86,8|0,0:0|0:0,0:0:0:0:
186,10,94851,2,0,P|177:48|163:96,1,86,2|0,1:2|0:0,0:0:0:0:
84,274,95056,2,0,P|65:235|49:196,1,86,8|0,0:0|0:0,0:0:0:0:
30,41,95262,54,0,L|106:31,1,68.8,8|0,0:0|0:0,0:0:0:0:
132,173,95467,2,0,L|208:183,1,68.8
256,70,95673,2,0,L|332:60,1,68.8,0|0,0:0|0:0,0:0:0:0:
358,202,95878,2,0,L|434:212,1,68.8
446,297,96084,38,0,B|350:306|350:306|277:267|277:267|182:277|182:277|253:316|253:316|341:308,1,387.000014762879,0|0,1:0|0:0,0:0:0:0:
177,369,96495,6,0,B|134:346|134:346|89:307|89:247|136:206,1,206.4,2|0,0:0|0:0,0:0:0:0:
273,172,96906,6,0,L|399:155,1,86,8|0,0:0|0:0,0:0:0:0:
85,108,97111,2,0,L|-41:91,1,86
304,78,97317,38,0,L|430:61,1,86,2|0,0:0|0:0,0:0:0:0:
116,14,97522,2,0,L|-10:-2,1,86
182,88,97728,6,0,B|244:105|244:105|306:78|306:78|390:66|390:66|467:28|467:28|450:111,1,387.000014762879
411,223,98139,6,0,B|396:291|396:291|358:159,1,206.4,2|0,1:2|0:0,0:0:0:0:
283,202,98550,6,0,B|256:212|256:212|195:195,1,86,8|0,0:0|0:0,0:0:0:0:
3,102,98755,2,0,B|30:92|30:92|91:109,1,86
284,283,98961,38,0,B|257:293|257:293|196:276,1,86,2|0,0:0|0:0,0:0:0:0:
4,183,99166,2,0,B|31:173|31:173|92:190,1,86
176,288,99372,6,0,B|264:311|264:311|334:281|334:281|378:263|434:291|434:351|388:372|340:364|332:324|356:296,1,387.000014762879,0|0,1:0|0:0,0:0:0:0:
404,212,99783,6,0,P|460:253|456:392,1,206.4,2|0,0:0|0:0,0:0:0:0:
308,212,100193,6,0,P|320:164|356:128,1,86,8|0,0:0|0:0,0:0:0:0:
468,52,100399,2,0,P|420:65|371:52,1,86
230,12,100604,38,0,P|268:29|295:63,1,86,2|0,0:0|0:0,0:0:0:0:
70,142,100810,2,0,P|71:92|99:49,1,86
204,159,101015,6,0,B|469:114|469:114|360:159,1,387.000014762879
237,234,101426,6,0,P|167:232|120:151,1,172,2|0,1:2|0:0,0:0:0:0:
120,150,101837,38,0,P|130:198|160:228,1,68.8
168,305,102043,2,0,P|217:311|255:294,1,68.8
330,314,102248,2,0,P|352:270|349:229,1,68.8,2|0,0:0|0:0,0:0:0:0:
353,251,102659,54,0,P|334:205|300:181,1,86,0|0,1:0|0:0,0:0:0:0:
297,97,102865,2,0,P|248:89|210:107,1,86
136,68,103070,2,0,P|105:106|101:147,1,86,2|0,0:0|0:0,0:0:0:0:
101,142,103481,38,0,L|122:246,1,86,8|0,0:0|0:0,0:0:0:0:
223,374,103687,2,0,L|240:289,1,86
297,97,103892,38,0,L|318:201,1,86,2|0,0:0|0:0,0:0:0:0:
419,329,104098,2,0,L|436:244,1,86
448,73,104303,38,0,P|416:111|413:153,1,86
338,285,104509,2,0,P|330:243|302:211,1,86,8|0,0:0|0:0,0:0:0:0:
182,169,104714,2,0,L|81:135,1,86,2|0,1:2|0:0,0:0:0:0:
100,141,105125,38,0,L|241:93,1,129,8|0,0:0|0:0,0:0:0:0:
222,99,105330,2,0,L|121:65,1,86
359,86,105536,2,0,L|438:15,1,86,2|0,0:0|0:0,0:0:0:0:
302,211,105741,2,0,L|323:315,1,86
122,346,105947,38,0,P|77:348|38:333,1,86,0|0,1:0|0:0,0:0:0:0:
319,295,106152,2,0,P|362:285|396:260,1,86
86,225,106358,2,0,P|46:204|19:171,1,86,2|0,0:0|0:0,0:0:0:0:
20,173,106769,38,0,P|6:130|10:88,1,86,8|0,0:0|0:0,0:0:0:0:
175,31,106974,2,0,P|178:73|165:114,1,86
334,165,107180,38,0,P|320:122|324:80,1,86,2|0,0:0|0:0,0:0:0:0:
488,23,107385,2,0,P|491:65|478:106,1,86
396,262,107591,38,0,P|385:293|409:271,1,86
255,192,107796,2,0,P|268:222|241:203,1,86,8|0,0:0|0:0,0:0:0:0:
152,332,108002,2,0,P|141:363|165:341,1,86,2|0,1:2|0:0,0:0:0:0:
96,192,108207,38,0,P|69:173|81:203,1,86,8|0,0:0|0:0,0:0:0:0:
290,127,108413,2,0,P|343:163|318:104,1,172,8|0,0:0|0:0,0:0:0:0:
320,105,108824,5,8,0:0:0:0:
176,147,108961,1,8,0:0:0:0:
210,3,109098,1,8,0:0:0:0:
236,83,109235,5,0,1:0:0:0:
256,192,109337,12,0,110467,0:0:0:0:
