osu file format v14

[General]
AudioFilename: audio.mp3
AudioLeadIn: 0
PreviewTime: 29919
Countdown: 0
SampleSet: Soft
StackLeniency: 0.7
Mode: 0
LetterboxInBreaks: 0
WidescreenStoryboard: 1

[Editor]
Bookmarks: 82522
DistanceSpacing: 1
BeatDivisor: 4
GridSize: 32
TimelineZoom: 1

[Metadata]
Title:Hope
TitleUnicode:Hope
Artist:XXXTENTACION
ArtistUnicode:XXXTENTACION
Creator:Beige
Version:Normal
Source:
Tags:w_h_i_t_e hip hop mumble rap english
BeatmapID:2285988
BeatmapSetID:1091268

[Difficulty]
HPDrainRate:3
CircleSize:3.6
OverallDifficulty:5
ApproachRate:4
SliderMultiplier:1.2
SliderTickRate:1

[Events]
//Background and Video events
0,0,"bg.jpg",0,0
//Break Periods
//Storyboard Layer 0 (Background)
//Storyboard Layer 1 (Fail)
//Storyboard Layer 2 (Pass)
//Storyboard Layer 3 (Foreground)
//Storyboard Layer 4 (Overlay)
//Storyboard Sound Samples

[TimingPoints]
29920,410.958904109589,4,2,1,60,1,0
30330,-100,4,2,1,90,0,0
42659,-100,4,2,1,60,0,0
43481,-100,4,2,1,90,0,0
49235,-100,4,2,1,60,0,0
50056,-100,4,2,1,90,0,0
56632,-100,4,2,2,60,0,0
58687,-100,4,2,3,60,0,0
58789,-100,4,2,2,60,0,0
61974,-100,4,2,3,60,0,0
62077,-100,4,2,2,60,0,0
65262,-100,4,2,3,60,0,0
65365,-100,4,2,2,60,0,0
68550,-100,4,2,3,60,0,0
68652,-100,4,2,2,60,0,0
71837,-100,4,2,3,60,0,0
72042,-100,4,2,2,60,0,0
75125,-100,4,2,3,60,0,0
75228,-100,4,2,2,60,0,0
78413,-100,4,2,3,60,0,0
78515,-100,4,2,2,60,0,0
82522,-100,4,2,1,60,0,0
82933,-100,4,2,1,90,0,0
88070,-100,4,2,1,90,0,0
94646,-100,4,2,1,90,0,0
95262,-100,4,2,1,60,0,0
96084,-100,4,2,1,90,0,0
106974,-100,4,2,1,90,0,0
109337,-100,4,2,1,75,0,0
109646,-100,4,2,1,50,0,0
110056,-100,4,2,1,25,0,0
110467,-100,4,2,2,5,0,0

[Colours]
Combo1 : 210,165,248
Combo2 : 255,132,132
Combo3 : 255,247,142
Combo4 : 125,233,255
Combo5 : 208,206,219
Combo6 : 164,154,184

[HitObjects]
256,192,29919,37,0,0:0:0:0:
148,140,30330,2,0,L|96:112,2,60,0|0|2,1:0|0:0|0:0,0:0:0:0:
256,84,31152,2,0,L|256:24,2,60,8|0|2,0:0|0:0|0:0,0:0:0:0:
364,140,31974,2,0,L|416:112,1,60,0|8,0:0|0:0,0:0:0:0:
468,80,32385,2,0,L|466:139,1,60,2|0,1:2|0:0,0:0:0:0:
456,200,32796,2,0,L|460:329,1,120,8|2,0:0|0:0,0:0:0:0:
344,296,33618,38,0,L|346:355,2,60,0|0|2,1:0|0:0|0:0,0:0:0:0:
308,248,34235,1,0,0:0:0:0:
268,204,34440,2,0,L|270:145,2,60,8|0|2,0:0|0:0|0:0,0:0:0:0:
160,256,35262,2,0,P|124:252|100:240,1,60,0|8,0:0|0:0,0:0:0:0:
56,204,35673,2,0,P|38:172|34:145,1,60,2|0,1:2|0:0,0:0:0:0:
37,87,36084,2,0,P|52:56|144:28,1,120,8|8,0:0|0:0,0:0:0:0:
244,60,36906,38,0,L|304:48,2,60,0|0|2,1:0|0:0|0:0,0:0:0:0:
256,180,37728,2,0,L|316:168,2,60,8|0|2,0:0|0:0|0:0,0:0:0:0:
268,300,38550,2,0,L|328:288,1,60,0|8,0:0|0:0,0:0:0:0:
380,316,38961,2,0,L|440:304,1,60,2|0,1:2|0:0,0:0:0:0:
492,332,39372,2,0,P|464:280|472:220,1,120,8|2,0:0|0:0,0:0:0:0:
500,104,40193,38,0,P|508:76|512:36,2,60,0|0|2,1:0|0:0|0:0,0:0:0:0:
452,140,40810,1,0,0:0:0:0:
392,132,41015,2,0,L|272:116,1,120,8|2,0:0|0:0,0:0:0:0:
261,235,41837,2,0,P|204:218|167:172,1,120,0|2,0:0|1:2,0:0:0:0:
166,112,42454,1,8,0:0:0:0:
195,60,42659,1,0,0:0:0:0:
196,308,43481,6,0,L|68:284,1,120,0|2,1:0|0:0,0:0:0:0:
4,192,44303,1,8,0:0:0:0:
68,92,44714,1,2,0:0:0:0:
126,104,44920,1,0,0:0:0:0:
184,116,45125,6,0,L|312:92,1,120,0|2,0:0|1:2,0:0:0:0:
420,68,45947,1,8,0:0:0:0:
388,184,46358,1,2,0:0:0:0:
410,240,46563,1,0,0:0:0:0:
432,296,46769,70,0,B|376:312|376:312|320:284,1,120,0|2,1:0|0:0,0:0:0:0:
212,236,47591,2,0,B|156:208|156:208|100:224,1,120,8|2,0:0|0:0,0:0:0:0:
48,252,48207,1,0,0:0:0:0:
8,296,48413,2,0,L|20:176,1,120,0|2,0:0|1:2,0:0:0:0:
72,68,49235,2,0,P|36:56|-8:60,2,60,0|0|2,0:0|0:0|0:0,0:0:0:0:
192,60,50056,22,0,P|184:22|158:-13,2,60,0|0|2,1:0|0:0|0:0,0:0:0:0:
256,160,50878,2,0,B|284:144|296:116|296:116|318:134|352:132,1,120,8|2,0:0|0:0,0:0:0:0:
408,112,51495,1,0,0:0:0:0:
464,92,51700,2,0,L|448:212,1,120,0|2,0:0|1:2,0:0:0:0:
480,328,52522,38,0,P|416:332|368:304,1,120,8|2,0:0|0:0,0:0:0:0:
328,260,53139,1,0,0:0:0:0:
272,236,53344,2,0,P|208:232|160:260,1,120,0|2,1:0|0:0,0:0:0:0:
72,340,54166,38,0,P|43:287|48:228,1,120,8|2,0:0|0:0,0:0:0:0:
68,172,54783,1,0,0:0:0:0:
92,116,54988,2,0,L|40:8,2,120,0|2|8,0:0|1:2|0:0,0:0:0:0:
208,148,56221,1,8,0:0:0:0:
256,40,56632,1,0,1:0:0:0:
488,128,58276,6,0,L|464:324,2,180,2|0|2,0:0|0:0|0:0,0:0:0:0:
500,10,59920,2,0,P|393:53|371:166,1,240,0|0,1:0|0:0,2:0:0:0:
132,193,61563,6,0,P|181:138|171:37,2,180,2|0|2,0:0|0:0|0:0,0:0:0:0:
66,92,63207,1,0,1:0:0:0:
64,368,64851,70,0,P|52:288|180:240,1,240,2|0,0:0|0:0,0:0:0:0:
256,332,66084,1,2,0:0:0:0:
332,239,66495,2,0,P|441:256|447:367,1,240,0|0,1:0|0:0,0:0:0:0:
256,224,68139,6,0,L|234:45,2,180,2|0|0,0:0|0:0|0:0,0:0:0:0:
236,344,69783,2,0,B|300:360|348:316|344:308|340:300|388:256|452:272,1,240,2|0,1:2|0:0,0:0:0:0:
248,148,71426,70,0,P|164:120|76:140,2,180,2|0|0,0:0|0:0|0:0,0:0:0:0:
356,200,73070,2,0,P|481:130|347:80,1,360,0|0,1:0|0:0,0:0:0:0:
248,150,74714,6,0,L|272:346,2,180,2|0|2,0:0|0:0|0:0,0:0:0:0:
268,32,76358,2,0,B|204:16|156:60|160:68|164:76|116:120|52:104,1,240,0|2,1:0|0:0,0:0:0:0:
256,227,78002,2,0,P|206:298|120:319,2,180,2|0|2,0:0|0:0|0:0,0:0:0:0:
135,192,79646,70,0,P|255:80|375:191,1,360,0|0,1:0|0:0,0:0:0:0:
256,192,81289,1,2,0:0:0:0:
256,192,82522,69,0,0:0:0:0:
364,244,82933,2,0,L|416:272,2,60,0|0|2,1:0|0:0|0:0,0:0:0:0:
256,300,83755,2,0,L|256:360,2,60,8|0|2,0:0|0:0|0:0,0:0:0:0:
148,244,84577,2,0,L|96:272,1,60,0|8,0:0|0:0,0:0:0:0:
44,304,84988,2,0,L|46:245,1,60,2|0,1:2|0:0,0:0:0:0:
56,184,85399,2,0,L|52:55,1,120,8|2,0:0|0:0,0:0:0:0:
168,88,86221,38,0,L|166:29,2,60,0|0|2,1:0|0:0|0:0,0:0:0:0:
204,136,86837,1,0,0:0:0:0:
244,180,87043,2,0,L|242:239,2,60,8|0|2,0:0|0:0|0:0,0:0:0:0:
352,128,87865,2,0,P|388:132|412:144,1,60,0|8,0:0|0:0,0:0:0:0:
456,180,88276,2,0,P|474:212|478:239,1,60,2|0,1:2|0:0,0:0:0:0:
475,297,88687,2,0,P|460:328|368:356,1,120,8|8,0:0|0:0,0:0:0:0:
268,324,89509,38,0,L|208:336,2,60,0|0|2,1:0|0:0|0:0,0:0:0:0:
256,204,90330,2,0,L|196:216,2,60,8|0|2,0:0|0:0|0:0,0:0:0:0:
244,84,91152,2,0,L|184:96,1,60,0|8,0:0|0:0,0:0:0:0:
132,68,91563,2,0,L|72:80,1,60,2|0,1:2|0:0,0:0:0:0:
20,52,91974,2,0,P|48:104|40:164,1,120,8|2,0:0|0:0,0:0:0:0:
12,280,92796,38,0,P|4:308|0:348,2,60,0|0|2,1:0|0:0|0:0,0:0:0:0:
60,244,93413,1,0,0:0:0:0:
120,252,93618,2,0,L|240:268,1,120,8|2,0:0|0:0,0:0:0:0:
251,149,94440,2,0,P|307:165|344:211,1,120,0|2,0:0|1:2,0:0:0:0:
346,272,95056,1,8,0:0:0:0:
317,324,95262,1,0,0:0:0:0:
316,76,96084,6,0,L|444:100,1,120,0|2,1:0|0:0,0:0:0:0:
508,192,96906,1,8,0:0:0:0:
444,292,97317,1,2,0:0:0:0:
386,280,97522,1,0,0:0:0:0:
328,268,97728,6,0,L|200:292,1,120,0|2,0:0|1:2,0:0:0:0:
92,316,98550,1,8,0:0:0:0:
124,200,98961,1,2,0:0:0:0:
102,144,99166,1,0,0:0:0:0:
80,88,99372,70,0,B|136:72|136:72|192:100,1,120,0|2,1:0|0:0,0:0:0:0:
300,148,100193,2,0,B|356:176|356:176|412:160,1,120,8|2,0:0|0:0,0:0:0:0:
464,132,100810,1,0,0:0:0:0:
504,88,101015,2,0,L|492:208,1,120,0|2,0:0|1:2,0:0:0:0:
440,316,101837,2,0,P|476:328|520:324,2,60,0|0|2,0:0|0:0|0:0,0:0:0:0:
320,324,102659,22,0,P|328:362|354:397,2,60,0|0|2,1:0|0:0|0:0,0:0:0:0:
256,224,103481,2,0,B|228:240|216:268|216:268|194:250|160:252,1,120,8|2,0:0|0:0,0:0:0:0:
104,272,104098,1,0,0:0:0:0:
48,292,104303,2,0,L|64:172,1,120,0|2,0:0|1:2,0:0:0:0:
32,56,105125,38,0,P|96:52|144:80,1,120,8|2,0:0|0:0,0:0:0:0:
184,124,105741,1,0,0:0:0:0:
240,148,105947,2,0,P|304:152|352:124,1,120,0|2,1:0|0:0,0:0:0:0:
440,44,106769,38,0,P|469:97|464:156,1,120,8|2,0:0|0:0,0:0:0:0:
444,212,107385,1,0,0:0:0:0:
420,268,107591,2,0,L|472:376,2,120,0|2|8,0:0|1:2|0:0,0:0:0:0:
304,236,108824,1,8,0:0:0:0:
256,192,109235,12,0,110467,0:0:0:0:
