osu file format v14

[General]
AudioFilename: audio.mp3
AudioLeadIn: 0
PreviewTime: 29919
Countdown: 0
SampleSet: Soft
StackLeniency: 0.7
Mode: 0
LetterboxInBreaks: 0
WidescreenStoryboard: 1

[Editor]
Bookmarks: 82522
DistanceSpacing: 1.05
BeatDivisor: 4
GridSize: 32
TimelineZoom: 1

[Metadata]
Title:Hope
TitleUnicode:Hope
Artist:XXXTENTACION
ArtistUnicode:XXXTENTACION
Creator:Beige
Version:Hard
Source:
Tags:w_h_i_t_e hip hop mumble rap english
BeatmapID:2285936
BeatmapSetID:1091268

[Difficulty]
HPDrainRate:4.5
CircleSize:4
OverallDifficulty:6.5
ApproachRate:7
SliderMultiplier:1.5
SliderTickRate:1

[Events]
//Background and Video events
0,0,"bg.jpg",0,0
//Break Periods
//Storyboard Layer 0 (Background)
//Storyboard Layer 1 (Fail)
//Storyboard Layer 2 (Pass)
//Storyboard Layer 3 (Foreground)
//Storyboard Layer 4 (Overlay)
//Storyboard Sound Samples

[TimingPoints]
29920,410.958904109589,4,2,1,60,1,0
30330,-100,4,2,1,90,0,0
35365,-100,4,2,1,60,0,0
35467,-100,4,2,1,90,0,0
41426,-100,4,2,1,90,0,0
41940,-100,4,2,1,60,0,0
42043,-100,4,2,1,90,0,0
42659,-100,4,2,1,60,0,0
43481,-100,4,2,1,90,0,0
49235,-100,4,2,1,60,0,0
50056,-100,4,2,1,90,0,0
54269,-100,4,2,1,60,0,0
54372,-100,4,2,1,90,0,0
56632,-200,4,2,2,60,0,0
61974,-200,4,2,3,60,0,0
62077,-200,4,2,2,60,0,0
68550,-200,4,2,3,60,0,0
68652,-200,4,2,2,60,0,0
82522,-100,4,2,1,60,0,0
82933,-100,4,2,1,90,0,0
87967,-100,4,2,1,60,0,0
88070,-100,4,2,1,90,0,0
94543,-100,4,2,1,60,0,0
94646,-100,4,2,1,90,0,0
95262,-100,4,2,1,60,0,0
96084,-100,4,2,1,90,0,0
106872,-100,4,2,1,60,0,0
106974,-100,4,2,1,90,0,0
109337,-100,4,2,1,75,0,0
109646,-100,4,2,1,50,0,0
110056,-100,4,2,1,25,0,0
110467,-100,4,2,2,5,0,0

[Colours]
Combo1 : 210,165,248
Combo2 : 255,132,132
Combo3 : 255,247,142
Combo4 : 125,233,255
Combo5 : 208,206,219
Combo6 : 164,154,184

[HitObjects]
216,264,29919,37,0,0:0:0:0:
296,264,30125,1,0,0:0:0:0:
256,192,30330,38,0,L|256:112,1,75,0|0,1:0|0:0,0:0:0:0:
192,71,30741,2,0,P|255:38|319:71,1,150,2|8,0:0|0:0,0:0:0:0:
352,144,31358,1,0,0:0:0:0:
384,216,31563,2,0,L|325:354,1,150,2|0,0:0|0:0,0:0:0:0:
256,316,32180,1,8,0:0:0:0:
186,354,32385,2,0,L|157:285,1,75,2|0,1:2|0:0,0:0:0:0:
84,260,32796,2,0,P|136:210|207:226,1,150,8|2,0:0|0:0,0:0:0:0:
326,355,33618,37,0,1:0:0:0:
380,296,33824,1,0,0:0:0:0:
384,216,34029,1,2,0:0:0:0:
352,144,34235,1,0,0:0:0:0:
432,152,34440,2,0,L|508:144,2,75,8|0|2,0:0|0:0|0:0,0:0:0:0:
276,140,35262,38,0,L|238:136,2,37.5,0|0|8,0:0|0:0|0:0,0:0:0:0:
304,64,35673,2,0,L|228:56,1,75,2|0,1:2|0:0,0:0:0:0:
164,100,36084,2,0,L|88:92,1,75,8|0,0:0|0:0,0:0:0:0:
16,124,36495,2,0,P|8:96|16:60,2,50,8|8|8,0:0|0:0|0:0,0:0:0:0:
24,148,36906,38,0,L|12:232,1,75,0|0,1:0|0:0,0:0:0:0:
72,276,37317,2,0,P|139:303|202:268,1,150,2|8,0:0|0:0,0:0:0:0:
256,212,37933,1,0,0:0:0:0:
309,268,38139,2,0,P|372:303|440:276,1,150,2|0,0:0|0:0,0:0:0:0:
498,222,38755,1,8,0:0:0:0:
492,144,38961,2,0,L|481:69,1,75,2|0,1:2|0:0,0:0:0:0:
404,80,39372,2,0,B|332:88|332:88|272:40,1,150,8|2,0:0|0:0,0:0:0:0:
112,156,40193,37,0,1:0:0:0:
188,181,40399,1,0,0:0:0:0:
235,116,40604,1,2,0:0:0:0:
188,51,40810,1,0,0:0:0:0:
112,76,41015,2,0,P|45:107|45:200,1,150,8|2,0:0|0:0,0:0:0:0:
136,304,41837,38,0,L|128:348,2,37.5,0|0|8,0:0|0:0|0:0,0:0:0:0:
96,236,42248,2,0,P|156:228|184:240,1,75,2|8,1:2|0:0,0:0:0:0:
223,292,42659,5,8,0:0:0:0:
223,292,42865,2,0,P|272:334|301:275,1,150
248,216,43481,38,0,L|400:156,2,150,0|2|8,1:0|0:0|0:0,0:0:0:0:
224,292,44509,1,0,0:0:0:0:
169,233,44714,2,0,P|171:191|197:153,1,75,2|0,0:0|0:0,0:0:0:0:
146,312,45125,6,0,P|74:324|14:280,2,150,0|2|8,0:0|1:2|0:0,0:0:0:0:
224,292,46152,1,0,0:0:0:0:
302,272,46358,2,0,P|302:312|278:356,1,75,2|0,0:0|0:0,0:0:0:0:
248,216,46769,70,0,P|228:156|284:88,2,150,0|2|8,1:0|0:0|0:0,0:0:0:0:
308,164,47796,1,0,0:0:0:0:
384,148,48002,2,0,L|460:132,1,75,2|0,0:0|0:0,0:0:0:0:
356,72,48413,2,0,L|204:40,1,150,0|2,0:0|1:2,0:0:0:0:
209,41,49235,53,0,0:0:0:0:
132,24,49440,1,0,0:0:0:0:
152,100,49646,1,2,0:0:0:0:
16,176,50056,53,0,1:0:0:0:
93,159,50261,1,0,0:0:0:0:
73,235,50467,1,2,0:0:0:0:
73,235,50878,37,8,0:0:0:0:
150,218,51083,1,0,0:0:0:0:
227,201,51289,2,0,L|324:176,1,75,2|0,0:0|0:0,0:0:0:0:
376,160,51700,37,0,0:0:0:0:
359,237,51905,1,8,0:0:0:0:
342,314,52111,1,2,1:2:0:0:
170,314,52522,37,8,0:0:0:0:
153,237,52728,1,0,0:0:0:0:
136,160,52933,2,0,L|111:63,1,75,2|0,0:0|0:0,0:0:0:0:
100,12,53344,37,0,1:0:0:0:
176,32,53550,1,0,0:0:0:0:
252,52,53755,1,2,0:0:0:0:
256,56,54166,38,0,L|251:101,2,37.5,8|0|0,0:0|0:0|0:0,0:0:0:0:
336,68,54577,2,0,P|372:72|408:60,1,75,2|0,0:0|0:0,0:0:0:0:
476,16,54988,37,0,0:0:0:0:
484,96,55193,1,8,0:0:0:0:
416,140,55399,2,0,L|436:212,1,75,2|8,1:2|0:0,0:0:0:0:
380,268,55810,2,0,L|307:249,1,75,8|0,0:0|0:0,0:0:0:0:
304,154,56221,2,0,L|339:118,2,50,8|8|8,0:0|0:0|0:0,0:0:0:0:
286,172,56632,6,0,P|220:196|120:100,1,225,0|0,1:0|0:0,0:0:0:0:
92,268,58276,2,0,L|80:344,1,75,2|0,0:0|1:0,0:0:0:0:
148,372,58892,2,0,L|165:260,1,112.5,0|2,0:0|0:0,0:0:0:0:
340,224,59919,6,0,L|346:262,1,37.5,0|0,1:0|0:0,0:0:0:0:
312,324,60330,2,0,P|376:328|416:256,1,150,2|0,0:0|0:0,0:0:0:0:
416,123,61563,2,0,P|383:82|312:82,2,112.5,2|0|2,0:0|0:0|0:0,0:0:0:0:
416,260,63207,70,0,P|383:324|284:244,1,225,0|0,1:0|0:0,0:0:0:0:
256,96,64851,2,0,L|328:76,1,75,2|0,0:0|1:0,0:0:0:0:
345,149,65467,2,0,B|287:165|287:165|263:173|236:169,1,112.5,0|2,0:0|0:0,0:0:0:0:
112,84,66495,6,0,P|135:84|152:87,1,37.5,0|0,1:0|0:0,0:0:0:0:
127,156,66906,2,0,P|72:148|47:52,1,150,2|0,0:0|0:0,0:0:0:0:
204,144,68139,2,0,L|184:292,1,150,2|0,0:0|0:0,0:0:0:0:
184,293,69783,70,0,B|131:288|131:288|92:310|92:310|40:306,2,150,2|0|2,1:2|0:0|0:0,0:0:0:0:
324,344,71837,2,0,P|396:356|456:312,1,150,0|0,1:0|0:0,0:0:0:0:
456,172,73070,6,0,P|404:168|336:28,1,225,0|0,1:0|0:0,0:0:0:0:
184,96,74714,2,0,P|148:100|112:84,1,75,2|0,0:0|1:0,0:0:0:0:
60,36,75330,2,0,P|80:88|72:144,1,112.5,0|2,0:0|0:0,0:0:0:0:
28,288,76358,70,0,B|51:306|80:304|100:293|98:289|95:284|114:273|145:270|168:288,1,150,0|2,1:0|0:0,0:0:0:0:
168,287,78002,2,0,P|200:308|240:312,1,75,2|0,0:0|1:0,0:0:0:0:
308,292,78618,2,0,P|364:292|412:328,1,112.5,0|2,0:0|0:0,0:0:0:0:
456,176,79646,6,0,B|421:203|377:200|347:183|350:177|355:170|326:154|280:150|245:176,1,225,0|0,1:0|0:0,0:0:0:0:
296,264,81289,1,2,0:0:0:0:
296,264,82522,53,0,0:0:0:0:
216,264,82728,1,0,0:0:0:0:
256,192,82933,38,0,L|256:112,1,75,0|0,1:0|0:0,0:0:0:0:
320,71,83344,2,0,P|257:38|193:71,1,150,2|8,0:0|0:0,0:0:0:0:
160,144,83961,1,0,0:0:0:0:
128,216,84166,2,0,L|187:354,1,150,2|0,0:0|0:0,0:0:0:0:
256,316,84783,1,8,0:0:0:0:
326,354,84988,2,0,L|355:285,1,75,2|0,1:2|0:0,0:0:0:0:
428,260,85399,2,0,P|376:210|305:226,1,150,8|2,0:0|0:0,0:0:0:0:
186,355,86221,37,0,1:0:0:0:
132,296,86427,1,0,0:0:0:0:
128,216,86632,1,2,0:0:0:0:
160,144,86838,1,0,0:0:0:0:
80,152,87043,2,0,L|4:144,2,75,8|0|2,0:0|0:0|0:0,0:0:0:0:
236,140,87865,38,0,L|274:136,2,37.5,0|0|8,0:0|0:0|0:0,0:0:0:0:
208,64,88276,2,0,L|284:56,1,75,2|0,1:2|0:0,0:0:0:0:
348,100,88687,2,0,L|424:92,1,75,8|0,0:0|0:0,0:0:0:0:
496,124,89098,2,0,P|504:96|496:60,2,50,8|8|8,0:0|0:0|0:0,0:0:0:0:
488,148,89509,38,0,L|500:232,1,75,0|0,1:0|0:0,0:0:0:0:
440,276,89920,2,0,P|373:303|310:268,1,150,2|8,0:0|0:0,0:0:0:0:
256,212,90536,1,0,0:0:0:0:
203,268,90742,2,0,P|140:303|72:276,1,150,2|0,0:0|0:0,0:0:0:0:
14,222,91358,1,8,0:0:0:0:
20,144,91564,2,0,L|31:69,1,75,2|0,1:2|0:0,0:0:0:0:
108,80,91975,2,0,B|180:88|180:88|240:40,1,150,8|2,0:0|0:0,0:0:0:0:
400,156,92796,37,0,1:0:0:0:
324,181,93002,1,0,0:0:0:0:
277,116,93207,1,2,0:0:0:0:
324,51,93413,1,0,0:0:0:0:
400,76,93618,2,0,P|467:107|467:200,1,150,8|2,0:0|0:0,0:0:0:0:
376,304,94440,38,0,L|384:348,2,37.5,0|0|8,0:0|0:0|0:0,0:0:0:0:
416,236,94851,2,0,P|356:228|328:240,1,75,2|8,1:2|0:0,0:0:0:0:
289,292,95262,5,8,0:0:0:0:
289,292,95468,2,0,P|239:334|210:275,1,150
264,216,96084,38,0,L|112:156,2,150,0|2|8,1:0|0:0|0:0,0:0:0:0:
288,292,97112,1,0,0:0:0:0:
343,233,97317,2,0,P|341:191|315:153,1,75,2|0,0:0|0:0,0:0:0:0:
366,312,97728,6,0,P|438:324|498:280,2,150,0|2|8,0:0|1:2|0:0,0:0:0:0:
288,292,98755,1,0,0:0:0:0:
210,272,98961,2,0,P|210:312|234:356,1,75,2|0,0:0|0:0,0:0:0:0:
264,216,99372,70,0,P|284:156|228:88,2,150,0|2|8,1:0|0:0|0:0,0:0:0:0:
204,164,100399,1,0,0:0:0:0:
128,148,100605,2,0,L|52:132,1,75,2|0,0:0|0:0,0:0:0:0:
156,72,101016,2,0,L|308:40,1,150,0|2,0:0|1:2,0:0:0:0:
303,41,101838,53,0,0:0:0:0:
380,24,102043,1,0,0:0:0:0:
360,100,102249,1,2,0:0:0:0:
496,176,102659,53,0,1:0:0:0:
419,159,102864,1,0,0:0:0:0:
439,235,103070,1,2,0:0:0:0:
439,235,103481,37,8,0:0:0:0:
362,218,103686,1,0,0:0:0:0:
285,201,103892,2,0,L|188:176,1,75,2|0,0:0|0:0,0:0:0:0:
136,160,104303,37,0,0:0:0:0:
153,237,104508,1,8,0:0:0:0:
170,314,104714,1,2,1:2:0:0:
342,314,105125,37,8,0:0:0:0:
359,237,105331,1,0,0:0:0:0:
376,160,105536,2,0,L|401:63,1,75,2|0,0:0|0:0,0:0:0:0:
412,12,105947,37,0,1:0:0:0:
336,32,106153,1,0,0:0:0:0:
260,52,106358,1,2,0:0:0:0:
256,56,106769,38,0,L|261:101,2,37.5,8|0|0,0:0|0:0|0:0,0:0:0:0:
176,68,107180,2,0,P|140:72|104:60,1,75,2|0,0:0|0:0,0:0:0:0:
36,16,107591,37,0,0:0:0:0:
28,96,107796,1,8,0:0:0:0:
96,140,108002,2,0,L|76:212,1,75,2|8,1:2|0:0,0:0:0:0:
132,268,108413,2,0,L|204:249,1,75,8|0,0:0|0:0,0:0:0:0:
207,154,108824,2,0,L|172:118,2,50,8|8|8,0:0|0:0|0:0,0:0:0:0:
225,172,109235,37,0,1:0:0:0:
256,192,109337,12,0,110467,0:0:0:0:
