osu file format v14

[General]
AudioFilename: audio.mp3
AudioLeadIn: 0
PreviewTime: -1
Countdown: 0
SampleSet: None
StackLeniency: 0.7
Mode: 0
LetterboxInBreaks: 0
WidescreenStoryboard: 1

[Editor]
Bookmarks: 19569
DistanceSpacing: 0.9
BeatDivisor: 6
GridSize: 16
TimelineZoom: 3.899998

[Metadata]
Title:FAILURE IS NOT AN OPTION Interlude (Prod. King Yosef)
TitleUnicode:FAILURE IS NOT AN OPTION Interlude (Prod. King Yosef)
Artist:XXXTENTACION
ArtistUnicode:XXXTENTACION
Creator:-B L u R-
Version:xPOPE
Source:
Tags:
BeatmapID:1462683
BeatmapSetID:691162

[Difficulty]
HPDrainRate:6
CircleSize:4
OverallDifficulty:9
ApproachRate:9
SliderMultiplier:0.800000005960459
SliderTickRate:1

[Events]
//Background and Video events
0,0,"64611295_p0.jpg",0,0
//Break Periods
//Storyboard Layer 0 (Background)
//Storyboard Layer 1 (Fail)
//Storyboard Layer 2 (Pass)
//Storyboard Layer 3 (Foreground)
//Storyboard Sound Samples

[TimingPoints]
11480,337.078651685393,4,3,0,100,1,0
12828,-200,4,3,0,100,0,0
16480,-50,4,3,0,100,0,0
16817,-200,4,3,0,100,0,0
19176,-50,4,3,0,100,0,0
19963,-200,4,3,0,100,0,0
22210,-50,4,3,0,100,0,0
22547,-200,4,3,0,100,0,0
22884,-50,4,3,0,100,0,0
23221,-200,4,3,0,100,0,0
23895,-50,4,3,0,100,0,0
24232,-200,4,3,0,100,0,0
25918,-50,4,3,0,100,0,0
26255,-200,4,3,0,100,0,0
26255,-200,4,3,0,100,0,0
26255,-200,4,3,0,100,0,0
27266,-50,4,3,0,100,0,0
27603,-200,4,3,0,100,0,0
29963,-50,4,3,0,100,0,0
30300,-200,4,3,0,100,0,0

[HitObjects]
419,65,12828,6,0,L|454:46,1,40.0000002980232,8|4,1:0|1:2,0:0:0:0:
105,245,13503,2,0,L|67:268,1,40.0000002980232,8|4,1:1|1:2,0:0:0:0:
466,324,14177,2,0,L|492:358,1,40.000000298023,8|4,1:0|0:2,0:0:0:0:
171,185,14850,5,4,0:2:0:0:
446,74,15187,2,4,L|470:63,1,26.6666668653486,12|4,1:0|2:2,0:0:0:0:
395,272,15524,6,2,L|396:265,4,6.66666671633716,2|2|2|2|2,2:3|2:3|2:3|2:3|2:3,2:3:0:0:
256,27,15862,1,8,0:1:0:0:
257,127,15975,1,8,1:0:0:0:
255,224,16087,1,4,1:0:0:0:
256,327,16199,2,0,L|256:352,1,20.0000001490115,8|0,0:1|0:0,0:0:0:0:
255,277,16536,2,0,L|255:221,1,53.3333337306973,8|4,1:1|0:2,0:0:0:0:
420,60,16873,6,0,P|411:67|415:70,1,13.3333334326744,8|0,0:1|0:0,0:0:0:0:
256,187,17097,2,0,P|259:192|251:190,1,13.3333334326744,8|4,0:1|0:1,0:0:0:0:
96,312,17322,2,0,P|101:322|92:314,1,26.6666668653488,8|4,0:1|0:2,0:0:0:0:
256,187,17884,1,4,0:2:0:0:
106,177,18221,5,4,0:0:0:0:
106,177,18446,1,4,0:2:0:0:
87,158,18671,1,4,0:0:0:0:
316,338,18895,2,0,L|300:364,1,26.6666668653488,8|0,0:1|0:0,0:0:0:0:
400,211,19232,2,0,L|474:95,1,133.333334326744,8|0,0:1|0:0,0:0:0:0:
283,228,19569,2,0,L|420:316,1,160.000001192093,8|4,0:1|0:2,0:0:0:0:
375,28,20244,5,4,0:2:0:0:
375,28,20581,1,4,1:0:0:0:
186,228,20693,1,4,1:0:0:0:
414,193,20805,5,4,1:0:0:0:
153,45,20918,2,2,L|159:52,5,6.6666667163372,2|2|2|2|2|2,2:3|2:3|2:3|2:3|2:3|2:3,2:3:0:0:
119,79,21255,1,2,2:0:0:0:
113,85,21311,1,2,2:0:0:0:
107,91,21367,1,2,2:0:0:0:
101,97,21423,1,2,2:0:0:0:
95,103,21479,1,2,2:0:0:0:
90,110,21536,1,2,2:0:0:0:
84,116,21592,1,2,2:0:0:0:
430,250,21929,6,0,L|448:284,1,33.333333581686,8|0,1:0|0:0,0:0:0:0:
452,142,22266,2,0,L|317:211,1,133.333334326744,8|0,1:0|0:0,0:0:0:0:
361,100,22603,2,0,L|344:69,1,33.333333581686,8|0,1:0|0:0,0:0:0:0:
310,297,22940,2,0,L|241:183,1,133.333334326744,8|0,1:0|0:0,0:0:0:0:
211,271,23277,2,0,L|182:289,1,33.333333581686,8|0,1:0|0:0,0:0:0:0:
55,359,23614,2,0,L|22:376,1,33.333333581686,8|0,1:0|0:0,0:0:0:0:
80,237,23951,6,0,P|91:182|70:91,1,133.333334326744,8|0,1:0|0:0,0:0:0:0:
356,305,24288,2,0,L|379:340,1,40.0000002980232,8|4,1:0|2:0,0:0:0:0:
214,106,24963,2,0,L|191:73,1,40.000000298023,8|4,1:0|2:0,0:0:0:0:
453,126,25637,5,4,0:2:0:0:
203,309,25974,2,0,L|112:379,1,106.666667461395
363,312,26311,2,2,L|364:322,4,6.6666667163372,2|2|2|2|2,2:3|2:3|2:3|2:3|2:3,2:3:0:0:
454,191,26648,5,8,1:0:0:0:
324,193,26760,1,8,1:0:0:0:
209,191,26873,1,8,1:0:0:0:
79,192,26985,2,8,L|47:192,1,26.6666668653488,8|8,1:0|1:0,1:0:0:0:
129,190,27322,2,0,L|225:189,1,80.0000005960459,8|4,1:0|0:2,0:0:0:0:
115,12,27659,6,0,P|120:20|117:11,1,20.0000001490116,8|0,1:0|0:0,0:0:0:0:
215,115,27884,2,0,P|208:120|218:122,1,13.3333334326744,8|4,1:0|0:2,0:0:0:0:
301,208,28109,2,0,P|292:205|299:199,1,13.3333334326744,8|0,1:0|0:0,0:0:0:0:
380,282,28333,2,0,P|387:276|375:278,1,26.6666668653488,8|0,1:0|0:0,0:0:0:0:
447,340,28671,2,0,P|456:331|443:333,1,26.6666668653488,8|0,1:0|0:0,0:0:0:0:
247,306,29008,5,4,0:2:0:0:
194,335,29232,1,4,0:2:0:0:
140,362,29457,1,4,0:2:0:0:
244,111,29682,2,0,L|276:98,1,33.333333581686,8|0,1:0|0:0,0:0:0:0:
148,79,30019,2,0,L|200:208,1,133.333334326744,8|0,1:0|0:0,0:0:0:0:
105,167,30356,2,0,L|69:183,1,40.0000002980232,8|4,1:0|0:2,0:0:0:0:
204,225,31030,5,4,0:2:0:0:
204,225,31367,1,4,0:1:0:0:
512,152,31479,1,4,0:1:0:0:
308,69,31592,5,4,0:1:0:0:
413,331,31704,2,2,L|407:321,5,6.6666667163372,2|2|2|2|2|2,2:3|2:3|2:3|2:3|2:3|2:3,2:3:0:0:
449,340,32041,1,2,2:3:0:0:
458,346,32097,1,2,2:3:0:0:
467,354,32154,1,2,2:3:0:0:
475,362,32210,1,2,2:3:0:0:
484,369,32266,1,2,2:3:0:0:
493,376,32322,1,2,2:3:0:0:
501,384,32378,1,2,2:3:0:0:
170,264,32715,6,0,L|154:276,1,20.0000001490116,8|4,1:0|0:2,0:0:0:0:
316,166,33053,2,0,L|334:155,1,20.0000001490116,12|4,1:0|2:2,0:0:0:0:
182,142,33727,1,8,1:0:0:0:
232,203,34401,1,8,1:0:0:0:
289,258,35075,5,8,1:0:0:0:
289,258,35300,1,8,1:0:0:0:
289,258,35524,1,8,1:0:0:0:
414,124,35749,2,0,L|429:107,1,20.0000001490116,8|0,1:0|2:2,0:0:0:0:
293,140,36423,1,8,1:0:0:0:
353,192,37097,1,8,1:0:0:0:
157,279,37772,6,0,L|141:296,1,20.0000001490116,8|0,1:0|2:2,0:0:0:0:
257,174,38446,2,0,L|272:157,1,20.0000001490116,8|0,1:0|2:2,0:0:0:0:
262,278,38895,6,0,L|270:289,1,13.3333334326744,8|0,1:0|2:2,0:0:0:0:
156,178,39120,1,8,1:0:0:0:
408,139,39345,2,0,L|410:159,1,20.0000001490116,8|0,1:0|2:2,0:0:0:0:
323,53,39794,1,8,1:0:0:0:
302,130,40468,1,8,1:0:0:0:
85,146,41142,6,0,P|81:171|95:149,1,66.666667163372,8|0,1:0|2:2,0:0:0:0:
74,116,41817,1,8,1:0:0:0:
152,98,42491,1,8,1:0:0:0:
228,73,43165,1,8,1:0:0:0:
