osu file format v14

[General]
AudioFilename: audio.mp3
AudioLeadIn: 0
PreviewTime: 28
Countdown: 0
SampleSet: Soft
StackLeniency: 1
Mode: 1
LetterboxInBreaks: 0
WidescreenStoryboard: 0

[Editor]
Bookmarks: 10929,34005,40467,55236,62621,70005,84783
DistanceSpacing: 0.8
BeatDivisor: 4
GridSize: 32
TimelineZoom: 1.9

[Metadata]
Title:Everybody Dies In Their Nightmares
TitleUnicode:Everybody Dies In Their Nightmares
Artist:XXXTENTACION
ArtistUnicode:XXXTENTACION
Creator:Vulkin
Version:Broken Heart
Source:
Tags:17 seventeen potsu don't go to sleep shiloh dynasty Bad Vibes Forever EMPIRE lofi lo-fi hip-hop rap english death depression Ancelysia Nifty -Harpuia- Neptun12 Novarald Clappy
BeatmapID:1626514
BeatmapSetID:773791

[Difficulty]
HPDrainRate:6
CircleSize:7
OverallDifficulty:6
ApproachRate:10
SliderMultiplier:1.4
SliderTickRate:1

[Events]
//Background and Video events
0,0,"heartbreak_heartbroken_stormy_relationship_sadness_love_sorrow_divorce_breakup-624694.jpg",0,0
//Break Periods
//Storyboard Layer 0 (Background)
//Storyboard Layer 1 (Fail)
//Storyboard Layer 2 (Pass)
//Storyboard Layer 3 (Foreground)
//Storyboard Layer 4 (Overlay)
//Storyboard Sound Samples

[TimingPoints]
137,432.432432432432,4,2,0,40,1,0
137,-106.382978723404,4,2,0,40,0,0
785,412.371134020619,4,2,0,40,1,8
785,-112.359550561798,4,2,0,40,0,8
1815,415.22491349481,4,2,0,40,1,0
1815,-111.111111111111,4,2,0,40,0,0
2022,750,4,2,0,40,1,8
2022,-61.3496932515337,4,2,0,40,0,8
2397,502.092050209205,4,2,0,40,1,8
2397,-91.743119266055,4,2,0,40,0,8
2648,431.654676258993,4,2,0,40,1,8
2648,-106.382978723404,4,2,0,40,0,8
3079,460.652591170825,4,2,0,40,1,8
3079,-100,4,2,0,40,0,8
3539,475.247524752475,4,2,0,40,1,0
3539,-97.0873786407767,4,2,0,40,0,0
4251,513.918629550321,4,2,0,40,1,8
4251,-90.0900900900901,4,2,0,40,0,8
4508,447.761194029851,4,2,0,40,1,8
4508,-103.092783505155,4,2,0,40,0,8
4955,464.2166344294,4,2,0,40,1,8
4955,-99.009900990099,4,2,0,40,0,8
5419,431.654676258993,4,2,0,40,1,0
5419,-106.382978723404,4,2,0,40,0,0
6066,552.995391705069,4,2,0,40,1,8
6066,-83.3333333333333,4,2,0,40,0,8
6342,464.2166344294,4,2,0,40,1,8
6342,-99.009900990099,4,2,0,40,0,8
6806,406.091370558376,4,2,0,40,1,8
6806,-113.636363636364,4,2,0,40,0,8
7009,495.867768595041,4,2,0,40,1,8
7009,-93.4579439252336,4,2,0,40,0,8
7256,484.574382167663,4,2,0,40,1,0
7256,-95.2380952380952,4,2,0,40,0,0
7982,465.116279069767,4,2,0,40,1,8
7982,-99.009900990099,4,2,0,40,0,8
8214,464.2166344294,4,2,0,40,1,8
8214,-99.009900990099,4,2,0,40,0,8
8678,445.269016697588,4,2,0,40,1,8
8678,-104.166666666667,4,2,0,40,0,8
9123,472.44094488189,4,2,0,40,1,0
9123,-98.0392156862745,4,2,0,40,0,0
9477,508.474576271186,4,2,0,40,1,8
9477,-90.9090909090909,4,2,0,40,0,8
9604,422.535211267605,4,2,0,40,1,8
9604,-108.695652173913,4,2,0,40,0,8
10026,422.535211267606,4,2,0,40,1,8
10026,-108.695652173913,4,2,0,40,0,8
10131,-108.695652173913,4,1,0,70,0,0
10237,461.538461538461,4,1,0,70,1,8
10237,-100,4,1,0,70,0,8
10929,461.538461538461,4,1,0,70,1,0
10929,-100,4,1,0,70,0,0
84313,470.588235294117,4,1,0,70,1,8
84313,-98.0392156862745,4,1,0,70,0,8
84665,-98.0392156862745,4,2,0,40,0,0
84783,432.432432432432,4,2,0,40,1,0
84783,-106.382978723404,4,2,0,40,0,0
85431,412.371134020619,4,2,0,40,1,8
85431,-112.359550561798,4,2,0,40,0,8
86461,415.22491349481,4,2,0,40,1,0
86461,-111.111111111111,4,2,0,40,0,0
86668,750,4,2,0,40,1,8
86668,-61.3496932515337,4,2,0,40,0,8
87043,502.092050209205,4,2,0,40,1,8
87043,-91.743119266055,4,2,0,40,0,8
87294,431.654676258993,4,2,0,40,1,8
87294,-106.382978723404,4,2,0,40,0,8
87725,460.652591170825,4,2,0,40,1,8
87725,-100,4,2,0,40,0,8
88185,475.247524752475,4,2,0,40,1,0
88185,-97.0873786407767,4,2,0,40,0,0
88897,513.918629550321,4,2,0,40,1,8
88897,-90.0900900900901,4,2,0,40,0,8
89154,447.761194029851,4,2,0,40,1,8
89154,-103.092783505155,4,2,0,40,0,8
89601,464.2166344294,4,2,0,40,1,8
89601,-99.009900990099,4,2,0,40,0,8
90065,431.654676258993,4,2,0,40,1,0
90065,-106.382978723404,4,2,0,40,0,0
90712,552.995391705069,4,2,0,40,1,8
90712,-83.3333333333333,4,2,0,40,0,8
90988,464.2166344294,4,2,0,40,1,8
90988,-99.009900990099,4,2,0,40,0,8
91452,406.091370558376,4,2,0,40,1,8
91452,-113.636363636364,4,2,0,40,0,8
91655,495.867768595041,4,2,0,40,1,8
91655,-93.4579439252336,4,2,0,40,0,8
91902,484.574382167663,4,2,0,40,1,0
91902,-95.2380952380952,4,2,0,40,0,0
92628,465.116279069767,4,2,0,40,1,8
92628,-99.009900990099,4,2,0,40,0,8
92860,464.2166344294,4,2,0,40,1,8
92860,-99.009900990099,4,2,0,40,0,8
93324,445.269016697588,4,2,0,40,1,8
93324,-104.166666666667,4,2,0,40,0,8
93769,472.44094488189,4,2,0,40,1,0
93769,-98.0392156862745,4,2,0,40,0,0
94123,508.474576271186,4,2,0,40,1,8
94123,-90.9090909090909,4,2,0,40,0,8
94250,422.535211267605,4,2,0,40,1,8
94250,-108.695652173913,4,2,0,40,0,8
94672,517.241379310345,4,2,0,40,1,8
94672,-89.2857142857143,4,2,0,40,0,8
94930,464.2166344294,4,2,0,40,1,8
94930,-99.009900990099,4,2,0,40,0,8
95162,468.75,4,2,0,40,1,8
95162,-98.0392156862745,4,2,0,40,0,8

[HitObjects]
256,192,10237,5,8,0:0:0:0:
256,192,10352,1,8,0:0:0:0:
256,192,10467,1,8,0:0:0:0:
256,192,10583,1,0,0:0:0:0:
256,192,10698,1,8,0:0:0:0:
256,192,10813,1,8,0:0:0:0:
256,192,10929,1,8,0:0:0:0:
256,192,11160,1,0,0:0:0:0:
256,192,11276,1,8,0:0:0:0:
256,192,11391,1,0,0:0:0:0:
256,192,11622,1,0,0:0:0:0:
256,192,11853,1,8,0:0:0:0:
256,192,12083,1,0,0:0:0:0:
256,192,12199,1,8,0:0:0:0:
256,192,12314,1,0,0:0:0:0:
256,192,12429,1,0,0:0:0:0:
256,192,12544,1,8,0:0:0:0:
256,192,12659,1,0,0:0:0:0:
256,192,12775,1,8,0:0:0:0:
256,192,13005,1,8,0:0:0:0:
256,192,13121,1,8,0:0:0:0:
256,192,13236,1,0,0:0:0:0:
256,192,13467,1,0,0:0:0:0:
256,192,13698,1,8,0:0:0:0:
256,192,13929,1,8,0:0:0:0:
256,192,14044,1,8,0:0:0:0:
256,192,14159,1,0,0:0:0:0:
256,192,14275,1,0,0:0:0:0:
256,192,14390,1,8,0:0:0:0:
256,192,14505,1,0,0:0:0:0:
256,192,14621,1,8,0:0:0:0:
256,192,14852,1,8,0:0:0:0:
256,192,14967,1,8,0:0:0:0:
256,192,15082,1,0,0:0:0:0:
256,192,15313,1,0,0:0:0:0:
256,192,15544,1,8,0:0:0:0:
256,192,15775,1,0,0:0:0:0:
256,192,15890,1,8,0:0:0:0:
256,192,16005,1,8,0:0:0:0:
256,192,16121,1,8,0:0:0:0:
256,192,16236,1,0,0:0:0:0:
256,192,16352,1,0,0:0:0:0:
256,192,16467,1,8,0:0:0:0:
256,192,16698,1,8,0:0:0:0:
256,192,16813,1,8,0:0:0:0:
256,192,16929,1,0,0:0:0:0:
256,192,17159,1,8,0:0:0:0:
256,192,17621,1,8,0:0:0:0:
256,192,17736,1,8,0:0:0:0:
256,192,17852,1,0,0:0:0:0:
256,192,17967,1,0,0:0:0:0:
256,192,18082,1,8,0:0:0:0:
256,192,18313,1,0,0:0:0:0:
256,192,18544,1,0,0:0:0:0:
256,192,18659,1,8,0:0:0:0:
256,192,18775,1,0,0:0:0:0:
256,192,18890,1,0,0:0:0:0:
256,192,19005,1,8,0:0:0:0:
256,192,19236,1,8,0:0:0:0:
256,192,19467,1,0,0:0:0:0:
256,192,19582,1,0,0:0:0:0:
256,192,19698,1,8,0:0:0:0:
256,192,19813,1,0,0:0:0:0:
256,192,19929,1,8,0:0:0:0:
256,192,20044,1,0,0:0:0:0:
256,192,20159,1,8,0:0:0:0:
256,192,20390,1,8,0:0:0:0:
256,192,20505,1,8,0:0:0:0:
256,192,20621,1,0,0:0:0:0:
256,192,20736,1,0,0:0:0:0:
256,192,20852,1,8,0:0:0:0:
256,192,21082,1,8,0:0:0:0:
256,192,21313,1,0,0:0:0:0:
256,192,21429,1,8,0:0:0:0:
256,192,21544,1,0,0:0:0:0:
256,192,21659,1,0,0:0:0:0:
256,192,21775,1,8,0:0:0:0:
256,192,21890,1,0,0:0:0:0:
256,192,22005,1,8,0:0:0:0:
256,192,22236,1,0,0:0:0:0:
256,192,22352,1,8,0:0:0:0:
256,192,22467,1,8,0:0:0:0:
256,192,22582,1,0,0:0:0:0:
256,192,22698,1,8,0:0:0:0:
256,192,22929,1,8,0:0:0:0:
256,192,23044,1,0,0:0:0:0:
256,192,23159,1,0,0:0:0:0:
256,192,23390,1,0,0:0:0:0:
256,192,23505,1,0,0:0:0:0:
256,192,23621,1,8,0:0:0:0:
256,192,23736,1,0,0:0:0:0:
256,192,23852,1,8,0:0:0:0:
256,192,24082,1,0,0:0:0:0:
256,192,24198,1,0,0:0:0:0:
256,192,24313,1,8,0:0:0:0:
256,192,24544,1,8,0:0:0:0:
256,192,25005,1,8,0:0:0:0:
256,192,25236,1,0,0:0:0:0:
256,192,25467,1,8,0:0:0:0:
256,192,25698,1,8,0:0:0:0:
256,192,25929,1,0,0:0:0:0:
256,192,26044,1,8,0:0:0:0:
256,192,26159,1,0,0:0:0:0:
256,192,26275,1,0,0:0:0:0:
256,192,26390,1,8,0:0:0:0:
256,192,26621,1,8,0:0:0:0:
256,192,26852,1,0,0:0:0:0:
256,192,26967,1,8,0:0:0:0:
256,192,27082,1,8,0:0:0:0:
256,192,27198,1,0,0:0:0:0:
256,192,27313,1,8,0:0:0:0:
256,192,27544,1,8,0:0:0:0:
256,192,27659,1,8,0:0:0:0:
256,192,27775,1,0,0:0:0:0:
256,192,28005,1,0,0:0:0:0:
256,192,28236,1,8,0:0:0:0:
256,192,28467,1,8,0:0:0:0:
256,192,28698,1,0,0:0:0:0:
256,192,28813,1,8,0:0:0:0:
256,192,28929,1,0,0:0:0:0:
256,192,29044,1,0,0:0:0:0:
256,192,29159,1,8,0:0:0:0:
256,192,29275,1,0,0:0:0:0:
256,192,29390,1,8,0:0:0:0:
256,192,29621,1,8,0:0:0:0:
256,192,29736,1,8,0:0:0:0:
256,192,29852,1,0,0:0:0:0:
256,192,29967,1,0,0:0:0:0:
256,192,30082,1,8,0:0:0:0:
256,192,30313,1,8,0:0:0:0:
256,192,30544,1,0,0:0:0:0:
256,192,30775,1,8,0:0:0:0:
256,192,30890,1,8,0:0:0:0:
256,192,31005,1,0,0:0:0:0:
256,192,31236,1,8,0:0:0:0:
256,192,31467,1,0,0:0:0:0:
256,192,31582,1,8,0:0:0:0:
256,192,31698,1,0,0:0:0:0:
256,192,31929,1,8,0:0:0:0:
256,192,32159,1,8,0:0:0:0:
256,192,32390,1,0,0:0:0:0:
256,192,32621,1,8,0:0:0:0:
256,192,32736,1,8,0:0:0:0:
256,192,32852,1,0,0:0:0:0:
256,192,33082,1,8,0:0:0:0:
256,192,33313,1,0,0:0:0:0:
256,192,33544,1,0,0:0:0:0:
256,192,33659,1,8,0:0:0:0:
256,192,33775,1,0,0:0:0:0:
256,192,34005,1,8,0:0:0:0:
256,192,34467,1,8,0:0:0:0:
256,192,34755,1,0,0:0:0:0:
256,192,34929,1,0,0:0:0:0:
256,192,35563,1,0,0:0:0:0:
256,192,35852,1,8,0:0:0:0:
256,192,36313,1,8,0:0:0:0:
256,192,36775,1,0,0:0:0:0:
256,192,37467,1,0,0:0:0:0:
256,192,37698,1,8,0:0:0:0:
256,192,37929,1,0,0:0:0:0:
256,192,38621,1,0,0:0:0:0:
256,192,39371,1,0,0:0:0:0:
256,192,39544,1,8,0:0:0:0:
256,192,39775,1,8,0:0:0:0:
256,192,39890,1,8,0:0:0:0:
256,192,40005,1,8,0:0:0:0:
256,192,40121,1,0,0:0:0:0:
256,192,40236,1,8,0:0:0:0:
256,192,40352,1,0,0:0:0:0:
256,192,40467,1,8,0:0:0:0:
256,192,40698,1,0,0:0:0:0:
256,192,40813,1,8,0:0:0:0:
256,192,40929,1,0,0:0:0:0:
256,192,41159,1,0,0:0:0:0:
256,192,41390,1,8,0:0:0:0:
256,192,41621,1,8,0:0:0:0:
256,192,41736,1,8,0:0:0:0:
256,192,41852,1,0,0:0:0:0:
256,192,41967,1,8,0:0:0:0:
256,192,42082,1,8,0:0:0:0:
256,192,42198,1,0,0:0:0:0:
256,192,42313,1,8,0:0:0:0:
256,192,42544,1,8,0:0:0:0:
256,192,42659,1,8,0:0:0:0:
256,192,42775,1,0,0:0:0:0:
256,192,43005,1,0,0:0:0:0:
256,192,43236,1,8,0:0:0:0:
256,192,43467,1,0,0:0:0:0:
256,192,43582,1,8,0:0:0:0:
256,192,43698,1,0,0:0:0:0:
256,192,43813,1,0,0:0:0:0:
256,192,43929,1,8,0:0:0:0:
256,192,44044,1,0,0:0:0:0:
256,192,44159,1,8,0:0:0:0:
256,192,44390,1,0,0:0:0:0:
256,192,44505,1,8,0:0:0:0:
256,192,44621,1,0,0:0:0:0:
256,192,44852,1,0,0:0:0:0:
256,192,45082,1,8,0:0:0:0:
256,192,45313,1,0,0:0:0:0:
256,192,45429,1,8,0:0:0:0:
256,192,45544,1,8,0:0:0:0:
256,192,45659,1,8,0:0:0:0:
256,192,45775,1,0,0:0:0:0:
256,192,45890,1,0,0:0:0:0:
256,192,46005,1,8,0:0:0:0:
256,192,46236,1,8,0:0:0:0:
256,192,46352,1,8,0:0:0:0:
256,192,46467,1,0,0:0:0:0:
256,192,46698,1,0,0:0:0:0:
256,192,46929,1,8,0:0:0:0:
256,192,47159,1,0,0:0:0:0:
256,192,47275,1,8,0:0:0:0:
256,192,47390,1,0,0:0:0:0:
256,192,47544,1,0,0:0:0:0:
256,192,47698,1,0,0:0:0:0:
256,192,47852,1,8,0:0:0:0:
256,192,48082,1,8,0:0:0:0:
256,192,48198,1,8,0:0:0:0:
256,192,48313,1,0,0:0:0:0:
256,192,48544,1,0,0:0:0:0:
256,192,48775,1,8,0:0:0:0:
256,192,49005,1,0,0:0:0:0:
256,192,49121,1,8,0:0:0:0:
256,192,49236,1,0,0:0:0:0:
256,192,49352,1,0,0:0:0:0:
256,192,49467,1,8,0:0:0:0:
256,192,49582,1,0,0:0:0:0:
256,192,49698,1,8,0:0:0:0:
256,192,49929,1,8,0:0:0:0:
256,192,50044,1,8,0:0:0:0:
256,192,50159,1,0,0:0:0:0:
256,192,50390,1,0,0:0:0:0:
256,192,50621,1,8,0:0:0:0:
256,192,50852,1,0,0:0:0:0:
256,192,50967,1,8,0:0:0:0:
256,192,51082,1,8,0:0:0:0:
256,192,51198,1,0,0:0:0:0:
256,192,51313,1,8,0:0:0:0:
256,192,51429,1,0,0:0:0:0:
256,192,51544,1,8,0:0:0:0:
256,192,51775,1,8,0:0:0:0:
256,192,51890,1,8,0:0:0:0:
256,192,52005,1,0,0:0:0:0:
256,192,52121,1,8,0:0:0:0:
256,192,52236,1,0,0:0:0:0:
256,192,52467,1,8,0:0:0:0:
256,192,52698,1,0,0:0:0:0:
256,192,52813,1,8,0:0:0:0:
256,192,52929,1,8,0:0:0:0:
256,192,53044,1,8,0:0:0:0:
256,192,53159,1,0,0:0:0:0:
256,192,53275,1,0,0:0:0:0:
256,192,53390,1,8,0:0:0:0:
256,192,53621,1,8,0:0:0:0:
256,192,53736,1,8,0:0:0:0:
256,192,53852,1,0,0:0:0:0:
256,192,54082,1,0,0:0:0:0:
256,192,54313,1,8,0:0:0:0:
256,192,54544,1,8,0:0:0:0:
256,192,54659,1,8,0:0:0:0:
256,192,54775,1,0,0:0:0:0:
256,192,54890,1,8,0:0:0:0:
256,192,55005,1,0,0:0:0:0:
256,192,55121,1,0,0:0:0:0:
256,192,55236,1,8,0:0:0:0:
256,192,55467,1,8,0:0:0:0:
256,192,55582,1,8,0:0:0:0:
256,192,55698,1,0,0:0:0:0:
256,192,55929,1,0,0:0:0:0:
256,192,56159,1,8,0:0:0:0:
256,192,56390,1,0,0:0:0:0:
256,192,56505,1,8,0:0:0:0:
256,192,56621,1,8,0:0:0:0:
256,192,56736,1,0,0:0:0:0:
256,192,56852,1,8,0:0:0:0:
256,192,56967,1,0,0:0:0:0:
256,192,57082,1,8,0:0:0:0:
256,192,57313,1,0,0:0:0:0:
256,192,57429,1,8,0:0:0:0:
256,192,57544,1,0,0:0:0:0:
256,192,57775,1,0,0:0:0:0:
256,192,58005,1,8,0:0:0:0:
256,192,58236,1,8,0:0:0:0:
256,192,58352,1,8,0:0:0:0:
256,192,58467,1,8,0:0:0:0:
256,192,58621,1,0,0:0:0:0:
256,192,58775,1,8,0:0:0:0:
256,192,58929,1,8,0:0:0:0:
256,192,59159,1,8,0:0:0:0:
256,192,59275,1,8,0:0:0:0:
256,192,59390,1,0,0:0:0:0:
256,192,59505,1,8,0:0:0:0:
256,192,59621,1,0,0:0:0:0:
256,192,59852,1,8,0:0:0:0:
256,192,60082,1,0,0:0:0:0:
256,192,60198,1,8,0:0:0:0:
256,192,60313,1,8,0:0:0:0:
256,192,60429,1,8,0:0:0:0:
256,192,60544,1,0,0:0:0:0:
256,192,60659,1,8,0:0:0:0:
256,192,60775,1,8,0:0:0:0:
256,192,61005,1,8,0:0:0:0:
256,192,61121,1,8,0:0:0:0:
256,192,61236,1,0,0:0:0:0:
256,192,61467,1,0,0:0:0:0:
256,192,61698,1,8,0:0:0:0:
256,192,61929,1,0,0:0:0:0:
256,192,62044,1,8,0:0:0:0:
256,192,62159,1,8,0:0:0:0:
256,192,62275,1,8,0:0:0:0:
256,192,62390,1,0,0:0:0:0:
256,192,62505,1,8,0:0:0:0:
256,192,62621,1,8,0:0:0:0:
256,192,62852,1,8,0:0:0:0:
256,192,62967,1,8,0:0:0:0:
256,192,63082,1,0,0:0:0:0:
256,192,63313,1,0,0:0:0:0:
256,192,63544,1,8,0:0:0:0:
256,192,63775,1,0,0:0:0:0:
256,192,63890,1,8,0:0:0:0:
256,192,64005,1,8,0:0:0:0:
256,192,64121,1,8,0:0:0:0:
256,192,64236,1,0,0:0:0:0:
256,192,64352,1,8,0:0:0:0:
256,192,64467,1,8,0:0:0:0:
256,192,64698,1,8,0:0:0:0:
256,192,64813,1,8,0:0:0:0:
256,192,64929,1,0,0:0:0:0:
256,192,65159,1,0,0:0:0:0:
256,192,65390,1,8,0:0:0:0:
256,192,65621,1,0,0:0:0:0:
256,192,65736,1,8,0:0:0:0:
256,192,65852,1,8,0:0:0:0:
256,192,65967,1,8,0:0:0:0:
256,192,66082,1,0,0:0:0:0:
256,192,66198,1,8,0:0:0:0:
256,192,66313,1,8,0:0:0:0:
256,192,66544,1,8,0:0:0:0:
256,192,66659,1,8,0:0:0:0:
256,192,66775,1,0,0:0:0:0:
256,192,67005,1,0,0:0:0:0:
256,192,67236,1,8,0:0:0:0:
256,192,67352,1,8,0:0:0:0:
256,192,67467,1,0,0:0:0:0:
256,192,67582,1,0,0:0:0:0:
256,192,67698,1,8,0:0:0:0:
256,192,67813,1,0,0:0:0:0:
256,192,67929,1,8,0:0:0:0:
256,192,68044,1,8,0:0:0:0:
256,192,68159,1,8,0:0:0:0:
256,192,68390,1,0,0:0:0:0:
256,192,68505,1,8,0:0:0:0:
256,192,68621,1,0,0:0:0:0:
256,192,68852,1,0,0:0:0:0:
256,192,69082,1,8,0:0:0:0:
256,192,69313,1,8,0:0:0:0:
256,192,69429,1,8,0:0:0:0:
256,192,69544,1,0,0:0:0:0:
256,192,69659,1,8,0:0:0:0:
256,192,69775,1,8,0:0:0:0:
256,192,69890,1,0,0:0:0:0:
256,192,70005,1,8,0:0:0:0:
256,192,70236,1,8,0:0:0:0:
256,192,70352,1,8,0:0:0:0:
256,192,70467,1,0,0:0:0:0:
256,192,70698,1,0,0:0:0:0:
256,192,70929,1,8,0:0:0:0:
256,192,71390,1,8,0:0:0:0:
256,192,71678,1,0,0:0:0:0:
256,192,71852,1,0,0:0:0:0:
256,192,72486,1,0,0:0:0:0:
256,192,72775,1,8,0:0:0:0:
256,192,73236,1,8,0:0:0:0:
256,192,73698,1,0,0:0:0:0:
256,192,74390,1,0,0:0:0:0:
256,192,74621,1,8,0:0:0:0:
256,192,74852,1,0,0:0:0:0:
256,192,75544,1,0,0:0:0:0:
256,192,76294,1,0,0:0:0:0:
256,192,76467,1,8,0:0:0:0:
256,192,76929,1,8,0:0:0:0:
256,192,77390,1,8,0:0:0:0:
256,192,78082,1,0,0:0:0:0:
256,192,78313,1,8,0:0:0:0:
256,192,78775,1,8,0:0:0:0:
256,192,79063,1,0,0:0:0:0:
256,192,79237,1,0,0:0:0:0:
256,192,79871,1,0,0:0:0:0:
256,192,80160,1,8,0:0:0:0:
256,192,80621,1,8,0:0:0:0:
256,192,81083,1,0,0:0:0:0:
256,192,81775,1,0,0:0:0:0:
256,192,82006,1,8,0:0:0:0:
256,192,82237,1,0,0:0:0:0:
256,192,82929,1,0,0:0:0:0:
256,192,83679,1,0,0:0:0:0:
256,192,83852,1,8,0:0:0:0:
256,192,84783,1,8,0:0:0:0:
