osu file format v14

[General]
AudioFilename: audio.mp3
AudioLeadIn: 0
PreviewTime: 28
Countdown: 0
SampleSet: Soft
StackLeniency: 0.7
Mode: 0
LetterboxInBreaks: 0
WidescreenStoryboard: 0

[Editor]
Bookmarks: 10929,34005,40467,55236,62621,70005,84783
DistanceSpacing: 0.8
BeatDivisor: 4
GridSize: 32
TimelineZoom: 1.9

[Metadata]
Title:Everybody Dies In Their Nightmares
TitleUnicode:Everybody Dies In Their Nightmares
Artist:XXXTENTACION
ArtistUnicode:XXXTENTACION
Creator:Vulkin
Version:Ancel's Becoming Unfaithful
Source:
Tags:17 seventeen potsu don't go to sleep shiloh dynasty Bad Vibes Forever EMPIRE lofi lo-fi hip-hop rap english death depression Ancelysia Nifty -Harpuia- Neptun12 Novarald Clappy
BeatmapID:1626595
BeatmapSetID:773791

[Difficulty]
HPDrainRate:6
CircleSize:3
OverallDifficulty:8.6
ApproachRate:9.4
SliderMultiplier:2.2
SliderTickRate:1

[Events]
//Background and Video events
0,0,"heartbreak_heartbroken_stormy_relationship_sadness_love_sorrow_divorce_breakup-624694.jpg",0,0
//Break Periods
2,33937,38081
//Storyboard Layer 0 (Background)
//Storyboard Layer 1 (Fail)
//Storyboard Layer 2 (Pass)
//Storyboard Layer 3 (Foreground)
//Storyboard Layer 4 (Overlay)
//Storyboard Sound Samples

[TimingPoints]
137,432.432432432432,4,2,0,40,1,0
785,412.371134020619,4,2,0,40,1,8
1815,415.22491349481,4,2,0,40,1,0
2022,750,4,2,0,40,1,8
2397,502.092050209205,4,2,0,40,1,8
2648,431.654676258993,4,2,0,40,1,8
3079,460.652591170825,4,2,0,40,1,8
3539,475.247524752475,4,2,0,40,1,0
3539,-200,4,2,0,40,0,0
4251,513.918629550321,4,2,0,40,1,8
4508,447.761194029851,4,2,0,40,1,8
4955,464.2166344294,4,2,0,40,1,8
5419,431.654676258993,4,2,0,40,1,0
5419,-133.333333333333,4,2,0,40,0,0
6066,552.995391705069,4,2,0,40,1,8
6342,464.2166344294,4,2,0,40,1,8
6806,406.091370558376,4,2,0,40,1,8
7009,495.867768595041,4,2,0,40,1,8
7256,484.574382167663,4,2,0,40,1,0
7256,-200,4,2,0,40,0,0
7982,465.116279069767,4,2,0,40,1,8
8214,464.2166344294,4,2,0,40,1,8
8678,445.269016697588,4,2,0,40,1,8
9123,472.44094488189,4,2,0,40,1,0
9477,508.474576271186,4,2,0,40,1,8
9604,422.535211267605,4,2,0,40,1,8
10026,422.535211267606,4,2,0,40,1,8
10237,461.538461538461,4,2,0,70,1,8
10929,461.538461538461,4,2,0,70,1,0
12707,-50,4,2,0,70,0,0
13168,-100,4,2,0,70,0,0
16399,-33.3333333333333,4,2,0,70,0,0
16861,-100,4,2,0,70,0,0
20091,-50,4,2,0,70,0,0
20437,-100,4,2,0,70,0,0
23784,-33.3333333333333,4,2,0,70,0,0
24130,-100,4,2,0,70,0,0
27476,-50,4,2,0,70,0,0
27937,-100,4,2,0,70,0,0
42245,-50,4,2,0,70,0,0
42707,-100,4,2,0,70,0,0
45937,-33.3333333333333,4,2,0,70,0,0
46399,-100,4,2,0,70,0,0
49630,-50,4,2,0,70,0,0
50091,-100,4,2,0,70,0,0
53322,-33.3333333333333,4,2,0,70,0,0
53784,-100,4,2,0,70,0,0
57014,-50,4,2,0,70,0,0
57476,-100,4,2,0,70,0,0
60707,-33.3333333333333,4,2,0,70,0,0
61168,-100,4,2,0,70,0,0
71322,-133.333333333333,4,2,0,70,0,0
77322,-200,4,2,0,70,0,0
84313,470.588235294117,4,2,0,70,1,8
84783,432.432432432432,4,2,0,40,1,0
85431,412.371134020619,4,2,0,40,1,8
86461,415.22491349481,4,2,0,40,1,0
86668,750,4,2,0,40,1,8
87043,502.092050209205,4,2,0,40,1,8
87294,431.654676258993,4,2,0,40,1,8
87725,460.652591170825,4,2,0,40,1,8
88185,475.247524752475,4,2,0,40,1,0
88897,513.918629550321,4,2,0,40,1,8
89154,447.761194029851,4,2,0,40,1,8
89601,464.2166344294,4,2,0,40,1,8
90065,431.654676258993,4,2,0,40,1,0
90712,552.995391705069,4,2,0,40,1,8
90988,464.2166344294,4,2,0,40,1,8
91452,406.091370558376,4,2,0,40,1,8
91655,495.867768595041,4,2,0,40,1,8
91902,484.574382167663,4,2,0,40,1,0
92628,465.116279069767,4,2,0,40,1,8
92860,464.2166344294,4,2,0,40,1,8
93324,445.269016697588,4,2,0,40,1,8
93769,472.44094488189,4,2,0,40,1,0
94123,508.474576271186,4,2,0,40,1,8
94250,422.535211267605,4,2,0,40,1,8
94672,517.241379310345,4,2,0,40,1,8
94930,464.2166344294,4,2,0,40,1,8
95162,468.75,4,2,0,40,1,8

[Colours]
Combo1 : 0,128,64
Combo2 : 128,128,128
Combo3 : 255,128,128
Combo4 : 192,192,192

[HitObjects]
48,288,137,5,0,0:0:0:0:
130,336,785,1,0,3:0:0:0:
226,316,1403,1,0,3:0:0:0:
308,262,2022,1,0,3:0:0:0:
404,251,2397,1,0,3:0:0:0:
478,313,2648,1,8,0:0:0:0:
480,328,3079,1,0,0:0:0:0:
480,344,3539,6,0,P|456:252|480:180,1,165.000006294251,2|0,0:0|0:0,0:0:0:0:
475,187,4507,1,8,0:0:0:0:
400,260,4955,1,0,0:0:0:0:
304,300,5419,6,0,B|256:320|236:316|184:300|188:284|168:240|108:240|52:272,1,247.500009441376
73,261,6342,1,8,0:0:0:0:
44,352,6806,1,0,0:0:0:0:
256,228,7256,6,0,P|272:144|228:56,1,165
242,72,8214,1,8,0:0:0:0:
148,36,8678,1,0,0:0:0:0:
64,104,9123,5,0,0:0:0:0:
392,296,10026,1,0,0:0:0:0:
352,328,10237,5,0,0:0:0:0:
420,260,10352,1,0,0:0:0:0:
340,288,10467,5,0,1:0:0:0:
436,304,10582,1,0,0:0:0:0:
364,256,10698,5,0,0:3:0:0:
404,344,10813,1,0,0:3:0:0:
472,176,10929,5,4,3:0:0:0:
324,96,11159,5,0,0:0:0:0:
224,116,11275,1,0,0:0:0:0:
344,92,11390,2,0,L|360:172,1,55
168,292,11621,2,0,L|152:212,1,55
296,336,11852,5,8,0:0:0:0:
160,56,12082,5,0,0:0:0:0:
92,124,12197,1,0,0:0:0:0:
172,96,12312,5,2,0:0:0:0:
76,80,12427,1,0,0:0:0:0:
148,128,12543,5,0,0:3:0:0:
108,40,12658,1,0,0:3:0:0:
48,248,12775,6,0,B|128:216|164:244|176:280|232:280|280:252,1,220,4|0,3:0|0:0,0:0:0:0:
336,216,13121,1,0,0:0:0:0:
416,296,13236,6,0,L|404:396,1,55
436,152,13467,2,0,L|424:252,1,55
452,60,13698,1,10,0:0:0:0:
204,136,13929,5,0,0:0:0:0:
312,112,14044,1,0,0:0:0:0:
200,92,14159,5,2,3:0:0:0:
328,120,14275,1,0,0:0:0:0:
216,52,14390,5,0,0:0:0:0:
348,128,14505,1,0,0:0:0:0:
452,60,14621,5,0,3:0:0:0:
400,312,14852,1,0,0:0:0:0:
284,288,14967,1,0,0:0:0:0:
424,320,15082,2,0,L|436:244,1,55
256,284,15313,2,0,L|244:360,1,55
112,224,15544,5,10,0:0:0:0:
296,100,15775,5,0,3:0:0:0:
188,124,15890,1,0,0:0:0:0:
300,144,16005,5,0,0:0:0:0:
172,116,16121,1,0,0:0:0:0:
284,184,16236,5,0,0:0:0:0:
152,108,16351,1,0,0:0:0:0:
32,168,16467,6,0,B|48:208|60:244|40:292|12:300|20:336|28:372|28:372|40:344|40:288|120:288,1,330.000012588501,4|0,3:0|0:0,0:0:0:0:
192,248,16813,1,0,0:0:0:0:
272,312,16929,2,0,L|264:384,1,55
288,324,17159,2,0,L|280:396,1,55
480,248,17621,5,0,0:0:0:0:
464,340,17736,1,0,0:0:0:0:
352,184,17852,5,0,0:0:0:0:
364,280,17967,1,0,0:0:0:0:
448,108,18082,5,0,0:0:0:0:
60,68,18313,5,0,3:0:0:0:
288,236,18544,5,0,0:0:0:0:
184,216,18659,1,0,0:0:0:0:
324,232,18775,2,0,L|316:308,1,55
88,316,19005,2,0,L|96:240,1,55
224,376,19236,5,8,0:0:0:0:
348,128,19467,5,0,0:0:0:0:
444,144,19582,1,0,0:0:0:0:
356,220,19698,5,2,0:0:0:0:
412,228,19813,1,0,0:0:0:0:
360,316,19929,5,0,0:0:0:0:
388,320,20044,1,0,0:0:0:0:
264,356,20159,6,0,L|256:108,1,220,0|0,3:0|0:0,0:0:0:0:
196,64,20505,1,0,0:0:0:0:
128,140,20621,6,0,P|56:160|40:156,1,55
292,232,20852,2,0,P|217:226|203:216,1,55
432,308,21082,1,10,0:0:0:0:
448,216,21313,5,0,0:0:0:0:
352,252,21429,1,0,0:0:0:0:
276,348,21544,5,2,3:0:0:0:
188,324,21659,1,0,0:0:0:0:
120,216,21775,5,0,0:0:0:0:
56,224,21890,1,0,0:0:0:0:
16,360,22005,5,0,3:0:0:0:
252,152,22236,5,0,0:0:0:0:
148,120,22352,1,0,0:0:0:0:
292,136,22467,2,0,L|320:56,1,55
36,144,22698,2,0,L|64:224,1,55
184,24,22929,5,10,0:0:0:0:
272,144,23159,5,0,3:0:0:0:
284,24,23275,1,0,0:0:0:0:
368,124,23390,5,0,0:0:0:0:
376,44,23505,1,0,0:0:0:0:
460,104,23621,5,0,0:0:0:0:
464,76,23736,1,0,0:0:0:0:
296,232,23852,6,0,B|368:220|400:256|372:264|424:288|476:276|512:240|496:184|496:184|496:184|464:200|416:200|360:144,1,330.000012588501,4|0,3:0|0:0,0:0:0:0:
360,112,24198,1,0,0:0:0:0:
260,144,24313,2,0,L|256:72,1,55
240,152,24544,2,0,L|236:80,1,55
56,52,25005,6,0,L|60:116,1,55
160,224,25236,1,0,0:0:0:0:
272,120,25467,1,0,0:0:0:0:
400,228,25698,5,0,3:0:0:0:
248,132,25929,5,0,0:0:0:0:
124,144,26044,1,0,0:0:0:0:
276,156,26159,2,0,L|272:68,1,55
40,208,26390,2,0,L|44:296,1,55
140,48,26621,5,8,0:0:0:0:
196,252,26852,5,0,0:0:0:0:
340,232,26967,1,0,0:0:0:0:
164,224,27082,2,0,L|176:304,1,55,2|0,0:0|0:0,0:0:0:0:
420,160,27313,2,0,L|428:214,1,55,4|0,3:0|0:0,0:0:0:0:
288,360,27544,6,0,B|272:308|280:256|348:256|348:184|272:136|276:76,1,220
216,56,28005,1,0,0:0:0:0:
168,168,28236,1,0,0:0:0:0:
312,56,28467,1,10,0:0:0:0:
408,336,28698,5,0,0:0:0:0:
440,228,28813,1,0,0:0:0:0:
388,344,28929,2,0,L|312:328,1,55,2|0,3:0|0:0,0:0:0:0:
396,120,29159,2,0,L|472:136,1,55
232,208,29390,5,4,3:0:0:0:
64,336,29621,5,0,0:0:0:0:
196,324,29736,1,0,0:0:0:0:
28,320,29852,2,0,L|36:380,1,55
256,240,30082,2,0,L|248:180,1,55
88,92,30313,5,10,0:0:0:0:
388,176,30544,1,4,3:0:0:0:
208,336,30775,5,0,0:0:0:0:
372,304,30890,1,0,0:0:0:0:
168,308,31005,2,0,L|172:388,1,55
388,280,31236,5,0,3:0:0:0:
192,208,31467,2,0,L|120:216,1,55
68,272,31698,1,0,0:0:0:0:
64,288,31929,1,0,0:0:0:0:
60,308,32159,1,8,3:0:0:0:
224,264,32390,5,0,0:0:0:0:
384,240,32505,1,0,0:0:0:0:
196,288,32621,2,0,L|176:212,1,55
432,104,32852,2,0,L|452:180,1,55
64,332,38621,5,4,3:0:0:0:
232,240,39544,1,0,0:0:0:0:
272,208,39775,5,0,0:0:0:0:
197,282,39890,1,0,0:0:0:0:
285,251,40005,5,0,1:0:0:0:
179,234,40120,1,0,0:0:0:0:
258,287,40236,5,0,0:3:0:0:
214,190,40351,1,0,0:3:0:0:
76,328,40467,5,0,3:0:0:0:
308,84,40698,5,0,0:0:0:0:
172,72,40813,1,0,0:0:0:0:
348,68,40929,2,0,L|344:152,1,55
200,268,41159,2,0,L|204:184,1,55
44,56,41390,5,8,0:0:0:0:
436,256,41621,5,0,0:0:0:0:
353,337,41736,1,0,0:0:0:0:
452,308,41851,5,2,0:0:0:0:
333,284,41966,1,0,0:0:0:0:
416,348,42082,5,0,0:3:0:0:
376,240,42197,1,0,0:3:0:0:
252,328,42313,6,0,B|164:344|136:240|24:300,1,220,0|0,3:0|0:0,0:0:0:0:
92,368,42659,1,0,0:0:0:0:
284,248,42775,6,0,P|224:244|196:252,1,55
180,164,43005,2,0,P|131:199|115:223,1,55
48,136,43236,1,10,0:0:0:0:
440,48,43467,5,0,0:0:0:0:
348,137,43582,1,0,0:0:0:0:
457,105,43697,5,2,3:0:0:0:
326,78,43812,1,0,0:0:0:0:
418,149,43928,5,0,0:3:0:0:
374,30,44043,1,0,0:3:0:0:
256,140,44159,5,0,3:0:0:0:
104,72,44390,1,0,0:0:0:0:
84,184,44505,1,0,0:0:0:0:
116,44,44621,2,0,L|61:50,1,55
74,294,44852,2,0,L|128:287,1,55
228,352,45082,5,10,0:0:0:0:
460,208,45313,5,0,3:0:0:0:
420,300,45429,1,0,0:0:0:0:
364,208,45544,5,0,0:0:0:0:
424,308,45660,1,0,0:0:0:0:
300,272,45775,5,0,0:0:0:0:
428,316,45890,1,0,0:0:0:0:
420,112,46005,6,0,B|184:92|184:92|352:140,1,330.000012588501,4|0,3:0|0:0,0:0:0:0:
352,204,46352,1,0,0:0:0:0:
272,296,46467,6,0,P|200:296|180:304,1,55
140,240,46698,2,0,P|77:276|64:292,1,55,0|0,0:3|0:3,0:3:0:0:
88,136,46929,1,10,0:0:0:0:
436,328,47159,5,0,0:0:0:0:
361,254,47274,1,0,0:0:0:0:
449,285,47389,5,0,1:0:0:0:
343,302,47504,1,0,0:0:0:0:
422,249,47620,5,0,0:3:0:0:
378,346,47735,1,0,0:3:0:0:
264,232,47851,5,0,3:0:0:0:
96,128,48082,5,0,0:0:0:0:
208,104,48198,1,0,0:0:0:0:
68,124,48313,2,0,L|77:178,1,55
352,224,48544,2,0,L|342:169,1,55
136,36,48775,5,10,0:0:0:0:
304,236,49005,5,0,0:0:0:0:
221,154,49120,1,0,0:0:0:0:
318,188,49235,5,2,0:0:0:0:
201,207,49352,1,0,0:0:0:0:
288,149,49466,5,0,0:3:0:0:
240,255,49581,1,0,0:3:0:0:
221,154,49698,6,0,B|57:122|57:122|81:198,1,220,4|0,3:0|0:0,0:0:0:0:
112,288,50044,1,0,0:0:0:0:
212,252,50159,6,0,L|300:248,1,55
340,301,50390,2,0,L|428:297,1,55
468,232,50621,1,10,0:0:0:0:
436,132,50852,5,0,0:0:0:0:
353,50,50967,1,0,0:0:0:0:
450,84,51082,5,2,3:0:0:0:
333,103,51197,1,0,0:0:0:0:
420,45,51313,5,0,0:3:0:0:
372,151,51428,1,0,0:3:0:0:
240,68,51544,5,0,3:0:0:0:
120,240,51775,5,0,0:0:0:0:
240,264,51890,1,0,0:0:0:0:
96,248,52005,2,0,L|116:312,1,55
360,228,52236,2,0,L|340:164,1,55
256,364,52467,5,8,0:0:0:0:
296,152,52698,5,0,3:0:0:0:
336,60,52814,1,0,0:0:0:0:
392,152,52929,5,0,0:0:0:0:
332,52,53045,1,0,0:0:0:0:
456,88,53160,5,0,0:0:0:0:
328,44,53275,1,0,0:0:0:0:
220,100,53390,6,0,B|0:72|0:72|176:76,1,330.000012588501,4|0,3:0|0:0,0:0:0:0:
264,0,53736,1,0,0:0:0:0:
340,108,53852,6,0,L|324:208,1,55
356,112,54082,2,0,L|340:212,1,55
444,272,54313,1,10,0:0:0:0:
292,319,54544,5,0,0:0:0:0:
354,255,54659,1,0,0:0:0:0:
347,166,54774,5,0,1:0:0:0:
277,111,54890,1,0,0:0:0:0:
190,127,55005,5,0,0:0:0:0:
143,203,55120,1,0,0:0:0:0:
169,288,55236,5,0,3:0:0:0:
444,236,55467,5,0,0:0:0:0:
400,328,55582,1,0,0:0:0:0:
464,208,55698,2,0,L|392:184,1,55
296,380,55929,2,0,L|224:356,1,55
504,312,56159,5,8,0:0:0:0:
411,190,56390,5,0,0:0:0:0:
347,128,56505,1,0,0:0:0:0:
258,135,56620,5,2,0:0:0:0:
203,205,56736,1,0,0:0:0:0:
219,292,56851,5,0,0:0:0:0:
295,339,56966,1,0,0:0:0:0:
376,312,57082,6,0,L|140:287,1,220,0|0,3:0|0:0,0:0:0:0:
72,344,57429,1,0,0:0:0:0:
36,232,57544,6,0,L|52:160,1,55
196,176,57775,2,0,L|180:104,1,55
96,32,58005,1,10,0:0:0:0:
337,177,58236,5,0,0:0:0:0:
273,115,58351,1,0,0:0:0:0:
184,122,58466,5,2,3:0:0:0:
129,192,58582,1,0,0:0:0:0:
145,279,58697,5,0,0:0:0:0:
221,326,58812,1,0,0:0:0:0:
306,300,58928,5,0,3:0:0:0:
48,248,59159,1,0,0:0:0:0:
60,344,59275,1,0,0:0:0:0:
40,224,59390,2,0,L|124:208,1,55
232,320,59621,2,0,L|316:304,1,55
64,360,59852,5,10,0:0:0:0:
248,209,60082,5,0,3:0:0:0:
184,147,60197,1,0,0:0:0:0:
95,154,60312,5,0,0:0:0:0:
40,224,60428,1,0,0:0:0:0:
56,311,60543,5,0,0:0:0:0:
132,358,60658,1,0,0:0:0:0:
217,332,60775,6,0,B|272:292|328:272|420:284|444:332|444:332|352:328,1,330.000012588501,4|0,3:0|0:0,0:0:0:0:
304,384,61121,1,0,0:0:0:0:
212,224,61236,6,0,L|216:128,1,55
200,224,61467,2,0,L|204:128,1,55
104,92,61698,1,10,0:0:0:0:
410,154,61929,5,0,0:0:0:0:
346,92,62044,1,0,0:0:0:0:
257,99,62159,5,0,1:0:0:0:
202,169,62275,1,0,0:0:0:0:
218,256,62390,5,0,0:0:0:0:
294,303,62505,1,0,0:0:0:0:
384,288,62621,5,0,3:0:0:0:
312,204,62852,1,0,0:0:0:0:
312,204,62967,1,0,0:0:0:0:
312,204,63082,1,0,0:0:0:0:
218,256,63313,1,0,0:0:0:0:
384,288,63544,5,8,0:0:0:0:
425,150,63775,5,0,0:0:0:0:
355,82,63890,1,0,0:0:0:0:
257,89,64005,5,2,0:0:0:0:
196,166,64121,1,0,0:0:0:0:
214,262,64236,5,0,0:0:0:0:
297,314,64351,1,0,3:0:0:0:
396,297,64467,5,0,3:0:0:0:
317,205,64698,1,0,0:0:0:0:
317,205,64813,1,0,0:0:0:0:
317,205,64928,1,0,0:0:0:0:
214,262,65159,1,0,0:0:0:0:
396,297,65390,5,10,0:0:0:0:
442,146,65621,5,0,0:0:0:0:
364,70,65736,1,0,0:0:0:0:
257,79,65851,5,2,3:0:0:0:
190,164,65967,1,0,0:0:0:0:
210,269,66082,5,0,0:0:0:0:
301,326,66197,1,0,0:0:0:0:
410,308,66313,5,0,3:0:0:0:
323,206,66544,1,0,0:0:0:0:
323,206,66659,1,0,0:0:0:0:
323,206,66774,1,0,0:0:0:0:
210,269,67005,1,0,0:0:0:0:
410,308,67236,5,10,0:0:0:0:
128,84,67467,5,0,3:0:0:0:
104,196,67582,1,0,0:0:0:0:
128,72,67698,2,0,L|192:80,1,55
280,200,67929,2,0,L|344:192,1,55
464,88,68159,5,0,3:0:0:0:
304,312,68390,5,0,0:0:0:0:
420,276,68506,1,0,0:0:0:0:
276,304,68621,2,0,L|284:360,1,55
504,228,68852,2,0,L|496:172,1,55
460,372,69082,5,10,0:0:0:0:
404,240,69313,5,0,0:0:0:0:
312,228,69429,1,0,0:0:0:0:
284,344,69544,5,2,3:0:0:0:
200,332,69660,1,0,0:0:0:0:
148,240,69775,5,0,0:0:0:0:
68,228,69891,1,0,0:0:0:0:
32,352,70005,5,0,3:0:0:0:
236,248,70236,1,0,0:0:0:0:
236,248,70352,1,0,0:0:0:0:
236,248,70467,1,0,0:0:0:0:
56,80,70698,1,0,0:0:0:0:
168,336,70929,5,8,0:0:0:0:
432,68,71390,5,2,3:0:0:0:
356,132,71852,2,0,B|276:176|244:120|228:100|188:80|108:124,1,247.500009441376
124,115,72775,1,8,0:0:0:0:
64,200,73236,1,0,0:0:0:0:
152,268,73698,6,0,L|404:244,1,247.500009441376,8|0,3:0|3:0,0:0:0:0:
500,296,74621,1,8,0:0:0:0:
480,184,75082,1,0,0:0:0:0:
400,244,75544,5,4,3:0:0:0:
56,336,76467,5,8,3:0:0:0:
60,236,77390,6,0,P|108:244|168:364,1,165.000006294251,8|0,3:0|0:0,0:0:0:0:
170,334,78313,1,8,0:0:0:0:
272,280,78775,1,2,3:0:0:0:
396,328,79236,6,0,L|364:140,1,165,4|0,3:0|0:0,0:0:0:0:
368,165,80159,1,8,0:0:0:0:
292,208,80621,1,0,0:0:0:0:
368,252,81082,6,0,P|432:228|440:120,1,165,4|0,3:0|3:0,0:0:0:0:
451,140,82005,1,8,0:0:0:0:
388,80,82467,1,0,0:0:0:0:
300,96,82929,1,4,3:0:0:0:
60,192,83852,5,4,3:0:0:0:
