osu file format v14

[General]
AudioFilename: audio.mp3
AudioLeadIn: 0
PreviewTime: 28
Countdown: 0
SampleSet: Soft
StackLeniency: 1
Mode: 1
LetterboxInBreaks: 0
WidescreenStoryboard: 1

[Editor]
Bookmarks: 10929,34005,40467,55236,62621,70005,84783
DistanceSpacing: 0.8
BeatDivisor: 4
GridSize: 32
TimelineZoom: 0.8

[Metadata]
Title:Everybody Dies In Their Nightmares
TitleUnicode:Everybody Dies In Their Nightmares
Artist:XXXTENTACION
ArtistUnicode:XXXTENTACION
Creator:Vulkin
Version:12's Futsuu
Source:
Tags:17 seventeen potsu don't go to sleep shiloh dynasty Bad Vibes Forever EMPIRE lofi lo-fi hip-hop rap english death depression Ancelysia Nifty -Harpuia- Neptun12 Novarald Clappy
BeatmapID:1678985
BeatmapSetID:773791

[Difficulty]
HPDrainRate:7
CircleSize:6.9
OverallDifficulty:3
ApproachRate:10
SliderMultiplier:1.4
SliderTickRate:1

[Events]
//Background and Video events
0,0,"heartbreak_heartbroken_stormy_relationship_sadness_love_sorrow_divorce_breakup-624694.jpg",0,0
//Break Periods
//Storyboard Layer 0 (Background)
//Storyboard Layer 1 (Fail)
//Storyboard Layer 2 (Pass)
//Storyboard Layer 3 (Foreground)
//Storyboard Layer 4 (Overlay)
//Storyboard Sound Samples

[TimingPoints]
137,432.432432432432,4,2,0,40,1,0
137,-106.382978723404,4,2,0,40,0,0
785,412.371134020619,4,2,0,40,1,8
785,-112.359550561798,4,2,0,40,0,8
1815,415.22491349481,4,2,0,40,1,0
1815,-111.111111111111,4,2,0,40,0,0
2022,750,4,2,0,40,1,8
2022,-61.3496932515337,4,2,0,40,0,8
2397,502.092050209205,4,2,0,40,1,8
2397,-91.743119266055,4,2,0,40,0,8
2648,431.654676258993,4,2,0,40,1,8
2648,-106.382978723404,4,2,0,40,0,8
3079,460.652591170825,4,2,0,40,1,8
3079,-100,4,2,0,40,0,8
3539,475.247524752475,4,2,0,40,1,0
3539,-97.0873786407767,4,2,0,40,0,0
4251,513.918629550321,4,2,0,40,1,8
4251,-90.0900900900901,4,2,0,40,0,8
4508,447.761194029851,4,2,0,40,1,8
4508,-103.092783505155,4,2,0,40,0,8
4955,464.2166344294,4,2,0,40,1,8
4955,-99.009900990099,4,2,0,40,0,8
5419,431.654676258993,4,2,0,40,1,0
5419,-106.382978723404,4,2,0,40,0,0
6066,552.995391705069,4,2,0,40,1,8
6066,-83.3333333333333,4,2,0,40,0,8
6342,464.2166344294,4,2,0,40,1,8
6342,-99.009900990099,4,2,0,40,0,8
6806,406.091370558376,4,2,0,40,1,8
6806,-113.636363636364,4,2,0,40,0,8
7009,495.867768595041,4,2,0,40,1,8
7009,-93.4579439252336,4,2,0,40,0,8
7256,484.574382167663,4,2,0,40,1,0
7256,-95.2380952380952,4,2,0,40,0,0
7982,465.116279069767,4,2,0,40,1,8
7982,-99.009900990099,4,2,0,40,0,8
8214,464.2166344294,4,2,0,40,1,8
8214,-99.009900990099,4,2,0,40,0,8
8678,445.269016697588,4,2,0,40,1,8
8678,-104.166666666667,4,2,0,40,0,8
9123,472.44094488189,4,2,0,40,1,0
9123,-98.0392156862745,4,2,0,40,0,0
9477,508.474576271186,4,2,0,40,1,8
9477,-90.9090909090909,4,2,0,40,0,8
9604,422.535211267605,4,2,0,40,1,8
9604,-108.695652173913,4,2,0,40,0,8
10026,422.535211267606,4,2,0,40,1,8
10026,-108.695652173913,4,2,0,40,0,8
10131,-108.695652173913,4,1,0,70,0,0
10237,461.538461538461,4,1,0,70,1,8
10237,-100,4,1,0,70,0,8
10929,461.538461538461,4,1,0,70,1,0
10929,-100,4,1,0,70,0,0
84313,470.588235294117,4,1,0,70,1,8
84313,-98.0392156862745,4,1,0,70,0,8
84665,-98.0392156862745,4,2,0,40,0,0
84783,432.432432432432,4,2,0,40,1,0
84783,-106.382978723404,4,2,0,40,0,0
85431,412.371134020619,4,2,0,40,1,8
85431,-112.359550561798,4,2,0,40,0,8
86461,415.22491349481,4,2,0,40,1,0
86461,-111.111111111111,4,2,0,40,0,0
86668,750,4,2,0,40,1,8
86668,-61.3496932515337,4,2,0,40,0,8
87043,502.092050209205,4,2,0,40,1,8
87043,-91.743119266055,4,2,0,40,0,8
87294,431.654676258993,4,2,0,40,1,8
87294,-106.382978723404,4,2,0,40,0,8
87725,460.652591170825,4,2,0,40,1,8
87725,-100,4,2,0,40,0,8
88185,475.247524752475,4,2,0,40,1,0
88185,-97.0873786407767,4,2,0,40,0,0
88897,513.918629550321,4,2,0,40,1,8
88897,-90.0900900900901,4,2,0,40,0,8
89154,447.761194029851,4,2,0,40,1,8
89154,-103.092783505155,4,2,0,40,0,8
89601,464.2166344294,4,2,0,40,1,8
89601,-99.009900990099,4,2,0,40,0,8
90065,431.654676258993,4,2,0,40,1,0
90065,-106.382978723404,4,2,0,40,0,0
90712,552.995391705069,4,2,0,40,1,8
90712,-83.3333333333333,4,2,0,40,0,8
90988,464.2166344294,4,2,0,40,1,8
90988,-99.009900990099,4,2,0,40,0,8
91452,406.091370558376,4,2,0,40,1,8
91452,-113.636363636364,4,2,0,40,0,8
91655,495.867768595041,4,2,0,40,1,8
91655,-93.4579439252336,4,2,0,40,0,8
91902,484.574382167663,4,2,0,40,1,0
91902,-95.2380952380952,4,2,0,40,0,0
92628,465.116279069767,4,2,0,40,1,8
92628,-99.009900990099,4,2,0,40,0,8
92860,464.2166344294,4,2,0,40,1,8
92860,-99.009900990099,4,2,0,40,0,8
93324,445.269016697588,4,2,0,40,1,8
93324,-104.166666666667,4,2,0,40,0,8
93769,472.44094488189,4,2,0,40,1,0
93769,-98.0392156862745,4,2,0,40,0,0
94123,508.474576271186,4,2,0,40,1,8
94123,-90.9090909090909,4,2,0,40,0,8
94250,422.535211267605,4,2,0,40,1,8
94250,-108.695652173913,4,2,0,40,0,8
94672,517.241379310345,4,2,0,40,1,8
94672,-89.2857142857143,4,2,0,40,0,8
94930,464.2166344294,4,2,0,40,1,8
94930,-99.009900990099,4,2,0,40,0,8
95162,468.75,4,2,0,40,1,8
95162,-98.0392156862745,4,2,0,40,0,8

[HitObjects]
256,192,10237,5,0,0:0:0:0:
256,192,10467,1,0,0:0:0:0:
256,192,10929,1,8,0:0:0:0:
256,192,11389,1,0,0:0:0:0:
256,192,11620,1,8,0:0:0:0:
256,192,12081,1,0,0:0:0:0:
256,192,12312,1,8,0:0:0:0:
256,192,12543,1,0,0:0:0:0:
256,192,12774,1,8,0:0:0:0:
256,192,13235,1,8,0:0:0:0:
256,192,13466,1,0,0:0:0:0:
256,192,13928,1,0,0:0:0:0:
256,192,14158,1,0,0:0:0:0:
256,192,14620,1,8,0:0:0:0:
256,192,14851,1,0,0:0:0:0:
256,192,15081,1,8,0:0:0:0:
256,192,15312,1,0,0:0:0:0:
256,192,15774,1,8,0:0:0:0:
256,192,16004,1,8,0:0:0:0:
256,192,16466,1,0,0:0:0:0:
256,192,16928,1,8,0:0:0:0:
256,192,17158,1,0,0:0:0:0:
256,192,18312,1,0,0:0:0:0:
256,192,18774,1,0,0:0:0:0:
256,192,19004,1,8,0:0:0:0:
256,192,19466,1,0,0:0:0:0:
256,192,19697,1,8,0:0:0:0:
256,192,19928,1,0,0:0:0:0:
256,192,20158,1,8,0:0:0:0:
256,192,20620,1,8,0:0:0:0:
256,192,20851,1,0,0:0:0:0:
256,192,21312,1,0,0:0:0:0:
256,192,21543,1,0,0:0:0:0:
256,192,22004,1,8,0:0:0:0:
256,192,22466,1,8,0:0:0:0:
256,192,22697,1,8,0:0:0:0:
256,192,23158,1,0,0:0:0:0:
256,192,23389,1,8,0:0:0:0:
256,192,23620,1,8,0:0:0:0:
256,192,23851,1,0,0:0:0:0:
256,192,24312,1,8,0:0:0:0:
256,192,24543,1,0,0:0:0:0:
256,192,25697,1,8,0:0:0:0:
256,192,26158,1,0,0:0:0:0:
256,192,26389,1,8,0:0:0:0:
256,192,26851,1,0,0:0:0:0:
256,192,27081,1,0,0:0:0:0:
256,192,27543,1,8,0:0:0:0:
256,192,27774,1,8,0:0:0:0:
256,192,28004,1,0,0:0:0:0:
256,192,28235,1,8,0:0:0:0:
256,192,28697,1,0,0:0:0:0:
256,192,28928,1,0,0:0:0:0:
256,192,29389,1,8,0:0:0:0:
256,192,29851,1,0,0:0:0:0:
256,192,30081,1,8,0:0:0:0:
256,192,30543,1,0,0:0:0:0:
256,192,30774,1,0,0:0:0:0:
256,192,31004,1,8,0:0:0:0:
256,192,31235,1,0,0:0:0:0:
256,192,31697,1,8,0:0:0:0:
256,192,31928,1,0,0:0:0:0:
256,192,32389,1,0,0:0:0:0:
256,192,32620,1,8,0:0:0:0:
256,192,32851,1,0,0:0:0:0:
256,192,33081,1,8,0:0:0:0:
256,192,33543,1,8,0:0:0:0:
256,192,33774,1,8,0:0:0:0:
256,192,34004,1,0,0:0:0:0:
256,192,34466,1,8,0:0:0:0:
256,192,34928,1,0,0:0:0:0:
256,192,35851,1,8,0:0:0:0:
256,192,36774,1,0,0:0:0:0:
256,192,37697,1,8,0:0:0:0:
256,192,37928,1,0,0:0:0:0:
256,192,38620,1,0,0:0:0:0:
256,192,39081,1,8,0:0:0:0:
256,192,39774,1,0,0:0:0:0:
256,192,40004,1,0,0:0:0:0:
256,192,40466,1,8,0:0:0:0:
256,192,40928,1,8,0:0:0:0:
256,192,41158,1,0,0:0:0:0:
256,192,41620,1,0,0:0:0:0:
256,192,41851,1,0,0:0:0:0:
256,192,42081,1,8,0:0:0:0:
256,192,42312,1,0,0:0:0:0:
256,192,42774,1,8,0:0:0:0:
256,192,43005,1,8,0:0:0:0:
256,192,43466,1,0,0:0:0:0:
256,192,43697,1,8,0:0:0:0:
256,192,43928,1,0,0:0:0:0:
256,192,44158,1,8,0:0:0:0:
256,192,44620,1,8,0:0:0:0:
256,192,44851,1,0,0:0:0:0:
256,192,45312,1,0,0:0:0:0:
256,192,45543,1,0,0:0:0:0:
256,192,46004,1,8,0:0:0:0:
256,192,46466,1,8,0:0:0:0:
256,192,46697,1,8,0:0:0:0:
256,192,47158,1,0,0:0:0:0:
256,192,47389,1,0,0:0:0:0:
256,192,47620,1,0,0:0:0:0:
256,192,47851,1,8,0:0:0:0:
256,192,48312,1,8,0:0:0:0:
256,192,48543,1,0,0:0:0:0:
256,192,49004,1,0,0:0:0:0:
256,192,49235,1,0,0:0:0:0:
256,192,49697,1,8,0:0:0:0:
256,192,50158,1,8,0:0:0:0:
256,192,50389,1,8,0:0:0:0:
256,192,50851,1,0,0:0:0:0:
256,192,51081,1,0,0:0:0:0:
256,192,51312,1,8,0:0:0:0:
256,192,51543,1,0,0:0:0:0:
256,192,52004,1,8,0:0:0:0:
256,192,52235,1,0,0:0:0:0:
256,192,52697,1,0,0:0:0:0:
256,192,52928,1,8,0:0:0:0:
256,192,53158,1,8,0:0:0:0:
256,192,53389,1,0,0:0:0:0:
256,192,53851,1,8,0:0:0:0:
256,192,54081,1,0,0:0:0:0:
256,192,54543,1,8,0:0:0:0:
256,192,54774,1,8,0:0:0:0:
256,192,55235,1,0,0:0:0:0:
256,192,55697,1,0,0:0:0:0:
256,192,55928,1,0,0:0:0:0:
256,192,56389,1,0,0:0:0:0:
256,192,56620,1,8,0:0:0:0:
256,192,56851,1,0,0:0:0:0:
256,192,57081,1,0,0:0:0:0:
256,192,57543,1,0,0:0:0:0:
256,192,57774,1,8,0:0:0:0:
256,192,58235,1,0,0:0:0:0:
256,192,58466,1,0,0:0:0:0:
256,192,58928,1,8,0:0:0:0:
256,192,59389,1,8,0:0:0:0:
256,192,59620,1,0,0:0:0:0:
256,192,60081,1,0,0:0:0:0:
256,192,60312,1,8,0:0:0:0:
256,192,60543,1,8,0:0:0:0:
256,192,60774,1,0,0:0:0:0:
256,192,61235,1,8,0:0:0:0:
256,192,61466,1,0,0:0:0:0:
256,192,61928,1,0,0:0:0:0:
256,192,62158,1,0,0:0:0:0:
256,192,62620,1,8,0:0:0:0:
256,192,63081,1,8,0:0:0:0:
256,192,63312,1,0,0:0:0:0:
256,192,63774,1,0,0:0:0:0:
256,192,64004,1,8,0:0:0:0:
256,192,64235,1,0,0:0:0:0:
256,192,64466,1,8,0:0:0:0:
256,192,64928,1,0,0:0:0:0:
256,192,65158,1,8,0:0:0:0:
256,192,65620,1,0,0:0:0:0:
256,192,65851,1,0,0:0:0:0:
256,192,66081,1,8,0:0:0:0:
256,192,66312,1,0,0:0:0:0:
256,192,66774,1,8,0:0:0:0:
256,192,67004,1,0,0:0:0:0:
256,192,67466,1,0,0:0:0:0:
256,192,67697,1,8,0:0:0:0:
256,192,68158,1,8,0:0:0:0:
256,192,68620,1,0,0:0:0:0:
256,192,68851,1,8,0:0:0:0:
256,192,69312,1,0,0:0:0:0:
256,192,69543,1,0,0:0:0:0:
256,192,70004,1,8,0:0:0:0:
256,192,70466,1,8,0:0:0:0:
256,192,70697,1,8,0:0:0:0:
256,192,71620,1,0,0:0:0:0:
256,192,71851,1,0,0:0:0:0:
256,192,72774,1,8,0:0:0:0:
256,192,73697,1,0,0:0:0:0:
256,192,74620,1,8,0:0:0:0:
256,192,74851,1,0,0:0:0:0:
256,192,75543,1,0,0:0:0:0:
256,192,76004,1,8,0:0:0:0:
256,192,76466,1,0,0:0:0:0:
256,192,76928,1,8,0:0:0:0:
256,192,77389,1,0,0:0:0:0:
256,192,78312,1,8,0:0:0:0:
256,192,79004,1,0,0:0:0:0:
256,192,79235,1,0,0:0:0:0:
256,192,80158,1,8,0:0:0:0:
256,192,81081,1,0,0:0:0:0:
256,192,82004,1,8,0:0:0:0:
256,192,82235,1,0,0:0:0:0:
256,192,82928,1,0,0:0:0:0:
256,192,83851,1,0,0:0:0:0:
256,192,84783,1,8,0:0:0:0:
