osu file format v14

[General]
AudioFilename: audio.mp3
AudioLeadIn: 0
PreviewTime: 28
Countdown: 0
SampleSet: Soft
StackLeniency: 0.7
Mode: 0
LetterboxInBreaks: 0
WidescreenStoryboard: 0

[Editor]
Bookmarks: 10929,34005,40467,55236,62621,70005,84783
DistanceSpacing: 0.8
BeatDivisor: 8
GridSize: 32
TimelineZoom: 1.9

[Metadata]
Title:Everybody Dies In Their Nightmares
TitleUnicode:Everybody Dies In Their Nightmares
Artist:XXXTENTACION
ArtistUnicode:XXXTENTACION
Creator:Vulkin
Version:-Harpuia-'s Normal
Source:
Tags:17 seventeen potsu don't go to sleep shiloh dynasty Bad Vibes Forever EMPIRE lofi lo-fi hip-hop rap english death depression Ancelysia Nifty -Harpuia- Neptun12 Novarald Clappy
BeatmapID:1673420
BeatmapSetID:773791

[Difficulty]
HPDrainRate:4
CircleSize:3.5
OverallDifficulty:5
ApproachRate:5
SliderMultiplier:1.2
SliderTickRate:1

[Events]
//Background and Video events
0,0,"heartbreak_heartbroken_stormy_relationship_sadness_love_sorrow_divorce_breakup-624694.jpg",0,0
//Break Periods
//Storyboard Layer 0 (Background)
//Storyboard Layer 1 (Fail)
//Storyboard Layer 2 (Pass)
//Storyboard Layer 3 (Foreground)
//Storyboard Layer 4 (Overlay)
//Storyboard Sound Samples

[TimingPoints]
137,432.432432432432,4,2,0,40,1,0
785,412.371134020619,4,2,0,40,1,8
1815,415.22491349481,4,2,0,40,1,0
2022,750,4,2,0,40,1,8
2397,502.092050209205,4,2,0,40,1,8
2648,431.654676258993,4,2,0,40,1,8
3079,460.652591170825,4,2,0,40,1,8
3539,475.247524752475,4,2,0,40,1,0
4251,513.918629550321,4,2,0,40,1,8
4508,447.761194029851,4,2,0,40,1,8
4955,464.2166344294,4,2,0,40,1,8
5419,431.654676258993,4,2,0,40,1,0
6066,552.995391705069,4,2,0,40,1,8
6342,464.2166344294,4,2,0,40,1,8
6806,406.091370558376,4,2,0,40,1,8
7009,495.867768595041,4,2,0,40,1,8
7256,484.574382167663,4,2,0,40,1,0
7982,465.116279069767,4,2,0,40,1,8
8214,464.2166344294,4,2,0,40,1,8
8678,445.269016697588,4,2,0,40,1,8
9123,472.44094488189,4,2,0,40,1,0
9477,508.474576271186,4,2,0,40,1,8
9604,422.535211267605,4,2,0,40,1,8
10026,422.535211267606,4,2,0,40,1,8
10237,461.538461538461,4,2,0,70,1,8
10929,461.538461538461,4,2,0,70,1,0
84313,470.588235294117,4,2,0,70,1,8
84783,432.432432432432,4,2,0,40,1,0
85431,412.371134020619,4,2,0,40,1,8
86461,415.22491349481,4,2,0,40,1,0
86668,750,4,2,0,40,1,8
87043,502.092050209205,4,2,0,40,1,8
87294,431.654676258993,4,2,0,40,1,8
87725,460.652591170825,4,2,0,40,1,8
88185,475.247524752475,4,2,0,40,1,0
88897,513.918629550321,4,2,0,40,1,8
89154,447.761194029851,4,2,0,40,1,8
89601,464.2166344294,4,2,0,40,1,8
90065,431.654676258993,4,2,0,40,1,0
90712,552.995391705069,4,2,0,40,1,8
90988,464.2166344294,4,2,0,40,1,8
91452,406.091370558376,4,2,0,40,1,8
91655,495.867768595041,4,2,0,40,1,8
91902,484.574382167663,4,2,0,40,1,0
92628,465.116279069767,4,2,0,40,1,8
92860,464.2166344294,4,2,0,40,1,8
93324,445.269016697588,4,2,0,40,1,8
93769,472.44094488189,4,2,0,40,1,0
94123,508.474576271186,4,2,0,40,1,8
94250,422.535211267605,4,2,0,40,1,8
94672,517.241379310345,4,2,0,40,1,8
94930,464.2166344294,4,2,0,40,1,8
95162,468.75,4,2,0,40,1,8

[Colours]
Combo1 : 0,128,64
Combo2 : 128,128,128
Combo3 : 255,128,128
Combo4 : 192,192,192

[HitObjects]
169,180,137,5,0,0:0:0:0:
183,202,785,5,0,3:0:0:0:
197,224,1403,5,0,3:0:0:0:
211,246,2022,6,0,L|298:253,1,60,0|0,3:0|3:0,0:0:0:0:
325,256,2648,1,8,0:0:0:0:
392,330,3079,5,0,0:0:0:0:
392,330,3539,2,0,B|372:286|392:242|392:242|410:198|392:155,1,180,2|0,0:0|0:0,0:0:0:0:
365,102,4508,1,8,0:0:0:0:
427,28,4955,1,0,0:0:0:0:
427,28,5419,2,0,B|379:50|379:50|251:39,1,180
193,35,6342,1,8,0:0:0:0:
106,81,6806,5,0,0:0:0:0:
106,81,7256,2,0,P|73:147|116:259,1,180
132,275,8214,1,8,0:0:0:0:
197,167,8678,1,0,0:0:0:0:
197,167,9123,1,0,0:0:0:0:
252,362,10026,1,0,0:0:0:0:
390,234,10928,6,0,P|316:232|270:273,1,120,4|0,3:0|0:0,0:0:0:0:
262,301,11621,2,0,L|183:294,1,60,0|8,0:0|0:0,0:0:0:0:
109,321,12313,1,2,0:0:0:0:
109,321,12775,2,0,P|125:263|100:187,1,120,4|0,3:0|0:0,0:0:0:0:
79,170,13467,2,0,L|101:107,1,60,0|10,0:0|0:0,0:0:0:0:
134,22,14159,5,2,3:0:0:0:
134,22,14621,2,0,B|181:19|214:54|214:54|248:87|295:87,1,180,0|0,3:0|0:0,0:0:0:0:
342,77,15544,1,10,0:0:0:0:
324,171,16005,1,0,0:0:0:0:
324,171,16467,2,0,L|342:313,1,120,4|0,3:0|0:0,0:0:0:0:
407,358,18313,6,0,P|398:294|441:236,1,120,0|0,3:0|0:0,0:0:0:0:
470,234,19005,2,0,L|481:171,1,60,0|8,0:0|0:0,0:0:0:0:
460,82,19698,1,2,0:0:0:0:
460,82,20159,2,0,P|404:96|330:73,1,120,0|0,3:0|0:0,0:0:0:0:
312,45,20852,2,0,L|248:50,1,60,0|10,0:0|0:0,0:0:0:0:
157,67,21544,5,2,3:0:0:0:
157,67,22005,2,0,B|191:127|191:127|169:254,1,180,0|0,3:0|0:0,0:0:0:0:
165,283,22929,1,10,0:0:0:0:
249,327,23390,1,0,0:0:0:0:
249,327,23852,2,0,L|389:338,1,120,4|0,3:0|0:0,0:0:0:0:
442,275,25698,6,0,P|378:281|317:232,1,120,0|0,3:0|0:0,0:0:0:0:
310,210,26390,2,0,L|229:216,1,60,0|8,0:0|0:0,0:0:0:0:
174,273,27082,1,2,0:0:0:0:
174,273,27544,2,0,P|145:211|92:186,1,120,0|0,0:0|0:0,0:0:0:0:
53,179,28236,2,0,L|59:101,1,60,0|10,0:0|0:0,0:0:0:0:
136,60,28929,5,2,3:0:0:0:
136,60,29390,2,0,B|180:45|222:71|222:71|262:95|308:83,1,180,4|0,3:0|0:0,0:0:0:0:
354,67,30313,2,0,L|386:124,1,60,10|4,0:0|3:0,0:0:0:0:
403,163,30775,1,0,0:0:0:0:
346,240,31236,2,0,P|403:225|457:249,2,120,0|0|8,3:0|0:0|3:0,0:0:0:0:
396,321,32621,1,0,0:0:0:0:
396,321,34005,5,0,0:0:0:0:
457,249,34467,1,0,0:0:0:0:
457,249,34929,2,0,P|433:197|459:112,1,120,0|0,0:0|0:0,0:0:0:0:
464,93,35621,2,0,L|429:30,1,60,0|0,0:0|0:0,0:0:0:0:
349,86,36313,5,0,0:0:0:0:
349,86,36775,2,0,P|297:32|190:57,1,180,0|0,0:0|0:0,0:0:0:0:
174,87,37698,1,0,0:0:0:0:
83,56,38159,1,0,0:0:0:0:
83,56,38621,2,0,L|98:196,1,120,4|0,3:0|0:0,0:0:0:0:
200,46,40467,6,0,P|264:104|321:101,1,120,0|0,3:0|0:0,0:0:0:0:
341,101,41159,1,0,0:0:0:0:
381,75,41390,2,0,L|428:206,1,120,8|2,0:0|0:0,0:0:0:0:
496,248,42313,1,0,3:0:0:0:
459,278,42544,2,0,P|395:281|339:240,1,120,0|0,0:0|0:0,0:0:0:0:
326,210,43236,1,10,0:0:0:0:
269,287,43698,5,2,3:0:0:0:
269,287,44159,2,0,P|218:256|158:259,1,120,0|0,3:0|0:0,0:0:0:0:
117,284,44852,2,0,L|66:353,2,60,0|10|0,0:0|0:0|3:0,0:0:0:0:
111,236,45544,1,0,0:0:0:0:
111,236,46005,2,0,P|128:183|110:121,1,120,4|0,3:0|0:0,0:0:0:0:
103,26,46929,2,0,P|140:67|203:82,1,120,10|0,0:0|0:0,0:0:0:0:
289,121,47852,6,0,P|234:132|189:179,1,120,0|0,3:0|0:0,0:0:0:0:
176,223,48544,2,0,L|146:356,1,120,0|0,0:0|0:0,0:0:0:0:
190,365,49236,1,2,0:0:0:0:
272,315,49698,1,4,3:0:0:0:
308,284,49929,2,0,B|343:259|343:259|419:266,1,120,0|0,0:0|0:0,0:0:0:0:
464,248,50621,1,10,0:0:0:0:
457,152,51082,5,2,3:0:0:0:
457,152,51544,2,0,B|409:174|409:174|281:163,1,180,0|0,3:0|0:0,0:0:0:0:
234,160,52467,1,8,0:0:0:0:
145,122,52929,1,0,0:0:0:0:
145,122,53390,2,0,P|141:191|190:245,1,120,4|0,3:0|0:0,0:0:0:0:
197,322,54313,2,0,P|138:284|67:300,1,120,10|0,0:0|1:0,0:0:0:0:
13,345,55236,6,0,L|20:204,1,120,0|0,3:0|0:0,0:0:0:0:
58,197,55929,2,0,B|85:145|85:145|71:74,1,120,0|0,0:0|0:0,0:0:0:0:
66,37,56621,1,2,0:0:0:0:
160,54,57082,1,0,3:0:0:0:
207,63,57313,2,0,P|245:100|325:102,1,120,0|0,0:0|0:0,0:0:0:0:
356,97,58005,1,10,0:0:0:0:
439,48,58467,5,2,3:0:0:0:
439,48,58929,2,0,B|432:127|432:127|459:178,1,120,0|0,3:0|0:0,0:0:0:0:
476,203,59621,2,0,L|517:267,2,60,0|10|0,0:0|0:0|3:0,0:0:0:0:
428,205,60313,1,0,0:0:0:0:
428,205,60775,2,0,P|374:244|312:238,1,120,4|0,3:0|0:0,0:0:0:0:
278,223,61467,2,0,L|214:228,1,60,0|10,0:0|0:0,0:0:0:0:
130,189,62159,5,0,1:0:0:0:
130,189,62621,2,0,P|126:258|175:312,1,120,0|0,3:0|0:0,0:0:0:0:
197,317,63313,2,0,L|316:327,1,120,0|0,0:0|0:0,0:0:0:0:
354,357,64005,1,2,0:0:0:0:
440,315,64467,1,0,3:0:0:0:
440,266,64698,2,0,B|418:228|418:228|428:152,1,120,0|0,0:0|0:0,0:0:0:0:
436,105,65390,1,10,0:0:0:0:
398,16,65852,5,2,3:0:0:0:
398,16,66313,2,0,P|360:63|288:79,1,120,0|0,3:0|0:0,0:0:0:0:
257,79,67005,2,0,L|233:158,2,60,0|10|0,0:0|0:0|3:0,0:0:0:0:
214,55,67698,1,0,0:0:0:0:
214,55,68159,2,0,B|178:35|178:35|99:42,1,120,0|0,3:0|0:0,0:0:0:0:
63,74,68852,2,0,L|-16:67,1,60,0|10,0:0|0:0,0:0:0:0:
31,160,69544,5,2,3:0:0:0:
31,160,70005,2,0,B|110:166|110:166|145:147,1,120,0|0,3:0|0:0,0:0:0:0:
186,122,70698,2,0,L|249:127,1,60,0|8,0:0|0:0,0:0:0:0:
334,89,71390,1,2,3:0:0:0:
334,89,71852,2,0,P|337:158|288:212,1,120,0|0,0:0|0:0,0:0:0:0:
265,215,72544,2,0,L|205:209,1,60,0|8,0:0|0:0,0:0:0:0:
171,299,73236,5,0,0:0:0:0:
171,299,73698,2,0,L|290:309,1,120,8|0,3:0|0:0,0:0:0:0:
326,340,74390,2,0,L|385:334,1,60,0|8,3:0|0:0,0:0:0:0:
481,326,75082,1,0,0:0:0:0:
481,326,75544,2,0,P|439:270|444:213,1,120,4|0,3:0|0:0,0:0:0:0:
414,130,76467,2,0,P|386:194|334:218,1,120,8|0,3:0|0:0,0:0:0:0:
387,302,77390,6,0,P|335:275|278:286,1,120,8|0,3:0|0:0,0:0:0:0:
246,322,78082,2,0,L|186:316,1,60,0|8,0:0|0:0,0:0:0:0:
97,354,78775,1,2,3:0:0:0:
97,354,79236,2,0,L|109:214,1,120,4|0,3:0|0:0,0:0:0:0:
142,201,79929,2,0,L|136:141,1,60,0|8,0:0|0:0,0:0:0:0:
136,45,80621,5,0,0:0:0:0:
136,45,81082,2,0,B|171:64|171:64|250:57,1,120,4|0,3:0|0:0,0:0:0:0:
286,89,81775,2,0,L|345:94,1,60,0|8,3:0|0:0,0:0:0:0:
434,56,82467,1,0,0:0:0:0:
434,56,82929,2,0,P|437:125|388:179,1,120,4|0,3:0|0:0,0:0:0:0:
316,187,83852,2,0,P|312:256|361:310,1,120,4|0,3:0|0:0,0:0:0:0:
440,319,84783,1,0,0:0:0:0:
