osu file format v14

[General]
AudioFilename: audio.mp3
AudioLeadIn: 0
PreviewTime: -1
Countdown: 1
SampleSet: Normal
StackLeniency: 0.4
Mode: 0
LetterboxInBreaks: 0
WidescreenStoryboard: 1

[Editor]
DistanceSpacing: 2
BeatDivisor: 8
GridSize: 4
TimelineZoom: 1.6

[Metadata]
Title:Everybody Dies In Their Nightmares
TitleUnicode:Everybody Dies In Their Nightmares
Artist:XXXTENTACION
ArtistUnicode:XXXTENTACION
Creator:Daren
Version:Anxiety
Source:17
Tags:edgy kids quickiez
BeatmapID:1625823
BeatmapSetID:772536

[Difficulty]
HPDrainRate:5
CircleSize:4
OverallDifficulty:9
ApproachRate:9.2
SliderMultiplier:1.6
SliderTickRate:1

[Events]
//Background and Video events
0,0,"269334ded6d2264af8cae3fb9a171be8.1000x1000x1.jpg",0,0
//Break Periods
//Storyboard Layer 0 (Background)
//Storyboard Layer 1 (Fail)
//Storyboard Layer 2 (Pass)
//Storyboard Layer 3 (Foreground)
//Storyboard Sound Samples

[TimingPoints]
0,659.340659340659,4,1,0,50,1,0
0,-200,4,1,0,50,0,0
923,-192.307692307692,4,1,0,50,0,0
2356,461.538461538462,4,1,0,50,1,0
2586,461.538461538462,4,1,0,50,1,0
3047,-280,4,1,0,50,0,0
9000,-135.135135135135,4,1,0,50,0,0
10153,461.538461538462,4,1,0,50,1,0
10615,-100,4,1,0,50,0,0
13153,-200,4,1,0,50,0,0
13384,-100,4,1,0,50,0,0
17076,-280,4,1,0,50,0,0
18000,-135.135135135135,4,1,0,50,0,0
18230,-100,4,1,0,50,0,0
24923,-200,4,1,0,50,0,0
25153,-133.333333333333,4,1,0,50,0,0
25384,-81.9672131147541,4,1,0,50,0,0
25846,-100,4,1,0,50,0,0
32538,-133.333333333333,4,1,0,50,0,0
32769,-200,4,1,0,50,0,0
33692,-300,4,1,0,50,0,0
34384,-161.290322580645,4,1,0,50,0,0
38769,-133.333333333333,4,1,0,50,0,0
40846,-61.7283950617284,4,1,0,50,0,0
41307,-50,4,1,0,50,0,0
42692,-61.7283950617284,4,1,0,50,0,0
43153,-50,4,1,0,50,0,0
44423,-61.7283950617284,4,1,0,50,0,0
44884,-50,4,1,0,50,0,0
45576,-175.438596491228,4,1,0,50,0,0
48230,-61.7283950617284,4,1,0,50,0,0
48692,-50,4,1,0,50,0,0
50076,-61.7283950617284,4,1,0,50,0,0
50538,-50,4,1,0,50,0,0
51923,-61.7283950617284,4,1,0,50,0,0
52384,-50,4,1,0,50,0,0
54230,-175.438596491228,4,1,0,50,0,0
55500,-61.7283950617284,4,1,0,50,0,0
56076,-50,4,1,0,50,0,0
57461,-61.7283950617284,4,1,0,50,0,0
57923,-50,4,1,0,50,0,0
59307,-61.7283950617284,4,1,0,50,0,0
59769,-50,4,1,0,50,0,0
61384,-175.438596491228,4,1,0,50,0,0
70615,-310,4,1,0,50,0,0
70811,461.538461538462,4,1,0,50,1,0
71272,-310,4,1,0,50,0,0
84657,659.340659340659,4,1,0,50,1,0
84657,-236.641221374046,4,1,0,50,0,0
85481,-133.333333333333,4,1,0,50,0,0
86964,461.538461538462,4,1,0,50,1,0
87195,461.538461538462,4,1,0,50,1,0
87656,-192.307692307692,4,1,0,50,0,0

[HitObjects]
180,56,0,6,0,L|153:117,1,60
70,164,659,2,0,P|106:204|141:216,1,80,0|0,2:0|0:0,0:0:0:0:
224,228,1978,1,0,0:0:0:0:
308,136,2356,1,0,0:0:0:0:
336,260,2586,1,0,0:0:0:0:
328,360,3047,6,0,P|356:355|381:348,1,42.8571428571429
476,272,3509,1,0,0:0:0:0:
456,60,4201,2,0,L|426:77,1,28.5714285714286
400,92,4489,1,0,0:0:0:0:
184,360,4893,6,0,P|145:359|137:355,1,42.8571428571429
28,264,5355,1,0,0:0:0:0:
76,76,6047,2,0,L|108:94,1,28.5714285714286
148,120,6336,1,0,0:0:0:0:
328,24,6739,6,0,P|362:24|377:29,1,42.8571428571429
496,128,7201,1,0,0:0:0:0:
425,306,7893,2,0,L|390:284,1,28.5714285714286
352,260,8182,1,0,0:0:0:0:
164,340,8586,6,0,P|136:320|132:311,1,42.8571428571429
220,236,9047,1,0,0:0:0:0:
48,220,9509,6,0,P|60:200|97:177,1,59.2000014453125
152,144,9970,5,0,0:0:0:0:
328,52,10153,5,0,0:0:0:0:
416,84,10269,1,0,0:0:0:0:
484,156,10384,1,0,0:0:0:0:
504,248,10500,1,0,0:0:0:0:
408,212,10615,1,0,0:0:0:0:
308,224,10730,1,0,0:0:0:0:
228,276,10846,2,0,B|188:278|150:266,1,80
16,200,11153,5,0,0:0:0:0:
16,200,11230,1,0,0:0:0:0:
16,200,11307,2,0,P|32:176|48:164,1,40
156,56,11538,2,0,P|200:68|244:100,1,80
180,212,12000,5,0,0:0:0:0:
268,240,12115,1,0,0:0:0:0:
364,240,12230,1,0,0:0:0:0:
445,297,12346,1,0,0:0:0:0:
383,374,12461,1,0,0:0:0:0:
303,324,12576,1,0,0:0:0:0:
256,244,12692,2,0,B|252:208|276:156,1,80
384,120,13000,5,0,0:0:0:0:
396,76,13076,1,0,0:0:0:0:
352,88,13153,2,0,B|328:64,1,20
228,16,13384,2,0,P|196:52|160:60,1,80
24,116,13846,5,0,0:0:0:0:
55,194,13961,1,0,0:0:0:0:
33,281,14076,1,0,0:0:0:0:
68,361,14192,1,0,0:0:0:0:
151,317,14307,1,0,0:0:0:0:
244,320,14423,1,0,0:0:0:0:
332,348,14538,2,0,P|368:340|404:308,1,80
460,228,14846,6,0,L|468:188,1,26.6666666666667
460,112,15000,1,0,0:0:0:0:
398,27,15115,1,0,0:0:0:0:
296,22,15230,2,0,L|312:114,1,80
316,236,15692,6,0,L|272:264,1,40
233,326,15923,2,0,L|193:310,1,40
103,353,16153,2,0,L|80:313,1,40
4,244,16384,2,0,P|16:208|60:164,1,80
124,104,16692,1,0,0:0:0:0:
172,64,16769,1,0,0:0:0:0:
180,124,16846,5,0,0:0:0:0:
180,124,17076,2,0,L|184:152,1,28.5714285714286
264,352,17537,5,0,0:0:0:0:
304,256,17653,1,0,0:0:0:0:
364,320,17769,1,0,0:0:0:0:
404,228,17884,1,0,0:0:0:0:
468,296,18000,2,0,L|492:276,1,29.6000007226563
508,196,18230,2,0,P|508:156|492:116,1,80
472,24,18538,6,0,L|432:40,1,26.6666666666667
368,92,18692,1,0,0:0:0:0:
257,116,18807,1,0,0:0:0:0:
151,96,18923,2,0,P|132:72|128:24,1,80
8,20,19384,6,0,L|24:64,1,40
56,148,19615,1,0,0:0:0:0:
43,251,19730,1,0,0:0:0:0:
61,351,19846,1,0,0:0:0:0:
160,315,19961,1,0,0:0:0:0:
259,294,20076,2,0,L|310:307,1,40
390,328,20307,1,0,0:0:0:0:
464,265,20384,5,0,0:0:0:0:
471,220,20461,1,0,0:0:0:0:
480,175,20538,1,0,0:0:0:0:
436,20,20769,2,0,L|408:48,1,40
348,128,21000,2,0,L|332:172,1,40
268,252,21230,2,0,L|244:288,1,40
181,356,21461,1,0,0:0:0:0:
86,318,21576,1,0,0:0:0:0:
12,248,21692,5,0,0:0:0:0:
12,248,21769,2,0,L|16:216,1,26.6666666666667
24,112,21923,1,0,0:0:0:0:
96,57,22038,1,0,0:0:0:0:
189,71,22153,1,0,0:0:0:0:
258,135,22269,1,0,0:0:0:0:
324,66,22384,1,0,0:0:0:0:
412,35,22500,1,0,0:0:0:0:
399,125,22615,1,0,0:0:0:0:
417,218,22730,1,0,0:0:0:0:
453,305,22846,6,0,L|405:333,1,40
328,376,23076,5,0,0:0:0:0:
236,364,23153,5,0,0:0:0:0:
196,328,23230,1,0,0:0:0:0:
176,288,23307,2,0,P|184:264|192:252,1,40
242,163,23538,1,0,0:0:0:0:
209,66,23653,1,0,0:0:0:0:
120,20,23769,5,0,0:0:0:0:
146,121,23884,1,0,0:0:0:0:
120,211,24000,1,0,0:0:0:0:
120,211,24230,2,0,P|92:248|80:300,1,80
184,352,24923,6,0,L|204:328,1,20
292,348,25153,2,0,L|296:296,1,30.0000011444092
388,328,25384,2,0,L|372:260,1,48.799997989502
356,188,25615,5,0,0:0:0:0:
380,98,25730,1,0,0:0:0:0:
430,24,25846,2,0,L|452:64,1,40
472,164,26076,1,0,0:0:0:0:
445,269,26192,1,0,0:0:0:0:
360,329,26307,1,0,0:0:0:0:
254,358,26423,1,0,0:0:0:0:
152,338,26538,2,0,P|108:339|76:303,1,80
44,236,26884,5,0,0:0:0:0:
148,220,27000,1,0,0:0:0:0:
221,156,27115,1,0,0:0:0:0:
233,252,27230,1,0,0:0:0:0:
180,342,27346,1,0,0:0:0:0:
277,356,27461,1,0,0:0:0:0:
389,339,27576,5,0,0:0:0:0:
331,253,27692,1,0,0:0:0:0:
339,157,27807,1,0,0:0:0:0:
381,72,27923,2,0,L|417:40,1,40
495,6,28153,2,0,P|520:40|510:93,1,80
472,164,28615,5,0,0:0:0:0:
467,264,28730,1,0,0:0:0:0:
497,374,28846,2,0,P|457:374|405:346,1,80
340,312,29192,1,0,0:0:0:0:
244,268,29307,2,0,P|216:260|192:256,1,40
104,268,29538,1,0,0:0:0:0:
16,204,29615,5,0,0:0:0:0:
16,204,29692,1,0,0:0:0:0:
16,204,29769,2,0,P|16:152|44:104,1,80
101,0,30230,5,0,0:0:0:0:
142,74,30346,1,0,0:0:0:0:
221,108,30461,1,0,0:0:0:0:
247,67,30576,1,0,0:0:0:0:
286,94,30692,1,0,0:0:0:0:
260,134,30807,5,0,0:0:0:0:
234,218,30923,1,0,0:0:0:0:
250,306,31038,1,0,0:0:0:0:
310,383,31153,2,0,L|363:363,1,40
416,288,31384,5,0,0:0:0:0:
427,249,31461,1,0,0:0:0:0:
465,261,31538,1,0,0:0:0:0:
454,299,31615,5,0,0:0:0:0:
464,168,31846,5,0,0:0:0:0:
430,58,32076,5,0,0:0:0:0:
320,8,32307,6,0,L|288:48,1,40
188,64,32538,2,0,L|204:112,1,30.0000011444092
120,192,32769,2,0,L|172:232,1,60
236,296,33230,1,0,0:0:0:0:
328,328,33346,1,0,0:0:0:0:
408,316,33461,1,0,0:0:0:0:
460,280,33576,1,0,0:0:0:0:
484,232,33692,2,0,L|472:176,1,53.3333333333333
404,48,34384,6,0,P|354:44|332:64,1,74.39999704834
446,94,34846,2,0,P|402:38|326:74,1,148.79999409668
256,188,35769,5,0,0:0:0:0:
108,48,36230,6,0,P|157:44|180:64,1,74.39999704834
66,94,36692,2,0,P|110:38|186:74,1,148.79999409668
256,188,37615,5,0,0:0:0:0:
256,384,37846,6,0,L|256:284,1,99.1999960644533
256,188,38538,1,0,0:0:0:0:
256,316,38769,6,0,L|244:280,1,30.0000011444092
168,272,39000,6,0,P|184:236|216:216,1,60.0000022888184
256,188,39461,5,0,0:0:0:0:
364,36,39692,5,0,0:0:0:0:
380,60,39807,1,0,0:0:0:0:
472,112,39923,5,0,0:0:0:0:
464,144,40038,1,0,0:0:0:0:
388,212,40153,5,0,0:0:0:0:
404,244,40269,1,0,0:0:0:0:
464,316,40384,5,0,0:0:0:0:
440,348,40500,1,0,0:0:0:0:
364,377,40615,1,0,0:0:0:0:
276,352,40730,1,0,0:0:0:0:
208,288,40846,6,0,P|200:228|132:216,1,129.600003164063
192,316,41192,5,0,0:0:0:0:
228,320,41307,6,0,P|232:204|120:196,1,240
24,176,41769,5,0,0:0:0:0:
40,140,41884,1,0,0:0:0:0:
120,92,42000,5,0,0:0:0:0:
112,52,42115,1,0,0:0:0:0:
196,144,42230,5,0,0:0:0:0:
212,100,42346,1,0,0:0:0:0:
264,40,42461,1,0,0:0:0:0:
348,8,42576,1,0,0:0:0:0:
444,32,42692,6,0,P|392:72|420:144,1,129.600003164063
480,0,43038,5,0,0:0:0:0:
484,40,43153,6,0,P|428:24|328:152,1,240
392,220,43615,5,0,0:0:0:0:
408,252,43730,1,0,0:0:0:0:
288,324,43846,5,0,0:0:0:0:
316,292,43961,1,0,0:0:0:0:
204,208,44076,5,0,0:0:0:0:
232,240,44192,1,0,0:0:0:0:
198,314,44307,1,0,0:0:0:0:
119,367,44423,1,0,0:0:0:0:
40,344,44538,6,0,P|-8:320|8:248,1,129.600003164063
72,376,44884,5,0,0:0:0:0:
32,384,45000,6,0,P|-40:324|16:208,1,240
100,140,45461,1,0,0:0:0:0:
132,220,45576,2,0,L|156:252,1,22.7999997216797
236,268,45807,2,0,L|252:228,1,22.7999997216797
296,172,46038,1,0,0:0:0:0:
356,100,46153,1,0,0:0:0:0:
448,64,46269,5,0,0:0:0:0:
472,128,46384,1,0,0:0:0:0:
408,116,46500,1,0,0:0:0:0:
460,24,46615,5,0,0:0:0:0:
500,156,46730,1,0,0:0:0:0:
376,128,46846,2,0,P|376:156|360:184,1,45.5999994433594
216,108,47192,5,0,0:0:0:0:
260,172,47307,1,0,0:0:0:0:
108,204,47423,5,0,0:0:0:0:
176,176,47538,1,0,0:0:0:0:
116,128,47653,5,0,0:0:0:0:
168,244,47769,1,0,0:0:0:0:
244,144,47884,5,0,0:0:0:0:
260,256,48000,1,0,0:0:0:0:
352,168,48115,5,0,0:0:0:0:
380,280,48230,6,0,P|312:308|252:264,1,129.600003164063
400,240,48576,5,0,0:0:0:0:
424,272,48692,6,0,P|316:336|220:264,1,240
228,200,49153,5,0,0:0:0:0:
324,112,49269,1,0,0:0:0:0:
264,232,49384,5,0,0:0:0:0:
344,76,49500,1,0,0:0:0:0:
300,252,49615,5,0,0:0:0:0:
360,48,49730,1,0,0:0:0:0:
348,264,49846,5,0,0:0:0:0:
376,20,49961,1,0,0:0:0:0:
404,264,50076,6,0,P|464:236|496:160,1,129.600003164063
372,296,50423,5,0,0:0:0:0:
408,304,50538,6,0,P|520:232|544:132,1,240
488,40,51000,5,0,0:0:0:0:
476,52,51115,1,0,0:0:0:0:
392,96,51230,5,0,0:0:0:0:
380,64,51346,1,0,0:0:0:0:
256,44,51461,5,0,0:0:0:0:
296,72,51576,1,0,0:0:0:0:
192,188,51692,5,0,0:0:0:0:
160,116,51807,1,0,0:0:0:0:
128,44,51923,6,0,P|67:66|24:148,1,129.600003164063
168,16,52269,5,0,0:0:0:0:
120,4,52384,6,0,P|8:72|-16:172,1,240
20,264,52846,1,0,0:0:0:0:
88,332,52961,1,0,0:0:0:0:
188,360,53076,5,0,0:0:0:0:
210,317,53192,1,0,0:0:0:0:
252,340,53307,1,0,0:0:0:0:
230,382,53423,1,0,0:0:0:0:
188,360,53538,5,0,0:0:0:0:
176,296,53653,1,0,0:0:0:0:
239,285,53769,1,0,0:0:0:0:
251,348,53884,5,0,0:0:0:0:
336,372,54000,1,0,0:0:0:0:
436,348,54115,1,0,0:0:0:0:
508,280,54230,6,0,P|500:264|496:232,1,45.5999994433594
452,176,54576,5,0,0:0:0:0:
468,140,54692,1,0,0:0:0:0:
336,168,54807,5,0,0:0:0:0:
372,152,54923,1,0,0:0:0:0:
252,88,55038,5,0,0:0:0:0:
300,92,55153,1,0,0:0:0:0:
224,0,55269,5,0,0:0:0:0:
276,12,55384,1,0,0:0:0:0:
356,28,55500,1,0,0:0:0:0:
436,52,55615,6,0,P|400:124|340:136,1,129.600003164063
436,12,55961,5,0,0:0:0:0:
476,32,56076,6,0,P|444:160|332:172,1,240
248,160,56538,5,0,0:0:0:0:
208,256,56653,1,0,0:0:0:0:
272,128,56769,5,0,0:0:0:0:
176,268,56884,1,0,0:0:0:0:
300,112,57000,5,0,0:0:0:0:
144,272,57115,1,0,0:0:0:0:
328,100,57230,5,0,0:0:0:0:
112,268,57346,1,0,0:0:0:0:
360,84,57461,6,0,P|312:44|220:24,1,129.600003164063
384,124,57807,5,0,0:0:0:0:
408,84,57923,6,0,P|344:12|208:-8,1,240
104,80,58384,5,0,0:0:0:0:
124,56,58500,1,0,0:0:0:0:
48,140,58615,5,0,0:0:0:0:
56,168,58730,1,0,0:0:0:0:
60,272,58846,5,0,0:0:0:0:
72,248,58961,1,0,0:0:0:0:
116,340,59076,5,0,0:0:0:0:
108,364,59192,1,0,0:0:0:0:
224,372,59307,6,0,P|283:313|344:312,1,129.600003164063
184,384,59653,5,0,0:0:0:0:
192,344,59769,6,0,P|280:280|408:280,1,240
476,176,60230,5,0,0:0:0:0:
496,256,60346,1,0,0:0:0:0:
432,96,60461,5,0,0:0:0:0:
396,180,60576,1,0,0:0:0:0:
328,32,60692,5,0,0:0:0:0:
348,116,60807,1,0,0:0:0:0:
296,212,60923,5,0,0:0:0:0:
252,112,61038,1,0,0:0:0:0:
192,288,61153,5,0,0:0:0:0:
212,196,61269,1,0,0:0:0:0:
304,336,61384,6,0,P|300:304|288:284,1,45.5999994433594
292,176,61846,5,0,0:0:0:0:
348,248,61961,1,0,0:0:0:0:
388,100,62076,5,0,0:0:0:0:
368,176,62192,1,0,0:0:0:0:
272,40,62307,5,0,0:0:0:0:
316,108,62423,1,0,0:0:0:0:
168,140,62538,5,0,0:0:0:0:
244,108,62653,1,0,0:0:0:0:
264,252,62769,5,0,0:0:0:0:
228,184,62884,1,0,0:0:0:0:
128,292,63000,5,0,0:0:0:0:
196,248,63115,1,0,0:0:0:0:
112,200,63230,6,0,P|88:188|64:160,1,45.5999994433594
144,44,63692,5,0,0:0:0:0:
96,92,63807,1,0,0:0:0:0:
216,152,63923,5,0,0:0:0:0:
164,108,64038,1,0,0:0:0:0:
284,40,64153,5,0,0:0:0:0:
232,84,64269,1,0,0:0:0:0:
344,160,64384,5,0,0:0:0:0:
300,108,64500,1,0,0:0:0:0:
248,240,64615,5,0,0:0:0:0:
276,176,64730,1,0,0:0:0:0:
352,292,64846,5,0,0:0:0:0:
316,232,64961,1,0,0:0:0:0:
444,196,65076,2,0,P|452:172|456:136,1,45.5999994433594
460,28,65538,5,0,0:0:0:0:
444,68,65653,1,0,0:0:0:0:
352,20,65769,5,0,0:0:0:0:
388,28,65884,1,0,0:0:0:0:
344,128,66000,5,0,0:0:0:0:
356,92,66115,1,0,0:0:0:0:
448,164,66230,5,0,0:0:0:0:
424,128,66346,1,0,0:0:0:0:
380,188,66461,5,0,0:0:0:0:
360,224,66576,1,0,0:0:0:0:
456,272,66692,5,0,0:0:0:0:
440,240,66807,1,0,0:0:0:0:
352,344,66923,6,0,L|364:320,1,22.7999997216797
376,296,67153,5,0,0:0:0:0:
252,352,67384,5,0,0:0:0:0:
232,332,67500,1,0,0:0:0:0:
156,344,67615,5,0,0:0:0:0:
136,360,67730,1,0,0:0:0:0:
52,352,67846,5,0,0:0:0:0:
36,328,67961,1,0,0:0:0:0:
96,272,68076,6,0,L|104:244,1,22.7999997216797
32,216,68307,6,0,L|24:184,1,22.7999997216797
100,160,68538,6,0,L|120:108,1,45.5999994433594
152,36,69000,5,0,0:0:0:0:
272,20,69230,5,0,0:0:0:0:
268,8,69346,1,0,0:0:0:0:
344,60,69461,5,0,0:0:0:0:
344,72,69576,1,0,0:0:0:0:
388,152,69692,5,0,0:0:0:0:
392,136,69807,1,0,0:0:0:0:
412,228,69923,5,0,0:0:0:0:
404,240,70038,1,0,0:0:0:0:
388,324,70153,5,0,0:0:0:0:
400,316,70269,1,0,0:0:0:0:
304,364,70384,5,0,0:0:0:0:
292,372,70500,1,0,0:0:0:0:
192,376,70615,6,0,L|172:356,1,25.8064516129032
60,248,71272,2,0,L|79:210,1,38.7096774193548
60,248,71734,2,0,L|95:177,1,77.4193548387097
160,84,72657,5,0,0:0:0:0:
452,248,73118,2,0,L|436:212,1,38.7096774193548
452,248,73580,2,0,L|420:176,1,77.4193548387097
352,84,74503,5,0,0:0:0:0:
256,32,74734,6,0,L|256:84,1,51.6129032258064
256,192,75426,1,0,0:0:0:0:
256,376,75887,6,0,L|256:320,1,51.6129032258064
256,192,76580,1,0,0:0:0:0:
56,284,76811,2,0,L|64:236,1,38.7096774193548
84,156,77272,1,0,0:0:0:0:
172,24,77503,6,0,L|204:68,1,51.6129032258064
248,128,78195,1,0,0:0:0:0:
456,284,78657,2,0,L|448:236,1,38.7096774193548
428,156,79118,1,0,0:0:0:0:
340,24,79349,6,0,L|308:68,1,51.6129032258064
264,128,80041,1,0,0:0:0:0:
56,100,80503,2,0,L|64:148,1,38.7096774193548
84,228,80964,1,0,0:0:0:0:
172,360,81195,6,0,L|204:316,1,51.6129032258064
248,256,81887,1,0,0:0:0:0:
352,336,82118,2,0,P|376:316|392:292,1,51.6129032258064
448,216,82811,1,0,0:0:0:0:
352,20,83041,6,0,P|376:40|392:64,1,51.6129032258064
448,140,83734,1,0,0:0:0:0:
300,192,83964,6,0,L|344:192,1,38.7096774193548
448,192,84426,1,0,0:0:0:0:
360,307,84657,6,0,L|385:246,1,59.1612906429041
462,160,85481,2,0,P|418:129|379:128,1,90.0000034332277,0|0,2:0|0:0,0:0:0:0:
279,149,86635,1,0,0:0:0:0:
217,258,86964,1,0,0:0:0:0:
162,143,87194,1,0,0:0:0:0:
148,44,87656,6,0,P|102:59|89:74,1,62.3999996191406
23,163,88153,1,0,0:0:0:0:
90,365,88810,2,0,L|131:327,1,41.5999997460938
138,321,89098,1,0,0:0:0:0:
288,12,89502,6,0,P|336:5|354:13,1,62.3999996191406
461,70,89964,1,0,0:0:0:0:
480,275,90656,2,0,L|427:259,1,41.5999997460938
377,237,90945,1,0,0:0:0:0:
223,371,91348,6,0,P|175:378|157:370,1,62.3999996191406
36,308,91810,1,0,0:0:0:0:
31,108,92502,2,0,L|84:124,1,41.5999997460938
148,148,92791,1,0,0:0:0:0:
312,27,93195,6,0,P|344:40|359:53,1,41.5999997460938
281,141,93656,1,0,0:0:0:0:
376,208,94118,6,0,P|346:210|324:224,1,41.5999997460938
280,312,94579,1,0,0:0:0:0:
384,368,95041,6,0,B|384:336|416:328|432:288,1,83.1999994921875
