osu file format v14

[General]
AudioFilename: audio.mp3
AudioLeadIn: 0
PreviewTime: 12646
Countdown: 0
SampleSet: Soft
StackLeniency: 0.7
Mode: 0
LetterboxInBreaks: 0
WidescreenStoryboard: 1

[Editor]
Bookmarks: 147,13480,26813,40146,53480,66813,80146,93480
DistanceSpacing: 1.2
BeatDivisor: 4
GridSize: 8
TimelineZoom: 1.5

[Metadata]
Title:BAD!
TitleUnicode:BAD!
Artist:XXXTENTACION
ArtistUnicode:XXXTENTACION
Creator:eiri-
Version:FrenZ's Hard
Source:
Tags:Ayyri Dashyy- Frenz396 Alphabet Venax Bad Vibes Forever Hip Hop English Mumble Rap
BeatmapID:1888031
BeatmapSetID:904527

[Difficulty]
HPDrainRate:5
CircleSize:2.7
OverallDifficulty:5.5
ApproachRate:6.5
SliderMultiplier:2.3
SliderTickRate:1

[Events]
//Background and Video events
0,0,"BAD.jpg",0,0
//Break Periods
2,53680,65005
//Storyboard Layer 0 (Background)
//Storyboard Layer 1 (Fail)
//Storyboard Layer 2 (Pass)
//Storyboard Layer 3 (Foreground)
//Storyboard Sound Samples

[TimingPoints]
147,833.333333333333,4,2,0,40,1,0
13480,-100,4,2,0,50,0,0
25980,-100,4,2,0,40,0,0
26813,-100,4,2,0,60,0,0
39313,-100,4,2,0,40,0,0
40146,-100,4,2,0,60,0,0
52646,-100,4,2,0,40,0,0
53480,-100,4,2,0,50,0,0
66813,-100,4,2,0,60,0,0
79313,-100,4,2,0,40,0,0
80146,-100,4,2,0,60,0,0
92646,-100,4,2,0,40,0,0
93480,-100,4,2,0,5,0,0

[Colours]
Combo1 : 235,157,14
Combo2 : 248,227,167
Combo3 : 247,179,128
Combo4 : 244,187,81

[HitObjects]
443,283,12646,6,0,L|452:363,2,57.5,0|0|0,0:0|0:0|0:0,0:0:0:0:
423,140,13480,6,0,L|293:151,1,115,0|2,1:0|0:0,0:0:0:0:
182,101,14313,1,8,0:0:0:0:
217,241,14730,2,0,P|216:281|204:308,1,57.5,2|2,0:0|0:0,0:0:0:0:
131,363,15146,1,8,0:0:0:0:
131,363,15355,1,0,0:0:0:0:
131,363,15563,1,2,0:0:0:0:
110,222,15980,2,0,L|103:164,1,57.5,8|0,0:0|0:0,0:0:0:0:
10,128,16396,2,0,L|16:70,1,57.5,10|2,0:0|0:0,0:0:0:0:
106,15,16813,6,0,L|220:24,1,115,0|2,1:0|0:0,0:0:0:0:
298,145,17646,1,8,0:0:0:0:
412,53,18063,2,0,P|445:68|471:99,1,57.5,2|2,0:0|0:0,0:0:0:0:
469,176,18480,1,8,0:0:0:0:
469,176,18688,1,0,0:0:0:0:
469,176,18896,1,2,0:0:0:0:
324,240,19313,2,0,L|266:233,1,57.5,8|0,0:0|0:0,0:0:0:0:
205,307,19730,2,0,L|147:313,1,57.5,8|0,0:0|0:0,0:0:0:0:
48,342,20146,6,0,L|57:227,1,115,0|2,1:0|0:0,0:0:0:0:
112,107,20980,1,8,0:0:0:0:
194,210,21396,2,0,L|252:217,1,57.5,2|2,0:0|0:0,0:0:0:0:
347,181,21813,2,0,P|352:152|349:124,1,57.5,8|0,0:0|0:0,0:0:0:0:
298,33,22230,1,2,0:0:0:0:
201,153,22646,2,0,L|194:210,1,57.5,8|0,0:0|0:0,0:0:0:0:
284,248,23063,2,4,L|290:305,1,57.5,2|2,0:0|0:0,0:0:0:0:
361,355,23480,6,0,P|420:359|471:307,1,115,0|2,1:0|0:0,0:0:0:0:
475,174,24313,2,0,L|466:59,1,115,8|2,0:0|0:0,0:0:0:0:
378,26,24938,1,2,0:0:0:0:
283,40,25146,2,0,L|292:155,1,115,8|2,0:0|0:0,0:0:0:0:
124,47,25980,2,0,L|128:104,2,57.5,0|0|0,0:0|0:0|0:0,0:0:0:0:
37,181,26813,5,4,1:3:0:0:
83,187,27021,1,4,0:3:0:0:
131,193,27230,1,4,0:3:0:0:
7,309,27646,1,8,0:0:0:0:
129,287,28063,2,0,P|164:283|205:297,1,57.5,2|2,0:0|0:0,0:0:0:0:
278,308,28480,2,0,L|274:365,2,57.5,2|8|4,0:0|0:0|0:3,0:0:0:0:
420,362,29313,2,0,L|416:305,1,57.5,8|0,0:0|0:0,0:0:0:0:
497,267,29730,2,0,L|501:210,1,57.5,10|2,0:0|0:0,0:0:0:0:
477,116,30146,5,4,1:3:0:0:
486,62,30355,1,4,0:3:0:0:
492,8,30563,1,4,0:3:0:0:
337,35,30980,1,8,0:0:0:0:
370,181,31396,2,0,P|334:185|302:175,1,57.5,2|2,0:0|0:0,0:0:0:0:
245,110,31813,2,0,L|249:53,2,57.5,2|8|4,0:0|0:0|0:3,0:0:0:0:
96,140,32646,2,0,L|100:83,1,57.5,8|0,0:0|0:0,0:0:0:0:
27,27,33063,1,8,0:0:0:0:
16,192,33480,5,4,1:3:0:0:
12,240,33688,1,4,0:3:0:0:
9,287,33896,1,4,0:3:0:0:
96,140,34313,1,8,0:0:0:0:
168,257,34730,2,0,P|165:299|174:326,1,57.5,2|2,0:0|0:0,0:0:0:0:
249,357,35146,2,0,L|306:361,1,57.5,2|8,0:0|0:0,0:0:0:0:
405,365,35563,1,4,0:3:0:0:
479,203,35980,2,0,L|422:199,1,57.5,8|0,0:0|0:0,0:0:0:0:
337,260,36396,2,0,L|280:256,1,57.5,10|2,0:0|0:0,0:0:0:0:
168,257,36813,5,4,1:3:0:0:
176,204,37021,1,4,0:3:0:0:
183,151,37230,1,4,0:3:0:0:
35,221,37646,1,8,0:0:0:0:
106,98,38063,2,0,P|133:70|172:60,1,57.5,2|2,0:0|0:0,0:0:0:0:
244,58,38480,6,0,L|301:54,1,57.5,2|8,0:0|0:0,0:0:0:0:
349,135,38896,2,0,L|406:131,1,57.5,4|0,0:3|0:0,0:0:0:0:
484,69,39313,2,0,P|504:128|488:192,1,115
418,286,40146,5,4,1:3:0:0:
424,332,40355,1,4,0:3:0:0:
429,380,40563,1,4,0:3:0:0:
270,336,40980,1,8,0:0:0:0:
418,286,41396,2,0,P|396:270|357:263,1,57.5,2|2,0:0|0:0,0:0:0:0:
271,242,41813,1,2,0:0:0:0:
271,242,42021,1,8,0:0:0:0:
271,242,42230,1,4,0:3:0:0:
160,363,42646,2,0,P|109:332|102:275,1,115,8|2,0:0|0:0,0:0:0:0:
108,139,43480,5,4,1:3:0:0:
114,80,43688,1,4,0:3:0:0:
119,24,43896,1,4,0:3:0:0:
278,100,44313,1,8,0:0:0:0:
108,139,44730,2,0,P|112:167|126:192,1,57.5,2|2,0:0|0:0,0:0:0:0:
235,200,45146,2,0,P|269:159|275:87,1,115,2|4,0:0|0:3,0:0:0:0:
119,24,45980,2,0,L|5:32,1,115,8|8,0:0|0:0,0:0:0:0:
108,139,46813,5,4,1:3:0:0:
103,195,47021,1,4,0:3:0:0:
97,254,47229,1,4,0:3:0:0:
235,200,47646,1,8,0:0:0:0:
241,346,48063,2,0,P|270:359|310:352,1,57.5,2|2,0:0|0:0,0:0:0:0:
392,352,48480,1,2,0:0:0:0:
392,352,48688,1,8,0:0:0:0:
392,352,48896,1,4,0:3:0:0:
325,210,49313,2,0,P|324:175|313:147,1,57.5,8|0,0:0|0:0,0:0:0:0:
272,71,49730,2,0,P|300:62|328:61,1,57.5,2|2,0:0|0:0,0:0:0:0:
424,24,50146,5,4,1:3:0:0:
424,24,50355,1,4,0:3:0:0:
424,24,50563,2,0,P|435:51|435:80,1,57.5,4|0,0:3|0:0,0:0:0:0:
439,177,50980,2,0,L|309:186,1,115,8|2,0:0|0:0,0:0:0:0:
216,312,51813,2,0,L|224:235,1,57.5
230,205,52230,1,4,0:3:0:0:
228,63,52646,6,0,P|194:74|164:108,1,57.5
119,21,53063,2,0,P|97:44|86:71,1,57.5
55,178,53480,5,0,1:0:0:0:
324,344,65980,6,0,L|228:336,2,57.5
452,350,66813,5,4,1:3:0:0:
447,295,67021,1,4,0:3:0:0:
442,235,67230,1,4,0:3:0:0:
324,344,67646,1,8,0:0:0:0:
292,193,68063,2,0,P|294:152|308:125,1,57.5,2|2,0:0|0:0,0:0:0:0:
379,84,68480,1,2,0:0:0:0:
379,84,68688,1,8,0:0:0:0:
379,84,68896,1,4,0:3:0:0:
218,26,69313,2,0,L|104:18,1,115,8|10,0:0|0:0,0:0:0:0:
3,112,70146,5,4,1:3:0:0:
7,169,70355,1,4,0:3:0:0:
15,227,70563,1,4,0:3:0:0:
115,116,70980,1,8,0:0:0:0:
211,194,71396,2,0,P|204:230|185:262,1,57.5,2|2,0:0|0:0,0:0:0:0:
100,289,71813,2,0,L|96:346,1,57.5,2|8,0:0|0:0,0:0:0:0:
191,377,72230,1,4,0:3:0:0:
320,307,72646,2,0,P|290:310|265:326,1,57.5,8|0,0:0|0:0,0:0:0:0:
191,377,73063,1,8,0:0:0:0:
431,345,73480,5,4,1:3:0:0:
437,286,73688,1,4,0:3:0:0:
442,227,73896,1,4,0:3:0:0:
320,307,74313,1,8,0:0:0:0:
270,162,74730,2,0,P|239:153|196:160,1,57.5,2|2,0:0|0:0,0:0:0:0:
124,193,75146,2,0,L|120:136,1,57.5,2|8,0:0|0:0,0:0:0:0:
112,42,75563,1,4,0:3:0:0:
259,1,75980,2,0,L|263:58,1,57.5,8|0,0:0|0:0,0:0:0:0:
358,65,76396,2,0,L|362:122,1,57.5,10|2,0:0|0:0,0:0:0:0:
270,162,76813,5,4,1:3:0:0:
274,222,77021,1,4,0:3:0:0:
280,281,77230,1,4,0:3:0:0:
407,213,77646,1,8,0:0:0:0:
427,336,78063,2,0,P|393:337|362:324,1,57.5,2|2,0:0|0:0,0:0:0:0:
280,281,78480,6,0,L|223:285,1,57.5,2|8,0:0|0:0,0:0:0:0:
171,366,78896,2,0,L|114:370,1,57.5,4|0,0:3|0:0,0:0:0:0:
12,379,79313,2,0,P|19:325|75:279,1,115
121,167,80146,5,4,1:3:0:0:
116,104,80355,1,4,0:3:0:0:
112,42,80563,1,4,0:3:0:0:
263,102,80980,1,8,0:0:0:0:
121,167,81396,2,0,P|138:190|180:211,1,57.5,2|2,0:0|0:0,0:0:0:0:
267,221,81813,1,2,0:0:0:0:
267,221,82021,1,8,0:0:0:0:
267,221,82230,2,0,P|255:275|301:354,1,115,4|8,0:3|0:0,0:0:0:0:
436,368,83063,2,0,P|443:330|436:296,1,57.5,2|2,0:0|0:0,0:0:0:0:
426,221,83480,5,4,1:3:0:0:
418,159,83688,1,4,0:3:0:0:
406,95,83896,1,4,0:3:0:0:
278,192,84313,1,8,0:0:0:0:
336,36,84730,2,0,P|311:53|295:85,1,57.5,2|2,0:0|0:0,0:0:0:0:
213,126,85146,1,2,0:0:0:0:
213,126,85355,1,8,0:0:0:0:
213,126,85563,1,4,0:3:0:0:
98,89,85980,1,8,0:0:0:0:
104,233,86396,1,8,0:0:0:0:
0,167,86813,5,4,1:3:0:0:
46,201,87022,1,4,0:3:0:0:
104,233,87230,1,4,0:3:0:0:
98,89,87646,1,8,0:0:0:0:
191,216,88063,2,0,P|196:242|188:272,1,57.5,2|2,0:0|0:0,0:0:0:0:
161,354,88480,1,2,0:0:0:0:
161,354,88688,1,8,0:0:0:0:
161,354,88896,2,0,P|210:358|270:294,1,115,4|8,0:3|0:0,0:0:0:0:
370,231,89730,2,0,P|384:254|390:286,1,57.5,2|2,0:0|0:0,0:0:0:0:
469,342,90146,5,4,1:3:0:0:
478,282,90355,1,4,0:3:0:0:
485,222,90563,1,4,0:3:0:0:
376,116,90980,1,8,0:0:0:0:
244,184,91396,2,0,P|233:149|236:110,1,57.5,2|2,0:0|0:0,0:0:0:0:
292,56,91813,1,2,0:0:0:0:
292,56,92021,1,8,0:0:0:0:
292,56,92230,1,4,0:3:0:0:
244,184,92646,6,2,B|170:178|170:178|106:206|106:206|2:197,1,230,0|0,0:0|0:0,0:1:0:0:
