osu file format v14

[General]
AudioFilename: audio.mp3
AudioLeadIn: 0
PreviewTime: 12646
Countdown: 0
SampleSet: Soft
StackLeniency: 0.3
Mode: 0
LetterboxInBreaks: 0
WidescreenStoryboard: 1

[Editor]
Bookmarks: 147,13480,26813,40146,53480,66813,80146,93480
DistanceSpacing: 1.4
BeatDivisor: 4
GridSize: 32
TimelineZoom: 1.7

[Metadata]
Title:BAD!
TitleUnicode:BAD!
Artist:XXXTENTACION
ArtistUnicode:XXXTENTACION
Creator:eiri-
Version:Alphabet's Insane
Source:
Tags:Ayyri Dashyy- Frenz396 Alphabet Venax Bad Vibes Forever Hip Hop English Mumble Rap
BeatmapID:1888029
BeatmapSetID:904527

[Difficulty]
HPDrainRate:5.8
CircleSize:4
OverallDifficulty:7
ApproachRate:8
SliderMultiplier:3.3
SliderTickRate:1

[Events]
//Background and Video events
0,0,"BAD.jpg",0,0
//Break Periods
//Storyboard Layer 0 (Background)
//Storyboard Layer 1 (Fail)
//Storyboard Layer 2 (Pass)
//Storyboard Layer 3 (Foreground)
//Storyboard Sound Samples

[TimingPoints]
147,833.333333333333,4,2,0,40,1,0
13480,-133.333333333333,4,2,0,50,0,0
19730,-200,4,2,0,50,0,0
20146,-133.333333333333,4,2,0,50,0,0
26813,-100,4,2,0,60,0,0
39313,-133.333333333333,4,2,0,40,0,0
40146,-100,4,2,0,60,0,0
49313,-133.333333333333,4,2,0,60,0,0
52646,-133.333333333333,4,2,0,40,0,0
53480,-133.333333333333,4,2,0,50,0,0
66813,-100,4,2,0,60,0,0
79313,-133.333333333333,4,2,0,40,0,0
80146,-100,4,2,0,60,0,0
92646,-200,4,2,0,40,0,0
93480,-100,4,2,0,5,0,0

[Colours]
Combo1 : 235,157,14
Combo2 : 248,227,167
Combo3 : 247,179,128
Combo4 : 244,187,81

[HitObjects]
446,99,13480,6,0,P|393:77|327:100,2,123.750004720688,0|2|8,1:0|0:0|0:0,0:0:0:0:
446,99,14730,2,0,L|438:173,1,61.875002360344,2|2,0:0|0:0,0:0:0:0:
446,324,15146,1,8,0:0:0:0:
357,295,15355,1,0,0:0:0:0:
426,232,15563,1,2,0:0:0:0:
426,232,15980,2,0,L|404:303,1,61.875002360344,8|0,0:0|0:0,0:0:0:0:
292,346,16396,2,0,L|273:286,1,61.875002360344,8|0,0:0|0:0,0:0:0:0:
100,350,16813,6,0,P|143:373|227:342,2,123.750004720688,0|2|8,1:0|0:0|0:0,0:0:0:0:
100,350,18063,2,0,L|108:276,1,61.875002360344,2|2,0:0|0:0,0:0:0:0:
138,111,18479,1,8,0:0:0:0:
227,140,18688,1,0,0:0:0:0:
158,203,18896,1,2,0:0:0:0:
158,203,19313,2,0,P|118:202|85:213,1,61.875002360344,8|0,0:0|0:0,0:0:0:0:
25,272,19730,6,0,P|51:273|75:286,1,41.25,8|0,0:0|0:0,0:0:0:0:
214,369,20146,6,0,P|199:313|230:243,2,123.750004720688,0|2|8,1:0|0:0|0:0,0:0:0:0:
214,369,21396,2,0,L|288:364,1,61.875002360344,2|2,0:0|0:0,0:0:0:0:
339,226,21813,2,0,L|344:300,1,61.875002360344,8|0,0:0|0:0,0:0:0:0:
259,155,22230,1,2,0:0:0:0:
252,149,22646,2,0,L|257:223,1,61.875002360344,8|0,0:0|0:0,0:0:0:0:
343,287,23063,2,0,L|338:361,1,61.875002360344,10|2,0:0|0:0,0:0:0:0:
493,243,23480,5,0,1:0:0:0:
402,225,23688,1,0,0:0:0:0:
311,207,23896,1,2,0:0:0:0:
304,199,24313,5,8,0:0:0:0:
395,181,24521,1,0,0:0:0:0:
486,162,24730,2,0,L|482:90,1,61.875002360344,2|2,0:0|0:0,0:0:0:0:
431,325,25146,5,8,0:0:0:0:
431,325,25563,2,0,L|433:353,2,15.468750590086,2|0|0,0:0|0:0|0:0,0:0:0:0:
441,229,26813,5,4,1:3:0:0:
285,199,27021,1,4,0:3:0:0:
352,311,27230,1,4,0:3:0:0:
352,311,27646,2,0,L|361:216,1,82.5,8|0,0:0|0:0,0:0:0:0:
227,102,28063,2,0,P|225:131|228:151,1,41.25,2|0,0:0|0:0,0:0:0:0:
180,198,28271,2,0,P|182:227|179:247,1,41.25,2|0,0:0|0:0,0:0:0:0:
201,322,28480,5,2,0:0:0:0:
90,236,28688,1,8,0:0:0:0:
263,260,28896,2,0,P|287:303|280:357,1,82.5,4|0,0:3|0:0,0:0:0:0:
118,318,29313,1,8,0:0:0:0:
118,318,29730,2,0,L|110:368,1,41.25,10|0,0:0|0:0,0:0:0:0:
58,204,29938,2,0,L|66:254,1,41.25,2|0,0:0|0:0,0:0:0:0:
110,93,30146,5,4,1:3:0:0:
201,153,30355,1,4,0:3:0:0:
24,99,30563,1,4,0:3:0:0:
24,99,30980,2,0,P|28:56|59:20,1,82.5,8|0,0:0|0:0,0:0:0:0:
214,41,31396,2,0,P|243:42|261:39,1,41.25,2|0,0:0|0:0,0:0:0:0:
151,93,31605,2,0,P|122:94|104:91,1,41.25,2|0,0:0|0:0,0:0:0:0:
266,148,31813,6,0,P|309:146|360:128,1,82.5,2|8,0:0|0:0,0:0:0:0:
505,180,32230,2,0,B|418:176|452:241|347:233,1,165,4|8,0:3|0:0,0:0:0:0:
355,233,33063,1,8,0:0:0:0:
122,332,33480,5,4,1:3:0:0:
294,289,33688,1,4,0:3:0:0:
204,359,33896,1,4,0:3:0:0:
204,359,34313,2,0,L|202:260,1,82.5,8|0,0:0|0:0,0:0:0:0:
229,130,34730,2,0,P|207:149|183:154,1,41.25,2|0,0:0|0:0,0:0:0:0:
119,140,34938,2,0,P|91:130|75:112,1,41.25,2|0,0:0|0:0,0:0:0:0:
34,58,35146,5,2,0:0:0:0:
70,220,35355,1,8,0:0:0:0:
141,65,35563,1,4,0:3:0:0:
132,72,35980,5,8,0:0:0:0:
71,204,36188,1,0,0:0:0:0:
41,66,36396,2,0,P|41:42|50:20,1,41.25,10|0,0:0|0:0,0:0:0:0:
150,162,36605,2,0,P|156:181|155:202,1,41.25,2|0,0:0|0:0,0:0:0:0:
45,308,36813,5,4,1:3:0:0:
224,267,37021,1,4,0:3:0:0:
71,204,37230,1,4,0:3:0:0:
80,213,37646,5,8,0:0:0:0:
200,266,37855,1,0,0:0:0:0:
59,298,38063,2,0,P|89:301|107:298,1,41.25,2|0,0:0|0:0,0:0:0:0:
223,352,38271,2,0,P|193:354|175:351,1,41.25,2|0,0:0|0:0,0:0:0:0:
80,213,38480,6,0,L|86:122,1,82.5,2|8,0:0|0:0,0:0:0:0:
162,43,38896,2,0,L|167:125,1,82.5,4|0,0:3|0:0,0:0:0:0:
301,169,39313,6,0,P|294:130|305:95,2,61.875002360344,0|0|0,0:0|0:0|0:0,0:0:0:0:
301,169,40146,5,4,1:3:0:0:
472,212,40355,1,4,0:3:0:0:
380,292,40563,1,4,0:3:0:0:
380,292,40980,2,0,L|375:196,1,82.5,8|0,0:0|0:0,0:0:0:0:
304,326,41396,2,0,P|295:290|298:272,1,41.25,2|0,0:0|0:0,0:0:0:0:
226,193,41605,2,0,P|217:229|220:247,1,41.25,2|0,0:0|0:0,0:0:0:0:
196,352,41813,6,0,L|193:259,1,82.5,2|8,0:0|0:0,0:0:0:0:
124,168,42230,2,0,P|116:216|123:259,1,82.5,4|0,0:3|0:0,0:0:0:0:
16,339,42646,2,0,P|33:298|9:207,1,123.75,8|0,0:0|0:0,0:0:0:0:
30,217,43063,2,0,P|26:187|28:173,1,41.25,2|0,0:0|0:0,0:0:0:0:
66,101,43271,2,0,P|89:82|103:77,1,41.25,2|0,0:0|0:0,0:0:0:0:
239,96,43480,5,4,1:3:0:0:
133,194,43688,1,4,0:3:0:0:
280,170,43896,2,0,P|313:137|319:78,1,82.5,4|0,0:3|0:0,0:0:0:0:
239,96,44313,2,0,L|233:237,1,123.75,8|0,0:0|0:0,0:0:0:0:
254,244,44730,2,0,L|243:292,1,41.25,2|0,0:0|0:0,0:0:0:0:
329,360,44938,2,0,L|319:319,1,41.25,2|0,0:0|0:0,0:0:0:0:
406,207,45146,5,2,0:0:0:0:
461,271,45355,1,8,0:0:0:0:
338,248,45563,2,0,P|327:209|342:158,1,82.5,4|0,0:3|0:0,0:0:0:0:
216,86,45980,2,0,P|235:137|176:233,1,165,8|8,0:0|0:0,0:0:0:0:
185,228,46813,5,4,1:3:0:0:
67,166,47021,1,4,0:3:0:0:
67,303,47230,1,4,0:3:0:0:
67,303,47646,2,0,L|171:299,1,82.5,8|0,0:0|0:0,0:0:0:0:
282,348,48063,2,0,L|227:339,1,41.25,2|0,0:0|0:0,0:0:0:0:
185,228,48271,2,0,L|240:219,1,41.25,2|0,0:0|0:0,0:0:0:0:
361,196,48480,5,2,0:0:0:0:
292,268,48688,1,8,0:0:0:0:
232,139,48896,2,0,P|231:96|256:48,1,82.5,4|0,0:3|0:0,0:0:0:0:
385,84,49313,6,0,P|338:111|330:135,1,61.875002360344,8|0,0:0|0:0,0:0:0:0:
463,182,49730,2,0,P|461:160|452:135,2,30.937501180172,2|0|2,0:0|0:0|0:0,0:0:0:0:
398,277,50146,6,0,P|368:270|345:249,1,61.875002360344,4|4,1:3|0:3,0:0:0:0:
264,208,50563,2,0,P|273:237|266:266,1,61.875002360344,4|0,0:3|0:0,0:0:0:0:
198,336,50980,2,0,P|149:331|102:333,1,92.812503540516,8|0,0:0|0:0,0:0:0:0:
85,346,51396,2,0,P|80:329|83:306,2,30.937501180172,2|0|2,0:0|0:0|0:0,0:0:0:0:
131,198,51813,6,0,P|135:238|127:272,1,61.875002360344,2|8,0:0|0:0,0:0:0:0:
26,256,52230,2,0,P|21:225|26:194,1,61.875002360344,4|0,0:3|0:0,0:0:0:0:
81,123,52646,1,0,0:0:0:0:
331,291,53480,6,0,P|378:277|439:313,2,123.750004720688,0|2|8,1:0|0:0|0:0,0:0:0:0:
331,291,54730,2,0,L|328:212,1,61.875002360344,2|2,0:0|0:0,0:0:0:0:
240,149,55146,1,8,0:0:0:0:
326,146,55355,1,0,0:0:0:0:
412,143,55563,1,2,0:0:0:0:
412,143,55980,2,0,L|408:68,1,61.875002360344,8|0,0:0|0:0,0:0:0:0:
276,39,56396,1,2,0:0:0:0:
326,146,56605,1,2,0:0:0:0:
194,219,56813,6,0,P|162:186|167:106,2,123.750004720688,0|2|8,1:0|0:0|0:0,0:0:0:0:
194,219,58063,2,0,L|112:218,1,61.875002360344,2|2,0:0|0:0,0:0:0:0:
48,306,58480,1,8,0:0:0:0:
51,219,58688,1,0,0:0:0:0:
54,132,58896,1,2,0:0:0:0:
54,132,59313,1,8,0:0:0:0:
347,294,60146,6,0,P|307:307|224:276,2,123.750004720688,0|2|8,1:0|0:0|0:0,0:0:0:0:
347,294,61396,2,0,L|354:376,1,61.875002360344,2|2,0:0|0:0,0:0:0:0:
442,210,61813,2,0,L|435:292,1,61.875002360344,8|0,0:0|0:0,0:0:0:0:
343,151,62230,1,2,0:0:0:0:
343,151,62646,2,0,L|350:233,1,61.875002360344,8|0,0:0|0:0,0:0:0:0:
436,271,63063,2,0,L|429:353,1,61.875002360344,2|2,0:0|0:0,0:0:0:0:
239,224,63480,5,0,1:0:0:0:
271,326,63688,1,0,0:0:0:0:
167,303,63896,1,2,0:0:0:0:
179,300,64313,5,8,0:0:0:0:
263,319,64521,1,0,0:0:0:0:
237,236,64730,2,0,L|255:162,1,61.875002360344,2|2,0:0|0:0,0:0:0:0:
218,335,65146,5,0,0:0:0:0:
218,335,65563,2,0,L|240:340,2,15.468750590086,2|0|0,0:0|0:0|0:0,0:0:0:0:
218,335,66813,5,4,1:3:0:0:
105,251,67021,1,4,0:3:0:0:
220,197,67230,1,4,0:3:0:0:
220,197,67646,2,0,P|230:145|217:102,1,82.5,8|0,0:0|0:0,0:0:0:0:
93,25,68063,2,0,P|94:48|91:71,1,41.25,2|0,0:0|0:0,0:0:0:0:
121,134,68271,2,0,P|120:157|123:180,1,41.25,2|0,0:0|0:0,0:0:0:0:
71,236,68480,5,2,0:0:0:0:
220,197,68688,1,8,0:0:0:0:
157,334,68896,2,0,L|149:244,1,82.5,4|0,0:3|0:0,0:0:0:0:
290,143,69313,1,8,0:0:0:0:
290,143,69730,2,0,L|335:146,1,41.25,10|0,0:0|0:0,0:0:0:0:
416,212,69938,2,0,L|371:215,1,41.25,2|0,0:0|0:0,0:0:0:0:
302,269,70146,5,4,1:3:0:0:
462,294,70355,1,4,0:3:0:0:
409,135,70563,1,4,0:3:0:0:
409,135,70980,2,0,P|402:90|411:46,1,82.5,8|0,0:0|0:0,0:0:0:0:
271,41,71396,2,0,P|291:39|320:28,1,41.25,2|0,0:0|0:0,0:0:0:0:
201,106,71605,2,0,P|181:104|152:93,1,41.25,2|0,0:0|0:0,0:0:0:0:
292,212,71813,6,0,P|301:158|291:124,1,82.5,2|8,0:0|0:0,0:0:0:0:
61,168,72230,2,0,B|140:148|128:240|225:208,1,165,4|8,0:3|0:0,0:0:0:0:
211,211,73063,1,8,0:0:0:0:
425,282,73480,5,4,1:3:0:0:
292,212,73688,1,4,0:3:0:0:
347,351,73896,1,4,0:3:0:0:
347,351,74313,2,0,L|343:259,1,82.5,8|0,0:0|0:0,0:0:0:0:
395,106,74730,2,0,P|395:130|383:153,1,41.25,2|0,0:0|0:0,0:0:0:0:
329,197,74938,2,0,P|308:209|282:210,1,41.25,2|0,0:0|0:0,0:0:0:0:
210,205,75146,5,2,0:0:0:0:
125,318,75355,1,8,0:0:0:0:
113,173,75563,1,4,0:3:0:0:
118,181,75980,5,8,0:0:0:0:
128,305,76188,1,0,0:0:0:0:
200,209,76396,2,0,P|206:169|204:151,1,41.25,10|0,0:0|0:0,0:0:0:0:
148,46,76605,2,0,P|149:66|153:86,1,41.25,2|0,0:0|0:0,0:0:0:0:
285,156,76813,5,4,1:3:0:0:
98,181,77021,1,4,0:3:0:0:
257,64,77230,1,4,0:3:0:0:
251,74,77646,5,8,0:0:0:0:
113,173,77855,1,0,0:0:0:0:
275,152,78063,2,0,P|301:142|323:119,1,41.25,2|0,0:0|0:0,0:0:0:0:
170,53,78271,2,0,P|144:63|122:86,1,41.25,2|0,0:0|0:0,0:0:0:0:
98,181,78480,2,0,L|103:270,1,82.5,2|8,0:0|0:0,0:0:0:0:
187,357,78896,2,0,L|191:274,1,82.5,4|0,0:3|0:0,0:0:0:0:
228,164,79313,6,0,P|182:156|158:167,2,61.875002360344
282,359,80146,5,4,1:3:0:0:
312,247,80355,1,4,0:3:0:0:
342,135,80563,1,4,0:3:0:0:
342,135,80980,2,0,P|390:133|470:228,1,165,8|2,0:0|0:0,0:0:0:0:
467,210,81605,1,2,0:0:0:0:
310,328,81813,6,0,P|315:282|311:243,2,82.5,2|8|4,0:0|0:0|0:3,0:0:0:0:
310,328,82646,2,0,P|252:320|173:336,1,123.75,8|0,0:0|0:0,0:0:0:0:
176,318,83063,2,0,P|138:327|89:311,1,82.5,2|2,0:0|0:0,0:0:0:0:
16,248,83480,5,4,1:3:0:0:
36,158,83688,1,4,0:3:0:0:
56,69,83896,1,4,0:3:0:0:
56,69,84313,2,0,P|118:76|184:3,1,165,8|2,0:0|0:0,0:0:0:0:
183,5,84938,1,2,0:0:0:0:
318,34,85146,6,0,P|308:82|314:130,2,82.5,2|8|4,0:0|0:0|0:3,0:0:0:0:
318,34,85980,2,0,B|401:31|381:111|474:100,1,165,8|8,0:0|0:0,0:0:0:0:
495,321,86813,5,4,1:3:0:0:
381,303,87021,1,4,0:3:0:0:
266,284,87230,1,4,0:3:0:0:
266,284,87646,2,0,L|251:99,1,165,8|2,0:0|0:0,0:0:0:0:
252,119,88271,1,2,0:0:0:0:
142,202,88480,6,0,P|100:208|52:182,2,82.5,2|8|4,0:0|0:0|0:3,0:0:0:0:
142,202,89313,2,0,P|138:268|148:343,1,123.75,8|0,0:0|0:0,0:0:0:0:
160,343,89730,2,0,P|202:344|247:356,1,82.5,2|2,0:0|0:0,0:0:0:0:
358,363,90146,5,4,1:3:0:0:
427,302,90355,1,4,0:3:0:0:
498,251,90563,1,4,0:3:0:0:
498,251,90980,2,0,L|506:86,1,165,8|2,0:0|0:0,0:0:0:0:
505,86,91605,1,2,0:0:0:0:
392,181,91813,6,0,P|342:187|300:171,2,82.5,2|8|4,0:0|0:0|0:3,0:0:0:0:
392,181,92646,6,2,L|382:11,1,165,0|0,0:0|0:0,0:1:0:0:
