osu file format v14

[General]
AudioFilename: audio.mp3
AudioLeadIn: 0
PreviewTime: 42293
Countdown: 0
SampleSet: Normal
StackLeniency: 0.7
Mode: 1
LetterboxInBreaks: 0
WidescreenStoryboard: 1

[Editor]
Bookmarks: 42330,84683,141153,169389,183506,211742,225859,239977,254094,282330,310565
DistanceSpacing: 1
BeatDivisor: 4
GridSize: 32
TimelineZoom: 2.1

[Metadata]
Title:Ganju Gok
TitleUnicode:간주곡
Artist:XXX
ArtistUnicode:XXX
Creator:woosungko
Version:Oni
Source:
Tags:instrumental 김심야 kim ximya 프랭크 frnk 강이채 bana beasts and natives alike language korean kpop hip hop
BeatmapID:3449420
BeatmapSetID:1635925

[Difficulty]
HPDrainRate:5
CircleSize:2
OverallDifficulty:5
ApproachRate:10
SliderMultiplier:1.4
SliderTickRate:1

[Events]
//Background and Video events
0,0,"ganju gok.PNG",0,0
//Break Periods
2,77624,83792
2,252330,253644
//Storyboard Layer 0 (Background)
//Storyboard Layer 1 (Fail)
//Storyboard Layer 2 (Pass)
//Storyboard Layer 3 (Foreground)
//Storyboard Layer 4 (Overlay)
//Storyboard Sound Samples

[TimingPoints]
14095,441.176470588235,4,1,0,60,1,0
42302,-100,4,1,0,60,0,0
42522,-98.7283788648136,4,1,0,60,0,0
42633,-98.0929386463207,4,1,0,60,0,0
42743,-97.4672579404289,4,1,0,60,0,0
42853,-96.1082943002668,4,1,0,60,0,0
42963,-96.2278436885717,4,1,0,60,0,0
43184,-94.9986637042609,4,1,0,60,0,0
43405,-93.7851848244945,4,1,0,60,0,0
43515,-93.1869809022452,4,1,0,60,0,0
43625,-92.5925925925926,4,1,0,60,0,0
44067,-100,4,1,0,60,0,0
44287,-98.7283788648136,4,1,0,60,0,0
44398,-98.0929386463207,4,1,0,60,0,0
44508,-97.4672579404289,4,1,0,60,0,0
44618,-96.1082943002668,4,1,0,60,0,0
44728,-96.2278436885717,4,1,0,60,0,0
44949,-94.9986637042609,4,1,0,60,0,0
45170,-93.7851848244945,4,1,0,60,0,0
45280,-93.1869809022452,4,1,0,60,0,0
45390,-92.5925925925926,4,1,0,60,0,0
45832,-100,4,1,0,60,0,0
46052,-98.7283788648136,4,1,0,60,0,0
46163,-98.0929386463207,4,1,0,60,0,0
46273,-97.4672579404289,4,1,0,60,0,0
46383,-96.1082943002668,4,1,0,60,0,0
46493,-96.2278436885717,4,1,0,60,0,0
46714,-94.9986637042609,4,1,0,60,0,0
46935,-93.7851848244945,4,1,0,60,0,0
47045,-93.1869809022452,4,1,0,60,0,0
47155,-92.5925925925926,4,1,0,60,0,0
47596,-100,4,1,0,60,0,0
47816,-98.7283788648136,4,1,0,60,0,0
47927,-98.0929386463207,4,1,0,60,0,0
48037,-97.4672579404289,4,1,0,60,0,0
48147,-96.1082943002668,4,1,0,60,0,0
48257,-96.2278436885717,4,1,0,60,0,0
48478,-94.9986637042609,4,1,0,60,0,0
48699,-93.7851848244945,4,1,0,60,0,0
48809,-93.1869809022452,4,1,0,60,0,0
48919,-92.5925925925926,4,1,0,60,0,0
49361,-100,4,1,0,60,0,0
49581,-98.7283788648136,4,1,0,60,0,0
49692,-98.0929386463207,4,1,0,60,0,0
49802,-97.4672579404289,4,1,0,60,0,0
49912,-96.1082943002668,4,1,0,60,0,0
50022,-96.2278436885717,4,1,0,60,0,0
50243,-94.9986637042609,4,1,0,60,0,0
50464,-93.7851848244945,4,1,0,60,0,0
50574,-93.1869809022452,4,1,0,60,0,0
50684,-92.5925925925926,4,1,0,60,0,0
51126,-100,4,1,0,60,0,0
51346,-98.7283788648136,4,1,0,60,0,0
51457,-98.0929386463207,4,1,0,60,0,0
51567,-97.4672579404289,4,1,0,60,0,0
51677,-96.1082943002668,4,1,0,60,0,0
51787,-96.2278436885717,4,1,0,60,0,0
52008,-94.9986637042609,4,1,0,60,0,0
52229,-93.7851848244945,4,1,0,60,0,0
52339,-93.1869809022452,4,1,0,60,0,0
52449,-92.5925925925926,4,1,0,60,0,0
52890,-100,4,1,0,60,0,0
53110,-98.7283788648136,4,1,0,60,0,0
53221,-98.0929386463207,4,1,0,60,0,0
53331,-97.4672579404289,4,1,0,60,0,0
53441,-96.1082943002668,4,1,0,60,0,0
53551,-96.2278436885717,4,1,0,60,0,0
53772,-94.9986637042609,4,1,0,60,0,0
53993,-93.7851848244945,4,1,0,60,0,0
54103,-93.1869809022452,4,1,0,60,0,0
54213,-92.5925925925926,4,1,0,60,0,0
54655,-100,4,1,0,60,0,0
54875,-98.7283788648136,4,1,0,60,0,0
54986,-98.0929386463207,4,1,0,60,0,0
55096,-97.4672579404289,4,1,0,60,0,0
55206,-96.1082943002668,4,1,0,60,0,0
55316,-96.2278436885717,4,1,0,60,0,0
55537,-94.9986637042609,4,1,0,60,0,0
55758,-93.7851848244945,4,1,0,60,0,0
55868,-93.1869809022452,4,1,0,60,0,0
55978,-92.5925925925926,4,1,0,60,0,0
56419,-100,4,1,0,60,0,0
56640,-97.6941169844061,4,1,0,60,0,0
56750,-96.5662885400652,4,1,0,60,0,0
56861,-95.4414049336281,4,1,0,60,0,0
56971,-94.3395828938304,4,1,0,60,0,0
57081,-93.2504808240314,4,1,0,60,0,0
57191,-89.9147362445258,4,1,0,60,0,0
57302,-91.1002338247503,4,1,0,60,0,0
57522,-89.0089643299713,4,1,0,60,0,0
57633,-87.9721146558825,4,1,0,60,0,0
57743,-86.9565217391304,4,1,0,60,0,0
58185,-100,4,1,0,60,0,0
58406,-97.6941169844061,4,1,0,60,0,0
58516,-96.5662885400652,4,1,0,60,0,0
58627,-95.4414049336281,4,1,0,60,0,0
58737,-94.3395828938304,4,1,0,60,0,0
58847,-93.2504808240314,4,1,0,60,0,0
58957,-89.9147362445258,4,1,0,60,0,0
59068,-91.1002338247503,4,1,0,60,0,0
59288,-89.0089643299713,4,1,0,60,0,0
59399,-87.9721146558825,4,1,0,60,0,0
59509,-86.9565217391304,4,1,0,60,0,0
59949,-100,4,1,0,60,0,0
60170,-97.6941169844061,4,1,0,60,0,0
60280,-96.5662885400652,4,1,0,60,0,0
60391,-95.4414049336281,4,1,0,60,0,0
60501,-94.3395828938304,4,1,0,60,0,0
60611,-93.2504808240314,4,1,0,60,0,0
60721,-89.9147362445258,4,1,0,60,0,0
60832,-91.1002338247503,4,1,0,60,0,0
61052,-89.0089643299713,4,1,0,60,0,0
61163,-87.9721146558825,4,1,0,60,0,0
61273,-86.9565217391304,4,1,0,60,0,0
61714,-100,4,1,0,60,0,0
61935,-97.6941169844061,4,1,0,60,0,0
62045,-96.5662885400652,4,1,0,60,0,0
62156,-95.4414049336281,4,1,0,60,0,0
62266,-94.3395828938304,4,1,0,60,0,0
62376,-93.2504808240314,4,1,0,60,0,0
62486,-89.9147362445258,4,1,0,60,0,0
62597,-91.1002338247503,4,1,0,60,0,0
62817,-89.0089643299713,4,1,0,60,0,0
62928,-87.9721146558825,4,1,0,60,0,0
63038,-86.9565217391304,4,1,0,60,0,0
63479,-100,4,1,0,60,0,0
63700,-97.6941169844061,4,1,0,60,0,0
63810,-96.5662885400652,4,1,0,60,0,0
63921,-95.4414049336281,4,1,0,60,0,0
64031,-94.3395828938304,4,1,0,60,0,0
64141,-93.2504808240314,4,1,0,60,0,0
64251,-89.9147362445258,4,1,0,60,0,0
64362,-91.1002338247503,4,1,0,60,0,0
64582,-89.0089643299713,4,1,0,60,0,0
64693,-87.9721146558825,4,1,0,60,0,0
64803,-86.9565217391304,4,1,0,60,0,0
65243,-100,4,1,0,60,0,0
65464,-97.6941169844061,4,1,0,60,0,0
65574,-96.5662885400652,4,1,0,60,0,0
65685,-95.4414049336281,4,1,0,60,0,0
65795,-94.3395828938304,4,1,0,60,0,0
65905,-93.2504808240314,4,1,0,60,0,0
66015,-89.9147362445258,4,1,0,60,0,0
66126,-91.1002338247503,4,1,0,60,0,0
66346,-89.0089643299713,4,1,0,60,0,0
66457,-87.9721146558825,4,1,0,60,0,0
66567,-86.9565217391304,4,1,0,60,0,0
67008,-100,4,1,0,60,0,0
67229,-97.6941169844061,4,1,0,60,0,0
67339,-96.5662885400652,4,1,0,60,0,0
67450,-95.4414049336281,4,1,0,60,0,0
67560,-94.3395828938304,4,1,0,60,0,0
67670,-93.2504808240314,4,1,0,60,0,0
67780,-89.9147362445258,4,1,0,60,0,0
67891,-91.1002338247503,4,1,0,60,0,0
68111,-89.0089643299713,4,1,0,60,0,0
68222,-87.9721146558825,4,1,0,60,0,0
68332,-86.9565217391304,4,1,0,60,0,0
68773,-100,4,1,0,60,0,0
68994,-97.6941169844061,4,1,0,60,0,0
69104,-96.5662885400652,4,1,0,60,0,0
69215,-95.4414049336281,4,1,0,60,0,0
69325,-94.3395828938304,4,1,0,60,0,0
69435,-93.2504808240314,4,1,0,60,0,0
69545,-89.9147362445258,4,1,0,60,0,0
69656,-91.1002338247503,4,1,0,60,0,0
69876,-89.0089643299713,4,1,0,60,0,0
69987,-87.9721146558825,4,1,0,60,0,0
70097,-86.9565217391304,4,1,0,60,0,0
70537,-57.1428571428571,4,1,0,40,0,0
71419,-100,4,1,0,40,0,0
72302,-103.466551210845,4,1,0,40,0,0
73184,-107.049140697287,4,1,0,40,0,0
74067,-110.760053980328,4,1,0,40,0,0
74949,-114.595185240275,4,1,0,40,0,0
75831,-118.563110149669,4,1,0,40,0,0
76714,-122.673161080178,4,1,0,40,0,0
77596,-126.920790599198,4,1,0,5,0,0
79361,-135.867615702644,4,1,0,5,0,0
81125,-145.439501945228,4,1,0,5,0,0
82890,-155.69173706678,4,1,0,5,0,0
84214,-90.9090909090909,4,1,0,80,0,0
84435,-87.0474149867509,4,1,0,80,0,0
84655,-83.3333333333333,4,1,0,80,0,0
85537,-71.4285714285714,4,1,0,80,0,0
86419,-83.3333333333333,4,1,0,80,0,0
87301,-71.4285714285714,4,1,0,80,0,0
88184,-83.3333333333333,4,1,0,80,0,0
88625,-81.7438609383898,4,1,0,80,0,0
88736,-81.3485883236452,4,1,0,80,0,0
88846,-80.9587623410618,4,1,0,80,0,0
89066,-80.1847056133778,4,1,0,80,0,0
89508,-78.6518543975584,4,1,0,80,0,0
89618,-78.2749512815442,4,1,0,80,0,0
89728,-77.8998543016975,4,1,0,80,0,0
89949,-77.1516749810459,4,1,0,80,0,0
90390,-75.6801094897737,4,1,0,80,0,0
90501,-75.3174471049454,4,1,0,80,0,0
90611,-74.9532494280641,4,1,0,80,0,0
90831,-74.2366121512101,4,1,0,80,0,0
91272,-72.8206476027084,4,1,0,80,0,0
91383,-72.4685232051709,4,1,0,80,0,0
91493,-72.1212508818648,4,1,0,80,0,0
91714,-62.5,4,1,0,80,0,0
92596,-71.4285714285714,4,1,0,80,0,0
93478,-83.3333333333333,4,1,0,80,0,0
94360,-71.4285714285714,4,1,0,80,0,0
95243,-83.3333333333333,4,1,0,80,0,0
95684,-81.7434148595407,4,1,0,80,0,0
95795,-81.3515861177202,4,1,0,80,0,0
95905,-80.9580991492561,4,1,0,80,0,0
96125,-80.1838304747877,4,1,0,80,0,0
96567,-78.6540014343319,4,1,0,80,0,0
96677,-78.2735623297129,4,1,0,80,0,0
96787,-77.8983659729401,4,1,0,80,0,0
97008,-77.1499899635801,4,1,0,80,0,0
97449,-75.6780436320279,4,1,0,80,0,0
97560,-75.3152886300411,4,1,0,80,0,0
97670,-74.9542724572464,4,1,0,80,0,0
97890,-74.2341805964553,4,1,0,80,0,0
98331,-72.8178650550494,4,1,0,80,0,0
98442,-72.4688200280511,4,1,0,80,0,0
98552,-72.1182978358994,4,1,0,80,0,0
98773,-62.5,4,1,0,80,0,0
99655,-71.4285714285714,4,1,0,80,0,0
100537,-83.3333333333333,4,1,0,80,0,0
101419,-71.4285714285714,4,1,0,80,0,0
102302,-83.3333333333333,4,1,0,80,0,0
102743,-81.7434148595407,4,1,0,80,0,0
102854,-81.3515861177202,4,1,0,80,0,0
102964,-80.9580991492561,4,1,0,80,0,0
103184,-80.1838304747877,4,1,0,80,0,0
103626,-78.6540014343319,4,1,0,80,0,0
103736,-78.2735623297129,4,1,0,80,0,0
103846,-77.8983659729401,4,1,0,80,0,0
104067,-77.153360035314,4,1,0,80,0,0
104095,-77.1499899635801,4,1,0,80,0,0
104508,-75.6780436320279,4,1,0,80,0,0
104619,-75.3152886300411,4,1,0,80,0,0
104729,-74.9542724572464,4,1,0,80,0,0
104949,-74.2341805964553,4,1,0,80,0,0
105390,-72.8178650550494,4,1,0,80,0,0
105501,-72.4688200280511,4,1,0,80,0,0
105611,-72.1182978358994,4,1,0,80,0,0
105832,-62.5,4,1,0,80,0,0
106714,-71.4285714285714,4,1,0,80,0,0
107596,-83.3333333333333,4,1,0,80,0,0
108478,-71.4285714285714,4,1,0,80,0,0
109361,-83.3333333333333,4,1,0,80,0,0
109802,-81.7434148595407,4,1,0,80,0,0
109913,-81.3515861177202,4,1,0,80,0,0
110023,-80.9616355671053,4,1,0,80,0,0
110243,-80.1838304747877,4,1,0,80,0,0
110685,-78.6540014343319,4,1,0,80,0,0
110795,-78.2769814814204,4,1,0,80,0,0
110905,-77.8983659729401,4,1,0,80,0,0
111126,-77.153360035314,4,1,0,80,0,0
111567,-75.6780436320279,4,1,0,80,0,0
111678,-75.3152886300411,4,1,0,80,0,0
111788,-74.9542724572464,4,1,0,80,0,0
112008,-74.2341805964553,4,1,0,80,0,0
112449,-72.8178650550494,4,1,0,80,0,0
112560,-71.795538036032,4,1,0,80,0,0
112670,-72.1214481128748,4,1,0,80,0,0
112890,-62.5,4,1,0,80,0,0
113331,-85.8000858000858,4,1,0,80,0,0
113772,-88.3420983570573,4,1,0,80,0,0
114214,-90.9654457571788,4,1,0,80,0,0
114655,-93.6604932412109,4,1,0,80,0,0
115096,-96.4353873184271,4,1,0,80,0,0
115537,-99.2924936163279,4,1,0,80,0,0
115978,-102.234247849229,4,1,0,80,0,0
116419,-105.263157894737,4,1,0,80,0,0
116861,-102.228651832939,4,1,0,80,0,0
116971,-101.487151696308,4,1,0,80,0,0
117081,-100.751029919293,4,1,0,80,0,0
117302,-99.2881945878694,4,1,0,80,0,0
117743,-96.4323152830838,4,1,0,80,0,0
117854,-95.7328580010401,4,1,0,80,0,0
117964,-95.0321847037727,4,1,0,80,0,0
118184,-93.6585811581694,4,1,0,80,0,0
118625,-90.9646294274984,4,1,0,80,0,0
118736,-90.2988550197712,4,1,0,80,0,0
118846,-89.64388586842,4,1,0,80,0,0
119066,-88.3481652675063,4,1,0,80,0,0
119508,-85.8012813585034,4,1,0,80,0,0
119618,-85.1789346806422,4,1,0,80,0,0
119728,-84.5611021007212,4,1,0,80,0,0
119949,-83.3333333333333,4,1,0,80,0,0
120390,-85.8019909497397,4,1,0,80,0,0
120831,-88.3437798112706,4,1,0,80,0,0
121273,-90.9608663499892,4,1,0,80,0,0
121714,-93.6616812428407,4,1,0,80,0,0
122155,-96.4363047160275,4,1,0,80,0,0
122596,-99.2931233336511,4,1,0,80,0,0
123037,-102.234572035744,4,1,0,80,0,0
123478,-105.263157894737,4,1,0,80,0,0
123920,-102.235417533098,4,1,0,80,0,0
124030,-101.487151696308,4,1,0,80,0,0
124140,-100.751029919293,4,1,0,80,0,0
124361,-99.2881945878694,4,1,0,80,0,0
124802,-96.4323152830838,4,1,0,80,0,0
124913,-95.7328580010401,4,1,0,80,0,0
125023,-95.0384741270957,4,1,0,80,0,0
125243,-93.6585811581694,4,1,0,80,0,0
125684,-90.9646294274984,4,1,0,80,0,0
125795,-90.304831181706,4,1,0,80,0,0
125905,-89.64388586842,4,1,0,80,0,0
126125,-88.3481652675063,4,1,0,80,0,0
126567,-85.8069598618631,4,1,0,80,0,0
126677,-85.1789346806422,4,1,0,80,0,0
126787,-84.5611021007212,4,1,0,80,0,0
127008,-83.3333333333333,4,1,0,80,0,0
127449,-85.8019909497397,4,1,0,80,0,0
127890,-88.3437798112706,4,1,0,80,0,0
128332,-90.9608663499892,4,1,0,80,0,0
128773,-93.655481176107,4,1,0,80,0,0
129214,-96.4363047160275,4,1,0,80,0,0
129655,-99.2931233336511,4,1,0,80,0,0
130096,-102.234572035744,4,1,0,80,0,0
130537,-105.263157894737,4,1,0,80,0,0
130979,-102.235417533098,4,1,0,80,0,0
131089,-101.487151696308,4,1,0,80,0,0
131199,-100.751029919293,4,1,0,80,0,0
131420,-99.2947656825852,4,1,0,80,0,0
131861,-96.4323152830838,4,1,0,80,0,0
131972,-95.7328580010401,4,1,0,80,0,0
132082,-95.0384741270957,4,1,0,80,0,0
132302,-93.6585811581694,4,1,0,80,0,0
132743,-90.9646294274984,4,1,0,80,0,0
132854,-90.304831181706,4,1,0,80,0,0
132964,-89.64388586842,4,1,0,80,0,0
133184,-88.3481652675063,4,1,0,80,0,0
133626,-85.8069598618631,4,1,0,80,0,0
133736,-85.1789346806422,4,1,0,80,0,0
133846,-84.5611021007212,4,1,0,80,0,0
134067,-83.3388485028718,4,1,0,80,0,0
134095,-83.3402783565297,4,1,0,80,0,0
134508,-85.8082480870266,4,1,0,80,0,0
134949,-88.3493022217368,4,1,0,80,0,0
135391,-90.9656050214584,4,1,0,80,0,0
135832,-93.6593848376103,4,1,0,80,0,0
136273,-96.4329360101577,4,1,0,80,0,0
136714,-99.2951914619236,4,1,0,80,0,0
137155,-102.23563672734,4,1,0,80,0,0
137596,-105.263157894737,4,1,0,80,0,0
138038,-102.228651832939,4,1,0,80,0,0
138148,-101.487151696308,4,1,0,80,0,0
138258,-100.751029919293,4,1,0,80,0,0
138479,-76.9408324998076,4,1,0,80,0,0
138727,-84.418544087745,4,1,0,80,0,0
138920,-85.3142522718595,4,1,0,80,0,0
139031,-85.769778673898,4,1,0,80,0,0
139141,-86.2236006616313,4,1,0,80,0,0
139361,-87.1426416229485,4,1,0,80,0,0
139471,-87.6037276540554,4,1,0,80,0,0
139582,-88.0672533670921,4,1,0,80,0,0
139802,-89.0059454719681,4,1,0,80,0,0
139913,-89.4768905498113,4,1,0,80,0,0
140023,-89.9503274754201,4,1,0,80,0,0
140133,-90.430607709331,4,1,0,80,0,0
140243,-75.6495219748129,4,1,0,80,0,0
140685,-90.9090909090909,4,1,0,80,0,0
140795,-85.1789346806422,4,1,0,80,0,0
140905,-87.0302418160338,4,1,0,80,0,0
141126,-83.3333333333333,4,1,0,60,0,0
141347,-85.2576254850263,4,1,0,60,0,0
141457,-86.2319171103452,4,1,0,60,0,0
141567,-87.2173425687466,4,1,0,60,0,0
141788,-89.2313223423052,4,1,0,60,0,0
142009,-83.3333333333333,4,1,0,60,0,0
142450,-95.5467466434766,4,1,0,60,0,0
142560,-96.6386184209465,4,1,0,60,0,0
142670,-97.7429676926308,4,1,0,60,0,0
142781,-98.870149640681,4,1,0,60,0,0
142890,-83.3333333333333,4,1,0,60,0,0
143111,-85.2576254850263,4,1,0,60,0,0
143221,-86.2319171103452,4,1,0,60,0,0
143331,-87.2173425687466,4,1,0,60,0,0
143552,-89.2313223423052,4,1,0,60,0,0
143773,-83.3333333333333,4,1,0,60,0,0
144214,-95.5467466434766,4,1,0,60,0,0
144324,-96.6386184209465,4,1,0,60,0,0
144434,-97.7429676926308,4,1,0,60,0,0
144545,-98.870149640681,4,1,0,60,0,0
144655,-83.3333333333333,4,1,0,60,0,0
144876,-85.2576254850263,4,1,0,60,0,0
144986,-86.2319171103452,4,1,0,60,0,0
145096,-87.2173425687466,4,1,0,60,0,0
145317,-89.2313223423052,4,1,0,60,0,0
145538,-83.3333333333333,4,1,0,60,0,0
145979,-95.5467466434766,4,1,0,60,0,0
146089,-96.6386184209465,4,1,0,60,0,0
146199,-97.7429676926308,4,1,0,60,0,0
146310,-98.870149640681,4,1,0,60,0,0
146420,-83.3333333333333,4,1,0,60,0,0
146641,-85.2576254850263,4,1,0,60,0,0
146751,-86.2319171103452,4,1,0,60,0,0
146861,-87.2173425687466,4,1,0,60,0,0
147082,-89.2313223423052,4,1,0,60,0,0
147303,-83.3333333333333,4,1,0,60,0,0
147744,-95.5474871010892,4,1,0,60,0,0
147854,-92.3427522527684,4,1,0,60,0,0
148075,-86.2253982853184,4,1,0,60,0,0
148185,-83.3333333333333,4,1,0,60,0,0
148406,-85.2576254850263,4,1,0,60,0,0
148516,-86.2319171103452,4,1,0,60,0,0
148626,-87.2173425687466,4,1,0,60,0,0
148847,-89.2313223423052,4,1,0,60,0,0
149068,-83.3333333333333,4,1,0,60,0,0
149509,-95.5467466434766,4,1,0,60,0,0
149619,-96.6386184209465,4,1,0,60,0,0
149729,-97.7429676926308,4,1,0,60,0,0
149840,-98.870149640681,4,1,0,60,0,0
149949,-83.3333333333333,4,1,0,60,0,0
150170,-85.2576254850263,4,1,0,60,0,0
150280,-86.2319171103452,4,1,0,60,0,0
150390,-87.2173425687466,4,1,0,60,0,0
150611,-89.2313223423052,4,1,0,60,0,0
150832,-83.3333333333333,4,1,0,60,0,0
151273,-95.5467466434766,4,1,0,60,0,0
151383,-96.6386184209465,4,1,0,60,0,0
151493,-97.7429676926308,4,1,0,60,0,0
151604,-98.870149640681,4,1,0,60,0,0
151714,-83.3333333333333,4,1,0,60,0,0
151935,-85.2576254850263,4,1,0,60,0,0
152045,-86.2319171103452,4,1,0,60,0,0
152155,-87.2173425687466,4,1,0,60,0,0
152376,-89.2313223423052,4,1,0,60,0,0
152597,-83.3333333333333,4,1,0,60,0,0
153038,-95.5467466434766,4,1,0,60,0,0
153148,-96.6386184209465,4,1,0,60,0,0
153258,-97.7429676926308,4,1,0,60,0,0
153369,-98.870149640681,4,1,0,60,0,0
153479,-83.3333333333333,4,1,0,60,0,0
153700,-85.2576254850263,4,1,0,60,0,0
153810,-86.2319171103452,4,1,0,60,0,0
153920,-87.2173425687466,4,1,0,60,0,0
154141,-89.2313223423052,4,1,0,60,0,0
154362,-83.3333333333333,4,1,0,60,0,0
154803,-95.5474871010892,4,1,0,60,0,0
154913,-92.3427522527684,4,1,0,60,0,0
155023,-89.2455066305867,4,1,0,60,0,0
155134,-86.2253982853184,4,1,0,60,0,0
155243,-83.3333333333333,4,1,0,60,0,0
155464,-85.2576254850263,4,1,0,60,0,0
155574,-86.2319171103452,4,1,0,60,0,0
155684,-87.2173425687466,4,1,0,60,0,0
155905,-89.2313223423052,4,1,0,60,0,0
156126,-83.3333333333333,4,1,0,60,0,0
156567,-95.5467466434766,4,1,0,60,0,0
156677,-96.6386184209465,4,1,0,60,0,0
156787,-97.7429676926308,4,1,0,60,0,0
156898,-98.870149640681,4,1,0,60,0,0
157008,-83.3333333333333,4,1,0,60,0,0
157229,-85.2576254850263,4,1,0,60,0,0
157339,-86.2319171103452,4,1,0,60,0,0
157449,-87.2173425687466,4,1,0,60,0,0
157670,-89.2313223423052,4,1,0,60,0,0
157891,-83.3333333333333,4,1,0,60,0,0
158332,-95.5467466434766,4,1,0,60,0,0
158442,-96.6386184209465,4,1,0,60,0,0
158552,-97.7429676926308,4,1,0,60,0,0
158663,-98.870149640681,4,1,0,60,0,0
158773,-83.3333333333333,4,1,0,60,0,0
158994,-85.2576254850263,4,1,0,60,0,0
159104,-86.2319171103452,4,1,0,60,0,0
159214,-87.2173425687466,4,1,0,60,0,0
159435,-89.2313223423052,4,1,0,60,0,0
159656,-83.3333333333333,4,1,0,60,0,0
160097,-95.5467466434766,4,1,0,60,0,0
160207,-96.6386184209465,4,1,0,60,0,0
160317,-97.7429676926308,4,1,0,60,0,0
160428,-98.870149640681,4,1,0,60,0,0
160538,-83.3333333333333,4,1,0,60,0,0
160759,-85.2576254850263,4,1,0,60,0,0
160869,-86.2319171103452,4,1,0,60,0,0
160979,-87.2173425687466,4,1,0,60,0,0
161200,-89.2313223423052,4,1,0,60,0,0
161421,-83.3333333333333,4,1,0,60,0,0
161862,-95.5474871010892,4,1,0,60,0,0
161972,-92.3427522527684,4,1,0,60,0,0
162193,-86.2521449647535,4,1,0,60,0,0
162302,-83.3333333333333,4,1,0,60,0,0
162523,-85.2576254850263,4,1,0,60,0,0
162633,-86.2319171103452,4,1,0,60,0,0
162743,-87.2173425687466,4,1,0,60,0,0
162964,-89.2313223423052,4,1,0,60,0,0
163185,-83.3333333333333,4,1,0,60,0,0
163626,-95.5467466434766,4,1,0,60,0,0
163736,-96.6386184209465,4,1,0,60,0,0
163846,-97.7429676926308,4,1,0,60,0,0
163957,-98.870149640681,4,1,0,60,0,0
164067,-83.3333333333333,4,1,0,60,0,0
164288,-85.2576254850263,4,1,0,60,0,0
164398,-86.2319171103452,4,1,0,60,0,0
164508,-87.2173425687466,4,1,0,60,0,0
164729,-89.2313223423052,4,1,0,60,0,0
164950,-83.3333333333333,4,1,0,60,0,0
165391,-95.5467466434766,4,1,0,60,0,0
165501,-96.6386184209465,4,1,0,60,0,0
165611,-97.7429676926308,4,1,0,60,0,0
165722,-98.870149640681,4,1,0,60,0,0
165832,-83.3333333333333,4,1,0,60,0,0
166053,-85.2576254850263,4,1,0,60,0,0
166163,-86.2319171103452,4,1,0,60,0,0
166273,-87.2173425687466,4,1,0,60,0,0
166494,-89.2313223423052,4,1,0,60,0,0
166715,-83.3333333333333,4,1,0,60,0,0
167156,-95.5467466434766,4,1,0,60,0,0
167266,-96.6386184209465,4,1,0,60,0,0
167376,-97.7429676926308,4,1,0,60,0,0
167487,-98.870149640681,4,1,0,60,0,0
167596,-83.3333333333333,4,1,0,60,0,0
167817,-85.2576254850263,4,1,0,60,0,0
167927,-86.2319171103452,4,1,0,60,0,0
168037,-87.2173425687466,4,1,0,60,0,0
168258,-89.2313223423052,4,1,0,60,0,0
168479,-83.3333333333333,4,1,0,60,0,0
168920,-95.5467466434766,4,1,0,60,0,0
169362,-76.9230769230769,4,1,0,60,0,0
170023,-80.989473313514,4,1,0,60,0,0
170244,-82.3964398727882,4,1,0,60,0,0
170685,-85.2774778518106,4,1,0,60,0,0
171126,-88.2592529482301,4,1,0,60,0,0
171347,-89.7925116837696,4,1,0,60,0,0
172009,-94.5465949226441,4,1,0,60,0,0
172450,-97.8524699237962,4,1,0,60,0,0
172891,-101.273936708367,4,1,0,60,0,0
173553,-106.635906387261,4,1,0,60,0,0
173773,-108.479953876729,4,1,0,60,0,0
174215,-112.28176666794,4,1,0,60,0,0
174656,-116.207761949065,4,1,0,60,0,0
174876,-118.217334886916,4,1,0,60,0,0
175538,-124.476376312437,4,1,0,60,0,0
175979,-128.828762995659,4,1,0,60,0,0
176310,-132.195211204375,4,1,0,60,0,0
176420,-133.333333333333,4,1,0,60,0,0
176862,-99.9232763996649,4,1,0,60,0,0
177303,-122.259702345795,4,1,0,60,0,0
177744,-93.3159494671535,4,1,0,60,0,0
178185,-112.116769718462,4,1,0,60,0,0
178626,-87.0398472468046,4,1,0,60,0,0
179067,-102.81531699259,4,1,0,60,0,0
179509,-81.0858872965808,4,1,0,60,0,0
179950,-94.2762753907693,4,1,0,60,0,0
180391,-75.4629502334784,4,1,0,60,0,0
180832,-86.4549091409164,4,1,0,60,0,0
181273,-70.1576979944271,4,1,0,60,0,0
181715,-79.2746359342587,4,1,0,60,0,0
182156,-65.156687553858,4,1,0,60,0,0
183038,-60.462001009235,4,1,0,60,0,0
183479,-76.9230769230769,4,1,0,60,0,0
183700,-77.3095191749125,4,1,0,60,0,0
183810,-77.5025890231588,4,1,0,60,0,0
183920,-77.6961410366896,4,1,0,60,0,0
184141,-78.0864669688046,4,1,0,60,0,0
184362,-78.4787538005376,4,1,0,60,0,0
184472,-78.6747436507985,4,1,0,60,0,0
184582,-78.8712229586456,4,1,0,60,0,0
184692,-79.0681929464317,4,1,0,60,0,0
184803,-79.2674522077128,4,1,0,60,0,0
185023,-79.6638656155046,4,1,0,60,0,0
185244,-80.0640769025436,4,1,0,60,0,0
185354,-80.2640258783299,4,1,0,60,0,0
185465,-80.4662987507452,4,1,0,60,0,0
185685,-80.8687075429011,4,1,0,60,0,0
185906,-81.2749716536979,4,1,0,60,0,0
186016,-81.4779446719093,4,1,0,60,0,0
186237,-81.8872694372906,4,1,0,60,0,0
186347,-82.0917715846626,4,1,0,60,0,0
186567,-82.5023093024673,4,1,0,60,0,0
187008,-76.9230769230769,4,1,0,60,0,0
187229,-77.307708421341,4,1,0,60,0,0
187339,-77.5025018699137,4,1,0,60,0,0
187449,-77.696024630167,4,1,0,60,0,0
187670,-78.0845210288817,4,1,0,60,0,0
187891,-78.4767391633098,4,1,0,60,0,0
188001,-78.6726945816788,4,1,0,60,0,0
188111,-78.870927407344,4,1,0,60,0,0
188221,-79.0678671087388,4,1,0,60,0,0
188332,-79.2652985660602,4,1,0,60,0,0
188552,-79.6634477397865,4,1,0,60,0,0
188773,-80.06178166618,4,1,0,60,0,0
188994,-80.4639315702882,4,1,0,60,0,0
189104,-80.6648489827926,4,1,0,60,0,0
189214,-80.8681014712289,4,1,0,60,0,0
189435,-81.2724589186274,4,1,0,60,0,0
189655,-81.6806900481448,4,1,0,60,0,0
189766,-81.8846456910742,4,1,0,60,0,0
189986,-82.2959518314984,4,1,0,60,0,0
190538,-76.9230769230769,4,1,0,60,0,0
190759,-77.3095191749125,4,1,0,60,0,0
190869,-77.5025890231588,4,1,0,60,0,0
190979,-77.6961410366896,4,1,0,60,0,0
191200,-78.0864669688046,4,1,0,60,0,0
191421,-78.4787538005376,4,1,0,60,0,0
191531,-78.6747436507985,4,1,0,60,0,0
191641,-78.8712229586456,4,1,0,60,0,0
191751,-79.0681929464317,4,1,0,60,0,0
191862,-79.2674522077128,4,1,0,60,0,0
192082,-79.6638656155046,4,1,0,60,0,0
192303,-80.0640769025436,4,1,0,60,0,0
192413,-80.2640258783299,4,1,0,60,0,0
192524,-80.4662987507452,4,1,0,60,0,0
192744,-80.8687075429011,4,1,0,60,0,0
192965,-81.2749716536979,4,1,0,60,0,0
193075,-81.4779446719093,4,1,0,60,0,0
193296,-81.8872694372906,4,1,0,60,0,0
193406,-82.0917715846626,4,1,0,60,0,0
193626,-82.5023093024673,4,1,0,60,0,0
194067,-76.9230769230769,4,1,0,60,0,0
194288,-77.307708421341,4,1,0,60,0,0
194398,-77.5025018699137,4,1,0,60,0,0
194508,-77.696024630167,4,1,0,60,0,0
194729,-78.0845210288817,4,1,0,60,0,0
194950,-78.4767391633098,4,1,0,60,0,0
195060,-78.6726945816788,4,1,0,60,0,0
195170,-78.870927407344,4,1,0,60,0,0
195280,-79.0678671087388,4,1,0,60,0,0
195391,-79.2652985660602,4,1,0,60,0,0
195611,-79.6634477397865,4,1,0,60,0,0
195832,-80.06178166618,4,1,0,60,0,0
196053,-80.4639315702882,4,1,0,60,0,0
196163,-80.6648489827926,4,1,0,60,0,0
196273,-80.8681014712289,4,1,0,60,0,0
196494,-81.2724589186274,4,1,0,60,0,0
196714,-81.6806900481448,4,1,0,60,0,0
196825,-81.8846456910742,4,1,0,60,0,0
197045,-82.2959518314984,4,1,0,60,0,0
197596,-71.4285714285714,4,1,0,60,0,0
197817,-71.7616597634096,4,1,0,60,0,0
197927,-71.9279840370695,4,1,0,60,0,0
198037,-72.0946638650388,4,1,0,60,0,0
198258,-72.4306160602831,4,1,0,60,0,0
198479,-72.7680109821172,4,1,0,60,0,0
198589,-72.9364844350783,4,1,0,60,0,0
198699,-73.1053171873033,4,1,0,60,0,0
198809,-73.2745098625633,4,1,0,60,0,0
198920,-73.4456061336474,4,1,0,60,0,0
199140,-73.7858032972967,4,1,0,60,0,0
199361,-74.1290064309471,4,1,0,60,0,0
199471,-74.3003783848765,4,1,0,60,0,0
199582,-74.473677562902,4,1,0,60,0,0
199802,-74.8182521878507,4,1,0,60,0,0
200023,-75.1658678729947,4,1,0,60,0,0
200133,-75.3394418012172,4,1,0,60,0,0
200354,-75.6892808988146,4,1,0,60,0,0
200464,-75.8639643516038,4,1,0,60,0,0
200684,-76.2144418478233,4,1,0,60,0,0
201125,-71.4285714285714,4,1,0,60,0,0
201346,-71.7600995676767,4,1,0,60,0,0
201456,-71.9279089704336,4,1,0,60,0,0
201566,-72.0945636380444,4,1,0,60,0,0
201787,-72.4289417998144,4,1,0,60,0,0
202008,-72.7662788760679,4,1,0,60,0,0
202118,-72.9347233659131,4,1,0,60,0,0
202228,-73.1050632691348,4,1,0,60,0,0
202338,-73.2742300265078,4,1,0,60,0,0
202449,-73.4437572220418,4,1,0,60,0,0
202669,-73.7854448129715,4,1,0,60,0,0
202890,-74.1270388650092,4,1,0,60,0,0
203111,-74.4716498341099,4,1,0,60,0,0
203221,-74.6437242395001,4,1,0,60,0,0
203331,-74.8177334136838,4,1,0,60,0,0
203552,-75.1637186800331,4,1,0,60,0,0
203772,-75.5127560283148,4,1,0,60,0,0
203883,-75.687039294997,4,1,0,60,0,0
204103,-76.0383069827013,4,1,0,60,0,0
204655,-71.4285714285714,4,1,0,60,0,0
204876,-71.7616597634096,4,1,0,60,0,0
204986,-71.9279840370695,4,1,0,60,0,0
205096,-72.0946638650388,4,1,0,60,0,0
205317,-72.4306160602831,4,1,0,60,0,0
205538,-72.7680109821172,4,1,0,60,0,0
205648,-72.9364844350783,4,1,0,60,0,0
205758,-73.1053171873033,4,1,0,60,0,0
205868,-73.2745098625633,4,1,0,60,0,0
205979,-73.4456061336474,4,1,0,60,0,0
206199,-73.7858032972967,4,1,0,60,0,0
206420,-74.1290064309471,4,1,0,60,0,0
206530,-74.3003783848765,4,1,0,60,0,0
206641,-74.473677562902,4,1,0,60,0,0
206861,-74.8182521878507,4,1,0,60,0,0
207082,-75.1658678729947,4,1,0,60,0,0
207192,-75.3394418012172,4,1,0,60,0,0
207413,-75.6892808988146,4,1,0,60,0,0
207523,-75.8639643516038,4,1,0,60,0,0
207743,-76.2144418478233,4,1,0,60,0,0
208184,-71.4285714285714,4,1,0,60,0,0
208405,-71.7600995676767,4,1,0,60,0,0
208515,-71.9279089704336,4,1,0,60,0,0
208625,-72.0945636380444,4,1,0,60,0,0
208846,-72.4289417998144,4,1,0,60,0,0
209067,-72.7662788760679,4,1,0,60,0,0
209177,-72.9347233659131,4,1,0,60,0,0
209287,-73.1050632691348,4,1,0,60,0,0
209397,-73.2742300265078,4,1,0,60,0,0
209508,-73.4437572220418,4,1,0,60,0,0
209728,-73.7854448129715,4,1,0,60,0,0
209949,-74.1270388650092,4,1,0,60,0,0
210170,-74.4716498341099,4,1,0,60,0,0
210280,-74.6437242395001,4,1,0,60,0,0
210390,-74.8177334136838,4,1,0,60,0,0
210611,-75.1637186800331,4,1,0,60,0,0
210831,-75.5127560283148,4,1,0,60,0,0
210942,-75.687039294997,4,1,0,60,0,0
211162,-76.0383069827013,4,1,0,60,0,0
211714,-74.0740740740741,4,1,0,60,0,0
212375,-85.4632151529748,4,1,0,60,0,0
212596,-86.1873985985202,4,1,0,60,0,0
213037,-87.6508802367416,4,1,0,60,0,0
213478,-89.1392121261625,4,1,0,60,0,0
213699,-89.8945446005514,4,1,0,60,0,0
214361,-92.1956416993643,4,1,0,60,0,0
214802,-93.7611446724796,4,1,0,60,0,0
215243,-74.0740740740741,4,1,0,60,0,0
215905,-97.7940573519488,4,1,0,60,0,0
216125,-98.6189623505676,4,1,0,60,0,0
216566,-100.293534769823,4,1,0,60,0,0
217008,-102.000436180291,4,1,0,60,0,0
217228,-102.860822505848,4,1,0,60,0,0
217890,-105.493827003524,4,1,0,60,0,0
218331,-107.285136188809,4,1,0,60,0,0
218773,-74.0740740740741,4,1,0,60,0,0
219434,-111.899751204078,4,1,0,60,0,0
219655,-112.847948007084,4,1,0,60,0,0
220096,-114.764131840275,4,1,0,60,0,0
220537,-116.712852910939,4,1,0,60,0,0
220758,-117.701834144669,4,1,0,60,0,0
221419,-120.710126104867,4,1,0,60,0,0
221861,-122.764498652199,4,1,0,60,0,0
222302,-74.0740740740741,4,1,0,60,0,0
222964,-128.044921634796,4,1,0,60,0,0
223184,-129.124996424251,4,1,0,60,0,0
223625,-131.317568243045,4,1,0,60,0,0
224066,-133.547370430193,4,1,0,60,0,0
224287,-134.679001093614,4,1,0,60,0,0
224949,-138.12647902528,4,1,0,60,0,0
225390,-140.471898066725,4,1,0,60,0,0
225804,-194.60437633672,4,1,0,40,0,0
225832,-200,4,1,0,40,0,0
225859,-142.450142450142,4,1,0,40,0,1
226742,-142.348754448399,4,1,0,40,0,0
227183,-142.348754448399,4,1,0,40,0,1
228175,-142.348754448399,4,1,0,40,0,0
228947,-142.348754448399,4,1,0,40,0,1
230271,-142.348754448399,4,1,0,40,0,0
230712,-142.348754448399,4,1,0,40,0,1
231705,-142.348754448399,4,1,0,40,0,0
232918,-142.348754448399,4,1,0,40,0,1
233800,-142.348754448399,4,1,0,40,0,0
234242,-142.348754448399,4,1,0,40,0,1
235234,-142.348754448399,4,1,0,40,0,0
236006,-142.348754448399,4,1,0,40,0,1
237330,-142.348754448399,4,1,0,40,0,0
237771,-142.348754448399,4,1,0,40,0,1
238764,-142.348754448399,4,1,0,40,0,0
239508,-142.348754448399,4,1,0,60,0,0
239536,-142.348754448399,4,1,0,60,0,1
239618,-137.785934677988,4,1,0,60,0,1
239728,-133.313896628542,4,1,0,60,0,1
239839,-128.895058946721,4,1,0,60,0,1
239949,-124.610591900312,4,1,0,60,0,1
240804,-166.666666666667,4,1,0,80,0,1
240832,-100,4,1,0,80,0,1
240859,-100,4,1,0,80,0,0
240887,-153.846153846154,4,1,0,60,0,0
241300,-153.846153846154,4,1,0,60,0,1
242293,-250,4,1,0,60,0,0
242569,-250,4,1,0,80,0,0
242596,-100,4,1,0,80,0,0
242651,-153.846153846154,4,1,0,60,0,0
243065,-153.846153846154,4,1,0,60,0,1
244333,-250,4,1,0,80,0,1
244361,-100,4,1,0,80,0,1
244389,-100,4,1,0,80,0,0
244416,-153.846153846154,4,1,0,60,0,0
244830,-153.846153846154,4,1,0,60,0,1
245822,-250,4,1,0,60,0,0
246098,-250,4,1,0,80,0,0
246126,-100,4,1,0,80,0,0
246181,-153.846153846154,4,1,0,60,0,0
247036,-153.846153846154,4,1,0,60,0,1
247863,-250,4,1,0,80,0,1
247890,-100,4,1,0,80,0,1
247918,-100,4,1,0,80,0,0
247946,-153.846153846154,4,1,0,60,0,0
248359,-153.846153846154,4,1,0,60,0,1
249352,-250,4,1,0,60,0,0
249628,-250,4,1,0,80,0,0
249655,-100,4,1,0,80,0,0
249710,-153.846153846154,4,1,0,60,0,0
250124,-153.846153846154,4,1,0,60,0,1
251392,-250,4,1,0,80,0,1
251420,-100,4,1,0,80,0,1
251447,-100,4,1,0,80,0,0
251475,-153.846153846154,4,1,0,60,0,0
251889,-153.846153846154,4,1,0,60,0,1
252302,-250,4,1,0,5,0,1
252330,-153.846153846154,4,1,0,5,0,0
254039,-250,4,1,0,40,0,0
254067,-133.333333333333,4,1,0,40,0,0
282275,-133.333333333333,4,1,0,60,0,0
282302,-83.3333333333333,4,1,0,60,0,0
282412,-83.8082664322884,4,1,0,60,0,0
282633,-84.7706477293917,4,1,0,60,0,0
282743,-85.2537723665103,4,1,0,60,0,0
282964,-86.2327525975275,4,1,0,60,0,0
283294,-87.715543682635,4,1,0,60,0,0
283515,-88.722792756014,4,1,0,60,0,0
283625,-89.2284414469527,4,1,0,60,0,0
283846,-90.2530633234547,4,1,0,60,0,0
284066,-91.284734828844,4,1,0,60,0,0
284177,-91.8097276498927,4,1,0,60,0,0
284287,-92.3329693914965,4,1,0,60,0,0
284397,-92.8591931909624,4,1,0,60,0,0
284508,-93.3932409688854,4,1,0,60,0,0
284728,-94.4608074531192,4,1,0,60,0,0
284949,-86.9565217391304,4,1,0,60,0,0
285096,-89.9201439208078,4,1,0,60,0,0
285243,-92.9847712514961,4,1,0,60,0,0
285390,-96.1538461538461,4,1,0,60,0,0
285831,-83.3333333333333,4,1,0,60,0,0
285941,-83.8081315077783,4,1,0,60,0,0
286162,-84.7702370677867,4,1,0,60,0,0
286272,-85.2532221134714,4,1,0,60,0,0
286493,-86.2319171103452,4,1,0,60,0,0
286824,-87.7188006750443,4,1,0,60,0,0
287044,-88.7212176717002,4,1,0,60,0,0
287155,-89.2313223423052,4,1,0,60,0,0
287375,-90.2510238596728,4,1,0,60,0,0
287596,-91.2870929175277,4,1,0,60,0,0
287706,-91.8072082583393,4,1,0,60,0,0
287816,-92.3302869969227,4,1,0,60,0,0
287927,-92.8611420941748,4,1,0,60,0,0
288037,-93.390225703093,4,1,0,60,0,0
288258,-94.4623323565035,4,1,0,60,0,0
288478,-95.5418118611162,4,1,0,60,0,0
288809,-97.1892244962323,4,1,0,60,0,0
288919,-97.7429676926308,4,1,0,60,0,0
289030,-98.3049431213642,4,1,0,60,0,0
289250,-99.4283345161599,4,1,0,60,0,0
289361,-83.3333333333333,4,1,0,60,0,0
289471,-83.8082664322884,4,1,0,60,0,0
289691,-84.766268268574,4,1,0,60,0,0
289802,-85.2537723665103,4,1,0,60,0,0
290022,-86.2282976007648,4,1,0,60,0,0
290353,-87.715543682635,4,1,0,60,0,0
290574,-88.722792756014,4,1,0,60,0,0
290684,-89.2284414469527,4,1,0,60,0,0
290905,-90.2530633234547,4,1,0,60,0,0
291125,-91.284734828844,4,1,0,60,0,0
291236,-91.8097276498927,4,1,0,60,0,0
291346,-92.3329693914965,4,1,0,60,0,0
291456,-92.8591931909624,4,1,0,60,0,0
291566,-93.3884160436262,4,1,0,60,0,0
291787,-94.4608074531192,4,1,0,60,0,0
292008,-86.9565217391304,4,1,0,60,0,0
292155,-89.9201439208078,4,1,0,60,0,0
292302,-92.9847712514961,4,1,0,60,0,0
292449,-96.1538461538461,4,1,0,60,0,0
292890,-83.3333333333333,4,1,0,60,0,0
293000,-83.8082664322884,4,1,0,60,0,0
293221,-84.7706477293917,4,1,0,60,0,0
293331,-85.2537723665103,4,1,0,60,0,0
293552,-86.2327525975275,4,1,0,60,0,0
293883,-87.7200755181695,4,1,0,60,0,0
294103,-88.722792756014,4,1,0,60,0,0
294214,-89.2330514465567,4,1,0,60,0,0
294434,-90.2530633234547,4,1,0,60,0,0
294655,-91.2894510671261,4,1,0,60,0,0
294765,-91.8097276498927,4,1,0,60,0,0
294875,-92.3329693914965,4,1,0,60,0,0
294986,-92.8639907738507,4,1,0,60,0,0
295096,-93.3932409688854,4,1,0,60,0,0
295316,-94.4608074531192,4,1,0,60,0,0
295537,-95.545513273584,4,1,0,60,0,0
295868,-97.1934605740669,4,1,0,60,0,0
295978,-97.7473852712102,4,1,0,60,0,0
296089,-98.3095458081268,4,1,0,60,0,0
296309,-99.4333099595387,4,1,0,60,0,0
296419,-83.3333333333333,4,1,0,60,0,0
296530,-83.8124602396808,4,1,0,60,0,0
296750,-84.7702370677867,4,1,0,60,0,0
296861,-85.2576254850263,4,1,0,60,0,0
297081,-86.2319171103452,4,1,0,60,0,0
297412,-87.7188006750443,4,1,0,60,0,0
297633,-88.7258001669599,4,1,0,60,0,0
297743,-89.2313223423052,4,1,0,60,0,0
297964,-90.2556853701871,4,1,0,60,0,0
298184,-91.2870929175277,4,1,0,60,0,0
298294,-91.8072082583393,4,1,0,60,0,0
298405,-92.3350559024178,4,1,0,60,0,0
298515,-92.8611420941748,4,1,0,60,0,0
298625,-93.390225703093,4,1,0,60,0,0
298846,-94.4623323565035,4,1,0,60,0,0
299067,-86.9565217391304,4,1,0,60,0,0
299214,-89.9201439208078,4,1,0,60,0,0
299361,-92.9847712514961,4,1,0,60,0,0
299508,-96.1538461538461,4,1,0,60,0,0
299949,-83.3333333333333,4,1,0,60,0,0
300059,-83.8082664322884,4,1,0,60,0,0
300280,-84.7706477293917,4,1,0,60,0,0
300390,-85.2537723665103,4,1,0,60,0,0
300611,-86.2327525975275,4,1,0,60,0,0
300941,-87.715543682635,4,1,0,60,0,0
301162,-88.722792756014,4,1,0,60,0,0
301272,-89.2284414469527,4,1,0,60,0,0
301493,-90.2530633234547,4,1,0,60,0,0
301714,-91.2894510671261,4,1,0,60,0,0
301824,-91.8097276498927,4,1,0,60,0,0
301934,-92.3329693914965,4,1,0,60,0,0
302044,-92.8591931909624,4,1,0,60,0,0
302155,-93.3932409688854,4,1,0,60,0,0
302375,-94.4608074531192,4,1,0,60,0,0
302596,-95.545513273584,4,1,0,60,0,0
302927,-97.1934605740669,4,1,0,60,0,0
303037,-97.7473852712102,4,1,0,60,0,0
303147,-98.3044668944295,4,1,0,60,0,0
303368,-99.4333099595387,4,1,0,60,0,0
303478,-83.3333333333333,4,1,0,60,0,0
303589,-83.8124602396808,4,1,0,60,0,0
303809,-84.7702370677867,4,1,0,60,0,0
303919,-85.2532221134714,4,1,0,60,0,0
304140,-86.2319171103452,4,1,0,60,0,0
304471,-87.7188006750443,4,1,0,60,0,0
304691,-88.7212176717002,4,1,0,60,0,0
304802,-89.2313223423052,4,1,0,60,0,0
305022,-90.2510238596728,4,1,0,60,0,0
305243,-91.2870929175277,4,1,0,60,0,0
305353,-91.8072082583393,4,1,0,60,0,0
305464,-92.3350559024178,4,1,0,60,0,0
305574,-92.8611420941748,4,1,0,60,0,0
305684,-93.390225703093,4,1,0,60,0,0
305905,-94.4623323565035,4,1,0,60,0,0
306126,-86.9565217391304,4,1,0,60,0,0
306273,-89.9201439208078,4,1,0,60,0,0
306420,-92.9847712514961,4,1,0,60,0,0
306567,-96.1538461538461,4,1,0,60,0,0
307008,-83.3333333333333,4,1,0,60,0,0
307118,-83.8082664322884,4,1,0,60,0,0
307339,-84.7706477293917,4,1,0,60,0,0
307449,-85.2537723665103,4,1,0,60,0,0
307669,-86.2282976007648,4,1,0,60,0,0
308000,-87.715543682635,4,1,0,60,0,0
308221,-88.722792756014,4,1,0,60,0,0
308331,-89.2284414469527,4,1,0,60,0,0
308552,-90.2530633234547,4,1,0,60,0,0
308772,-91.284734828844,4,1,0,60,0,0
308883,-91.8097276498927,4,1,0,60,0,0
308993,-92.3329693914965,4,1,0,60,0,0
309103,-92.8591931909624,4,1,0,60,0,0
309214,-93.3932409688854,4,1,0,60,0,0
309434,-94.4608074531192,4,1,0,60,0,0
309655,-95.545513273584,4,1,0,60,0,0
309986,-97.1934605740669,4,1,0,60,0,0
310096,-97.7473852712102,4,1,0,60,0,0
310537,-76.9230769230769,4,1,0,60,0,0
310647,-77.3213618881615,4,1,0,60,0,0
310868,-78.1277970062443,4,1,0,60,0,0
310978,-78.5323196559803,4,1,0,60,0,0
311199,-79.3513846456359,4,1,0,60,0,0
311419,-74.2242794678775,4,1,0,60,0,0
311640,-81.0114279537644,4,1,0,60,0,0
311750,-81.4308811925666,4,1,0,60,0,0
311861,-81.8563491873355,4,1,0,60,0,0
312081,-82.7061996260817,4,1,0,60,0,0
312302,-83.5687967432679,4,1,0,60,0,0
312412,-84.0014912820776,4,1,0,60,0,0
312522,-84.4364261853679,4,1,0,60,0,0
312633,-84.8775978441836,4,1,0,60,0,0
312743,-85.3170689684034,4,1,0,60,0,0
312964,-86.2068965517241,4,1,0,60,0,0
313185,-80.1603206412826,4,1,0,60,0,0
313332,-82.6721036489197,4,1,0,60,0,0
313479,-85.2554951086505,4,1,0,60,0,0
313626,-87.9120879120879,4,1,0,60,0,0
314066,-76.9230769230769,4,1,0,60,0,0
314177,-77.336138801285,4,1,0,60,0,0
314397,-78.1613861538879,4,1,0,60,0,0
314508,-78.5810975104728,4,1,0,60,0,0
314728,-79.4196297114633,4,1,0,60,0,0
314949,-74.3063396769663,4,1,0,60,0,0
315169,-81.127547394966,4,1,0,60,0,0
315280,-81.5631864572839,4,1,0,60,0,0
315390,-81.9972085855774,4,1,0,60,0,0
315611,-82.8761922641813,4,1,0,60,0,0
315831,-83.7605570555961,4,1,0,60,0,0
315941,-84.206272050551,4,1,0,60,0,0
316052,-84.6584432621223,4,1,0,60,0,0
316162,-85.1089361783337,4,1,0,60,0,0
316272,-85.5618263021919,4,1,0,60,0,0
316493,-86.4790215351574,4,1,0,60,0,0
316714,-80.3803224211796,4,1,0,60,0,0
317044,-88.8088282475482,4,1,0,60,0,0
317155,-89.2857142857143,4,1,0,60,0,0
317596,-76.9230769230769,4,1,0,60,0,0
317706,-77.3213618881615,4,1,0,60,0,0
317927,-78.1277970062443,4,1,0,60,0,0
318037,-78.5323196559803,4,1,0,60,0,0
318258,-79.3513846456359,4,1,0,60,0,0
318478,-74.2242794678775,4,1,0,60,0,0
318699,-81.0114279537644,4,1,0,60,0,0
318809,-81.4308811925666,4,1,0,60,0,0
318920,-81.8563491873355,4,1,0,60,0,0
319140,-82.7061996260817,4,1,0,60,0,0
319361,-83.5687967432679,4,1,0,60,0,0
319471,-84.0014912820776,4,1,0,60,0,0
319581,-84.4364261853679,4,1,0,60,0,0
319692,-84.8775978441836,4,1,0,60,0,0
319802,-85.3170689684034,4,1,0,60,0,0
320023,-86.2068965517241,4,1,0,60,0,0
320244,-80.1603206412826,4,1,0,60,0,0
320391,-82.6721036489197,4,1,0,60,0,0
320538,-85.2554951086505,4,1,0,60,0,0
320685,-87.9120879120879,4,1,0,60,0,0
321125,-76.9230769230769,4,1,0,60,0,0
321236,-77.336138801285,4,1,0,60,0,0
321456,-78.1613861538879,4,1,0,60,0,0
321567,-78.5810975104728,4,1,0,60,0,0
321787,-79.4196297114633,4,1,0,60,0,0
322008,-74.3063396769663,4,1,0,60,0,0
322228,-81.127547394966,4,1,0,60,0,0
322339,-81.5631864572839,4,1,0,60,0,0
322449,-81.9972085855774,4,1,0,60,0,0
322670,-82.8761922641813,4,1,0,60,0,0
322890,-83.7605570555961,4,1,0,60,0,0
323000,-84.206272050551,4,1,0,60,0,0
323111,-84.6584432621223,4,1,0,60,0,0
323221,-85.1089361783337,4,1,0,60,0,0
323331,-85.5618263021919,4,1,0,60,0,0
323552,-86.4790215351574,4,1,0,60,0,0
323773,-80.3803224211796,4,1,0,60,0,0
324103,-88.8088282475482,4,1,0,60,0,0
324214,-89.2857142857143,4,1,0,60,0,0
324655,-76.9230769230769,4,1,0,60,0,0
324765,-77.3213618881615,4,1,0,60,0,0
324986,-78.1277970062443,4,1,0,60,0,0
325096,-78.5323196559803,4,1,0,60,0,0
325317,-79.3513846456359,4,1,0,60,0,0
325537,-74.2242794678775,4,1,0,60,0,0
325758,-81.0114279537644,4,1,0,60,0,0
325868,-81.4308811925666,4,1,0,60,0,0
325979,-81.8563491873355,4,1,0,60,0,0
326199,-82.7061996260817,4,1,0,60,0,0
326420,-83.5687967432679,4,1,0,60,0,0
326530,-84.0014912820776,4,1,0,60,0,0
326640,-84.4364261853679,4,1,0,60,0,0
326751,-84.8775978441836,4,1,0,60,0,0
326861,-85.3170689684034,4,1,0,60,0,0
327082,-86.2068965517241,4,1,0,60,0,0
327303,-80.1603206412826,4,1,0,60,0,0
327450,-82.6721036489197,4,1,0,60,0,0
327597,-85.2554951086505,4,1,0,60,0,0
327744,-87.9120879120879,4,1,0,60,0,0
328184,-76.9230769230769,4,1,0,60,0,0
328295,-77.336138801285,4,1,0,60,0,0
328515,-78.1613861538879,4,1,0,60,0,0
328626,-78.5810975104728,4,1,0,60,0,0
328846,-79.4196297114633,4,1,0,60,0,0
329067,-74.3063396769663,4,1,0,60,0,0
329287,-81.127547394966,4,1,0,60,0,0
329398,-81.5631864572839,4,1,0,60,0,0
329508,-81.9972085855774,4,1,0,60,0,0
329729,-82.8761922641813,4,1,0,60,0,0
329949,-83.7605570555961,4,1,0,60,0,0
330059,-84.206272050551,4,1,0,60,0,0
330170,-84.6584432621223,4,1,0,60,0,0
330280,-85.1089361783337,4,1,0,60,0,0
330390,-85.5618263021919,4,1,0,60,0,0
330611,-86.4790215351574,4,1,0,60,0,0
330832,-80.3803224211796,4,1,0,60,0,0
331162,-88.8088282475482,4,1,0,60,0,0
331273,-89.2857142857143,4,1,0,60,0,0
331714,-76.9230769230769,4,1,0,60,0,0
331824,-77.3213618881615,4,1,0,60,0,0
332045,-78.1277970062443,4,1,0,60,0,0
332155,-78.5323196559803,4,1,0,60,0,0
332376,-79.3513846456359,4,1,0,60,0,0
332596,-74.2242794678775,4,1,0,60,0,0
332817,-81.0114279537644,4,1,0,60,0,0
332927,-81.4308811925666,4,1,0,60,0,0
333038,-81.8563491873355,4,1,0,60,0,0
333258,-82.7061996260817,4,1,0,60,0,0
333479,-83.5687967432679,4,1,0,60,0,0
333589,-84.0014912820776,4,1,0,60,0,0
333699,-84.4364261853679,4,1,0,60,0,0
333810,-84.8775978441836,4,1,0,60,0,0
333920,-85.3170689684034,4,1,0,60,0,0
334141,-86.2068965517241,4,1,0,60,0,0
334362,-80.1603206412826,4,1,0,60,0,0
334509,-82.6721036489197,4,1,0,60,0,0
334656,-85.2554951086505,4,1,0,60,0,0
334803,-87.9120879120879,4,1,0,60,0,0
335243,-76.9230769230769,4,1,0,60,0,0
335354,-77.4009702031187,4,1,0,60,0,0
335574,-78.3700944984874,4,1,0,60,0,0
335685,-78.8569775382093,4,1,0,60,0,0
335905,-79.8443322521239,4,1,0,60,0,0
336236,-81.3463022289785,4,1,0,60,0,0
336457,-82.3601880470518,4,1,0,60,0,0
336567,-82.8718599923904,4,1,0,60,0,0
336788,-83.9094843620883,4,1,0,60,0,0
337008,-84.9601006488578,4,1,0,60,0,0
337118,-85.4879248440907,4,1,0,60,0,0
337229,-86.0190282065909,4,1,0,60,0,0
337339,-86.5583045138758,4,1,0,60,0,0
337449,-87.0960577306427,4,1,0,60,0,0
337670,-88.1816074768945,4,1,0,60,0,0
337891,-89.2857142857143,4,1,0,60,0,0
338773,-71.4285714285714,4,1,0,60,0,0
338883,-71.7718636458156,4,1,0,60,0,0
339104,-72.466174439793,4,1,0,60,0,0
339214,-72.8140624297932,4,1,0,60,0,0
339435,-73.5176567839285,4,1,0,60,0,0
339655,-69.0957008574083,4,1,0,60,0,0
339876,-74.9403992029114,4,1,0,60,0,0
339986,-75.2992009094167,4,1,0,60,0,0
340097,-75.6628634188116,4,1,0,60,0,0
340317,-76.3884049566214,4,1,0,60,0,0
340538,-77.1236648696779,4,1,0,60,0,0
340648,-77.4920440217538,4,1,0,60,0,0
340758,-77.8620342756126,4,1,0,60,0,0
340869,-78.2370269354333,4,1,0,60,0,0
340979,-78.6102710514794,4,1,0,60,0,0
341200,-79.3650793650794,4,1,0,60,0,0
341421,-74.2115027829313,4,1,0,60,0,0
341568,-76.3593181816458,4,1,0,60,0,0
341715,-78.5579944012309,4,1,0,60,0,0
341862,-80.8080808080808,4,1,0,60,0,0
342302,-71.4285714285714,4,1,0,60,0,0
342413,-71.7845953699597,4,1,0,60,0,0
342633,-72.4950709213507,4,1,0,60,0,0
342744,-72.8559935751236,4,1,0,60,0,0
342964,-73.5762325655434,4,1,0,60,0,0
343185,-69.1668073924887,4,1,0,60,0,0
343405,-75.0397560310503,4,1,0,60,0,0
343516,-75.4123175405483,4,1,0,60,0,0
343626,-75.7831979000822,4,1,0,60,0,0
343847,-76.5333958362274,4,1,0,60,0,0
344067,-77.2869583694392,4,1,0,60,0,0
344177,-77.666283825579,4,1,0,60,0,0
344288,-78.0507852845464,4,1,0,60,0,0
344398,-78.433540947585,4,1,0,60,0,0
344508,-78.8180131514442,4,1,0,60,0,0
344729,-79.5988219374353,4,1,0,60,0,0
344949,-74.4000244664247,4,1,0,60,0,0
345170,-81.1688229094544,4,1,0,60,0,0
345280,-81.5688474983189,4,1,0,60,0,0
345391,-81.9672131147541,4,1,0,60,0,0
345832,-71.4285714285714,4,1,0,60,0,0
345942,-71.7718636458156,4,1,0,60,0,0
346163,-72.466174439793,4,1,0,60,0,0
346273,-72.8140624297932,4,1,0,60,0,0
346494,-73.5176567839285,4,1,0,60,0,0
346714,-69.0957008574083,4,1,0,60,0,0
346935,-74.9403992029114,4,1,0,60,0,0
347045,-75.2992009094167,4,1,0,60,0,0
347156,-75.6628634188116,4,1,0,60,0,0
347376,-76.3884049566214,4,1,0,60,0,0
347597,-77.1236648696779,4,1,0,60,0,0
347707,-77.4920440217538,4,1,0,60,0,0
347817,-77.8620342756126,4,1,0,60,0,0
347928,-78.2370269354333,4,1,0,60,0,0
348038,-78.6102710514794,4,1,0,60,0,0
348259,-79.3650793650794,4,1,0,60,0,0
348480,-74.2115027829313,4,1,0,60,0,0
348627,-76.3593181816458,4,1,0,60,0,0
348774,-78.5579944012309,4,1,0,60,0,0
348921,-80.8080808080808,4,1,0,60,0,0
349361,-71.4285714285714,4,1,0,60,0,0
349472,-71.7845953699597,4,1,0,60,0,0
349692,-72.4950709213507,4,1,0,60,0,0
349803,-72.8559935751236,4,1,0,60,0,0
350023,-73.5762325655434,4,1,0,60,0,0
350244,-69.1668073924887,4,1,0,60,0,0
350464,-75.0397560310503,4,1,0,60,0,0
350575,-75.4123175405483,4,1,0,60,0,0
350685,-75.7831979000822,4,1,0,60,0,0
350906,-76.5333958362274,4,1,0,60,0,0
351126,-77.2869583694392,4,1,0,60,0,0
351236,-77.666283825579,4,1,0,60,0,0
351347,-78.0507852845464,4,1,0,60,0,0
351457,-78.433540947585,4,1,0,60,0,0
351567,-78.8180131514442,4,1,0,60,0,0
351788,-79.5988219374353,4,1,0,60,0,0
352008,-74.4000244664247,4,1,0,60,0,0
352229,-81.1688229094544,4,1,0,60,0,0
352339,-81.5688474983189,4,1,0,60,0,0
352450,-81.9672131147541,4,1,0,60,0,0
352890,-71.4285714285714,4,1,0,60,0,0
353221,-72.4646926618928,4,1,0,60,0,0
353552,-73.5158435561561,4,1,0,60,0,0
353773,-69.0957008574083,4,1,0,60,0,0
353993,-74.9400479616307,4,1,0,60,0,0
354103,-75.2992009094167,4,1,0,60,0,0
354214,-75.6628634188116,4,1,0,60,0,0
354434,-76.3884049566214,4,1,0,60,0,0
354655,-77.1236648696779,4,1,0,60,0,0
354765,-77.4920440217538,4,1,0,60,0,0
354875,-77.8620342756126,4,1,0,60,0,0
354986,-78.2370269354333,4,1,0,60,0,0
355096,-78.6102710514794,4,1,0,60,0,0
355317,-79.3650793650794,4,1,0,60,0,0
355538,-74.2115027829313,4,1,0,60,0,0
355685,-76.3593181816458,4,1,0,60,0,0
355832,-78.5579944012309,4,1,0,60,0,0
355979,-80.8080808080808,4,1,0,60,0,0
356419,-71.4285714285714,4,1,0,60,0,0
356530,-71.7845953699597,4,1,0,60,0,0
356750,-72.4950709213507,4,1,0,60,0,0
356861,-72.8559935751236,4,1,0,60,0,0
357081,-73.5762325655434,4,1,0,60,0,0
357302,-69.1668073924887,4,1,0,60,0,0
357522,-75.0397560310503,4,1,0,60,0,0
357633,-75.4123175405483,4,1,0,60,0,0
357743,-75.7831979000822,4,1,0,60,0,0
357964,-76.5333958362274,4,1,0,60,0,0
358184,-77.2869583694392,4,1,0,60,0,0
358294,-77.666283825579,4,1,0,60,0,0
358405,-78.0507852845464,4,1,0,60,0,0
358515,-78.433540947585,4,1,0,60,0,0
358625,-78.8180131514442,4,1,0,60,0,0
358846,-79.5988219374353,4,1,0,60,0,0
359066,-74.4000244664247,4,1,0,60,0,0
359287,-81.1688229094544,4,1,0,60,0,0
359397,-81.5688474983189,4,1,0,60,0,0
359508,-81.9672131147541,4,1,0,60,0,0
359949,-71.4285714285714,4,1,0,60,0,0
360059,-71.7718636458156,4,1,0,60,0,0
360280,-72.466174439793,4,1,0,60,0,0
360390,-72.8140624297932,4,1,0,60,0,0
360611,-73.5176567839285,4,1,0,60,0,0
360831,-69.0957008574083,4,1,0,60,0,0
361052,-74.9403992029114,4,1,0,60,0,0
361162,-75.2992009094167,4,1,0,60,0,0
361273,-75.6628634188116,4,1,0,60,0,0
361493,-76.3884049566214,4,1,0,60,0,0
361714,-77.1236648696779,4,1,0,60,0,0
361824,-77.4920440217538,4,1,0,60,0,0
361934,-77.8620342756126,4,1,0,60,0,0
362045,-78.2370269354333,4,1,0,60,0,0
362155,-78.6102710514794,4,1,0,60,0,0
362376,-79.3650793650794,4,1,0,60,0,0
362597,-74.2115027829313,4,1,0,60,0,0
362744,-76.3593181816458,4,1,0,60,0,0
362891,-78.5579944012309,4,1,0,60,0,0
363038,-80.8080808080808,4,1,0,60,0,0
363478,-71.4285714285714,4,1,0,60,0,0
363589,-71.7845953699597,4,1,0,60,0,0
363809,-72.4950709213507,4,1,0,60,0,0
363920,-72.8559935751236,4,1,0,60,0,0
364140,-73.5762325655434,4,1,0,60,0,0
364361,-69.1668073924887,4,1,0,60,0,0
364581,-75.0397560310503,4,1,0,60,0,0
364692,-75.4123175405483,4,1,0,60,0,0
364802,-75.7831979000822,4,1,0,60,0,0
365023,-76.5333958362274,4,1,0,60,0,0
365243,-77.2869583694392,4,1,0,60,0,0
365353,-77.666283825579,4,1,0,60,0,0
365464,-78.0507852845464,4,1,0,60,0,0
365574,-78.433540947585,4,1,0,60,0,0
365684,-78.8180131514442,4,1,0,60,0,0
365905,-79.5988219374353,4,1,0,60,0,0
366125,-80.3782093125778,4,1,0,60,0,0
366346,-81.1688229094544,4,1,0,60,0,0
366456,-81.5652348873767,4,1,0,60,0,0
366567,-81.9635828605568,4,1,0,60,0,0
367008,-66.8896321070234,4,1,0,60,0,0
367118,-67.1905895087377,4,1,0,60,0,0
367339,-67.7966101694915,4,1,0,60,0,0
367449,-68.1028105290079,4,1,0,60,0,0
367560,-68.4102977645921,4,1,0,60,0,0
367670,-68.719076415613,4,1,0,60,0,0
367890,-64.8395719721348,4,1,0,60,0,0
368111,-69.9597296390006,4,1,0,60,0,0
368221,-70.2723235878167,4,1,0,60,0,0
368332,-70.5889494777592,4,1,0,60,0,0
368552,-71.220039033071,4,1,0,60,0,0
368773,-71.8587548677256,4,1,0,60,0,0
368883,-72.1784510973862,4,1,0,60,0,0
368993,-72.4993357953861,4,1,0,60,0,0
369104,-72.8243447265065,4,1,0,60,0,0
369214,-73.1476242135877,4,1,0,60,0,0
369435,-73.8007380073801,4,1,0,60,0,0
369656,-69.3240901213172,4,1,0,60,0,0
369803,-71.1947544212176,4,1,0,60,0,0
369950,-73.1023584673926,4,1,0,60,0,0
370097,-75.046904315197,4,1,0,60,0,0
370537,-66.8896321070234,4,1,0,60,0,0
370648,-67.2017476218317,4,1,0,60,0,0
370868,-67.8241996744438,4,1,0,60,0,0
370979,-68.1375121246734,4,1,0,60,0,0
371089,-68.4550380433062,4,1,0,60,0,0
371199,-68.7710611374734,4,1,0,60,0,0
371420,-64.902184352266,4,1,0,60,0,0
371640,-70.0463108573222,4,1,0,60,0,0
371751,-70.3708314294646,4,1,0,60,0,0
371861,-70.6936747904966,4,1,0,60,0,0
372082,-71.3460575738559,4,1,0,60,0,0
372302,-72.0004941361999,4,1,0,60,0,0
372412,-72.3295917535644,4,1,0,60,0,0
372523,-72.66295464683,4,1,0,60,0,0
372633,-72.9945788247429,4,1,0,60,0,0
372743,-73.327464354111,4,1,0,60,0,0
372964,-74.0028121068601,4,1,0,60,0,0
373184,-69.4885706759206,4,1,0,60,0,0
373405,-75.357943144624,4,1,0,60,0,0
373515,-75.702620747678,4,1,0,60,0,0
373626,-76.0456273764259,4,1,0,60,0,0
374067,-66.8896321070234,4,1,0,60,0,0
374177,-67.1905895087377,4,1,0,60,0,0
374398,-67.7966101694915,4,1,0,60,0,0
374508,-68.1028105290079,4,1,0,60,0,0
374619,-68.4102977645921,4,1,0,60,0,0
374729,-68.719076415613,4,1,0,60,0,0
374949,-64.8395719721348,4,1,0,60,0,0
375170,-69.9597296390006,4,1,0,60,0,0
375280,-70.2723235878167,4,1,0,60,0,0
375391,-70.5889494777592,4,1,0,60,0,0
375611,-71.220039033071,4,1,0,60,0,0
375832,-71.8587548677256,4,1,0,60,0,0
375942,-72.1784510973862,4,1,0,60,0,0
376052,-72.4993357953861,4,1,0,60,0,0
376163,-72.8243447265065,4,1,0,60,0,0
376273,-73.1476242135877,4,1,0,60,0,0
376494,-73.8007380073801,4,1,0,60,0,0
376715,-69.3240901213172,4,1,0,60,0,0
376862,-71.1947544212176,4,1,0,60,0,0
377009,-73.1023584673926,4,1,0,60,0,0
377156,-75.046904315197,4,1,0,60,0,0
377596,-66.8896321070234,4,1,0,60,0,0
377707,-67.2017476218317,4,1,0,60,0,0
377927,-67.8241996744438,4,1,0,60,0,0
378038,-68.1375121246734,4,1,0,60,0,0
378148,-68.4550380433062,4,1,0,60,0,0
378258,-68.7710611374734,4,1,0,60,0,0
378479,-64.902184352266,4,1,0,60,0,0
378699,-70.0463108573222,4,1,0,60,0,0
378810,-70.3708314294646,4,1,0,60,0,0
378920,-70.6936747904966,4,1,0,60,0,0
379141,-71.3460575738559,4,1,0,60,0,0
379361,-72.0004941361999,4,1,0,60,0,0
379471,-72.3295917535644,4,1,0,60,0,0
379582,-72.66295464683,4,1,0,60,0,0
379692,-72.9945788247429,4,1,0,60,0,0
379802,-73.327464354111,4,1,0,60,0,0
380023,-74.0028121068601,4,1,0,60,0,0
380243,-69.4885706759206,4,1,0,60,0,0
380464,-75.357943144624,4,1,0,60,0,0
380574,-75.702620747678,4,1,0,60,0,0
380685,-76.0456273764259,4,1,0,60,0,0
381126,-66.8896321070234,4,1,0,60,0,0
381236,-67.1905895087377,4,1,0,60,0,0
381457,-67.7966101694915,4,1,0,60,0,0
381567,-68.1028105290079,4,1,0,60,0,0
381678,-68.4102977645921,4,1,0,60,0,0
381788,-68.719076415613,4,1,0,60,0,0
382008,-64.8395719721348,4,1,0,60,0,0
382229,-69.9597296390006,4,1,0,60,0,0
382339,-70.2723235878167,4,1,0,60,0,0
382450,-70.5889494777592,4,1,0,60,0,0
382670,-71.220039033071,4,1,0,60,0,0
382891,-71.8587548677256,4,1,0,60,0,0
383001,-72.1784510973862,4,1,0,60,0,0
383111,-72.4993357953861,4,1,0,60,0,0
383222,-72.8243447265065,4,1,0,60,0,0
383332,-73.1476242135877,4,1,0,60,0,0
383553,-73.8007380073801,4,1,0,60,0,0
383774,-69.3240901213172,4,1,0,60,0,0
383921,-71.1947544212176,4,1,0,60,0,0
384068,-73.1023584673926,4,1,0,60,0,0
384215,-75.046904315197,4,1,0,60,0,0
384655,-66.8896321070234,4,1,0,60,0,0
384766,-67.2017476218317,4,1,0,60,0,0
384986,-67.8241996744438,4,1,0,60,0,0
385097,-68.1375121246734,4,1,0,60,0,0
385207,-68.4550380433062,4,1,0,60,0,0
385317,-68.7710611374734,4,1,0,60,0,0
385538,-64.902184352266,4,1,0,60,0,0
385758,-70.0463108573222,4,1,0,60,0,0
385869,-70.3708314294646,4,1,0,60,0,0
385979,-70.6936747904966,4,1,0,60,0,0
386200,-71.3460575738559,4,1,0,60,0,0
386420,-72.0004941361999,4,1,0,60,0,0
386530,-72.3295917535644,4,1,0,60,0,0
386641,-72.66295464683,4,1,0,60,0,0
386751,-72.9945788247429,4,1,0,60,0,0
386861,-73.327464354111,4,1,0,60,0,0
387082,-74.0028121068601,4,1,0,60,0,0
387302,-69.4885706759206,4,1,0,60,0,0
387523,-75.357943144624,4,1,0,60,0,0
387633,-75.702620747678,4,1,0,60,0,0
387744,-76.0456273764259,4,1,0,60,0,0
388185,-66.8896321070234,4,1,0,60,0,0
388295,-67.1905895087377,4,1,0,60,0,0
388516,-67.7966101694915,4,1,0,60,0,0
388626,-68.1028105290079,4,1,0,60,0,0
388737,-68.4102977645921,4,1,0,60,0,0
388847,-68.719076415613,4,1,0,60,0,0
389067,-64.8395719721348,4,1,0,60,0,0
389288,-69.9597296390006,4,1,0,60,0,0
389398,-70.2723235878167,4,1,0,60,0,0
389509,-70.5889494777592,4,1,0,60,0,0
389729,-71.220039033071,4,1,0,60,0,0
389950,-71.8587548677256,4,1,0,60,0,0
390060,-72.1784510973862,4,1,0,60,0,0
390170,-72.4993357953861,4,1,0,60,0,0
390281,-72.8243447265065,4,1,0,60,0,0
390391,-73.1476242135877,4,1,0,60,0,0
390612,-73.8007380073801,4,1,0,60,0,0
390833,-69.3240901213172,4,1,0,60,0,0
390980,-71.1947544212176,4,1,0,60,0,0
391127,-73.1023584673926,4,1,0,60,0,0
391274,-75.046904315197,4,1,0,60,0,0
391714,-66.8896321070234,4,1,0,60,0,0
391825,-67.2017476218317,4,1,0,60,0,0
392045,-67.8241996744438,4,1,0,60,0,0
392156,-68.1375121246734,4,1,0,60,0,0
392266,-68.4550380433062,4,1,0,60,0,0
392376,-68.7710611374734,4,1,0,60,0,0
392597,-64.902184352266,4,1,0,60,0,0
392817,-70.0463108573222,4,1,0,60,0,0
392928,-70.3708314294646,4,1,0,60,0,0
393038,-70.6936747904966,4,1,0,60,0,0
393259,-71.3460575738559,4,1,0,60,0,0
393479,-72.0004941361999,4,1,0,60,0,0
393589,-72.3295917535644,4,1,0,60,0,0
393700,-72.66295464683,4,1,0,60,0,0
393810,-72.9945788247429,4,1,0,60,0,0
393920,-73.327464354111,4,1,0,60,0,0
394141,-74.0028121068601,4,1,0,60,0,0
394361,-69.4885706759206,4,1,0,60,0,0
394582,-75.357943144624,4,1,0,60,0,0
394692,-75.702620747678,4,1,0,60,0,0
394803,-76.0456273764259,4,1,0,60,0,0
394913,-76.4818355640535,4,1,0,60,0,0
395133,-76.6283524904215,4,1,0,60,0,0

[HitObjects]
256,192,42330,5,8,0:0:0:0:
256,192,42550,1,0,0:0:0:0:
256,192,42661,1,8,0:0:0:0:
256,192,42771,1,0,0:0:0:0:
256,192,42992,1,8,0:0:0:0:
256,192,43212,1,8,0:0:0:0:
256,192,43433,1,0,0:0:0:0:
256,192,43543,1,0,0:0:0:0:
256,192,43653,1,8,0:0:0:0:
256,192,44094,1,8,0:0:0:0:
256,192,44315,1,8,0:0:0:0:
256,192,44425,1,8,0:0:0:0:
256,192,44536,1,0,0:0:0:0:
256,192,44756,1,8,0:0:0:0:
256,192,44977,1,8,0:0:0:0:
256,192,45197,1,0,0:0:0:0:
256,192,45308,1,0,0:0:0:0:
256,192,45418,1,8,0:0:0:0:
256,192,45859,1,8,0:0:0:0:
256,192,46080,1,0,0:0:0:0:
256,192,46190,1,0,0:0:0:0:
256,192,46300,1,8,0:0:0:0:
256,192,46521,1,8,0:0:0:0:
256,192,46742,1,0,0:0:0:0:
256,192,46962,1,0,0:0:0:0:
256,192,47072,1,0,0:0:0:0:
256,192,47183,1,8,0:0:0:0:
256,192,47624,1,8,0:0:0:0:
256,192,47844,1,0,0:0:0:0:
256,192,47955,1,0,0:0:0:0:
256,192,48065,1,8,0:0:0:0:
256,192,48286,1,0,0:0:0:0:
256,192,48506,1,8,0:0:0:0:
256,192,48727,1,0,0:0:0:0:
256,192,48837,1,0,0:0:0:0:
256,192,48947,1,8,0:0:0:0:
256,192,49389,1,8,0:0:0:0:
256,192,49609,1,0,0:0:0:0:
256,192,49719,1,8,0:0:0:0:
256,192,49830,1,0,0:0:0:0:
256,192,50050,1,0,0:0:0:0:
256,192,50271,1,8,0:0:0:0:
256,192,50492,1,0,0:0:0:0:
256,192,50602,1,0,0:0:0:0:
256,192,50712,1,8,0:0:0:0:
256,192,51153,1,8,0:0:0:0:
256,192,51374,1,8,0:0:0:0:
256,192,51484,1,8,0:0:0:0:
256,192,51594,1,0,0:0:0:0:
256,192,51815,1,8,0:0:0:0:
256,192,52036,1,8,0:0:0:0:
256,192,52256,1,0,0:0:0:0:
256,192,52367,1,0,0:0:0:0:
256,192,52477,1,8,0:0:0:0:
256,192,52918,1,8,0:0:0:0:
256,192,53139,1,0,0:0:0:0:
256,192,53249,1,0,0:0:0:0:
256,192,53359,1,8,0:0:0:0:
256,192,53580,1,8,0:0:0:0:
256,192,53800,1,0,0:0:0:0:
256,192,54021,1,0,0:0:0:0:
256,192,54131,1,0,0:0:0:0:
256,192,54242,1,8,0:0:0:0:
256,192,54683,1,8,0:0:0:0:
256,192,54903,1,0,0:0:0:0:
256,192,55014,1,0,0:0:0:0:
256,192,55124,1,8,0:0:0:0:
256,192,55344,1,0,0:0:0:0:
256,192,55565,1,8,0:0:0:0:
256,192,55786,1,0,0:0:0:0:
256,192,55896,1,0,0:0:0:0:
256,192,56006,1,8,0:0:0:0:
256,192,56447,1,8,0:0:0:0:
256,192,56668,1,0,0:0:0:0:
256,192,56778,1,8,0:0:0:0:
256,192,56889,1,0,0:0:0:0:
256,192,56999,1,0,0:0:0:0:
256,192,57109,1,8,0:0:0:0:
256,192,57330,1,0,0:0:0:0:
256,192,57550,1,0,0:0:0:0:
256,192,57661,1,0,0:0:0:0:
256,192,57771,1,8,0:0:0:0:
256,192,58212,1,8,0:0:0:0:
256,192,58433,1,8,0:0:0:0:
256,192,58543,1,8,0:0:0:0:
256,192,58653,1,0,0:0:0:0:
256,192,58764,1,0,0:0:0:0:
256,192,58874,1,8,0:0:0:0:
256,192,59094,1,8,0:0:0:0:
256,192,59315,1,0,0:0:0:0:
256,192,59425,1,0,0:0:0:0:
256,192,59536,1,8,0:0:0:0:
256,192,59977,1,8,0:0:0:0:
256,192,60197,1,0,0:0:0:0:
256,192,60308,1,8,0:0:0:0:
256,192,60418,1,8,0:0:0:0:
256,192,60528,1,0,0:0:0:0:
256,192,60639,1,8,0:0:0:0:
256,192,60859,1,8,0:0:0:0:
256,192,61080,1,0,0:0:0:0:
256,192,61190,1,0,0:0:0:0:
256,192,61300,1,8,0:0:0:0:
256,192,61742,1,8,0:0:0:0:
256,192,61962,1,8,0:0:0:0:
256,192,62072,1,8,0:0:0:0:
256,192,62183,1,0,0:0:0:0:
256,192,62293,1,8,0:0:0:0:
256,192,62403,1,0,0:0:0:0:
256,192,62624,1,8,0:0:0:0:
256,192,62844,1,0,0:0:0:0:
256,192,62955,1,0,0:0:0:0:
256,192,63065,1,8,0:0:0:0:
256,192,63506,1,8,0:0:0:0:
256,192,63727,1,0,0:0:0:0:
256,192,63837,1,0,0:0:0:0:
256,192,63947,1,8,0:0:0:0:
256,192,64058,1,0,0:0:0:0:
256,192,64168,1,8,0:0:0:0:
256,192,64389,1,0,0:0:0:0:
256,192,64609,1,0,0:0:0:0:
256,192,64719,1,0,0:0:0:0:
256,192,64830,1,8,0:0:0:0:
256,192,65271,1,8,0:0:0:0:
256,192,65492,1,8,0:0:0:0:
256,192,65602,1,8,0:0:0:0:
256,192,65712,1,0,0:0:0:0:
256,192,65822,1,0,0:0:0:0:
256,192,65933,1,8,0:0:0:0:
256,192,66153,1,8,0:0:0:0:
256,192,66374,1,0,0:0:0:0:
256,192,66484,1,0,0:0:0:0:
256,192,66595,1,8,0:0:0:0:
256,192,67036,1,8,0:0:0:0:
256,192,67256,1,0,0:0:0:0:
256,192,67367,1,8,0:0:0:0:
256,192,67477,1,8,0:0:0:0:
256,192,67587,1,0,0:0:0:0:
256,192,67697,1,8,0:0:0:0:
256,192,67918,1,8,0:0:0:0:
256,192,68139,1,0,0:0:0:0:
256,192,68249,1,0,0:0:0:0:
256,192,68359,1,8,0:0:0:0:
256,192,68800,1,8,0:0:0:0:
256,192,69021,1,8,0:0:0:0:
256,192,69131,1,8,0:0:0:0:
256,192,69242,1,0,0:0:0:0:
256,192,69352,1,8,0:0:0:0:
256,192,69462,1,0,0:0:0:0:
256,192,69683,1,8,0:0:0:0:
256,192,69903,1,0,0:0:0:0:
256,192,70014,1,0,0:0:0:0:
256,192,70124,1,8,0:0:0:0:
256,192,71447,1,8,0:0:0:0:
256,192,73212,1,8,0:0:0:0:
256,192,74977,1,8,0:0:0:0:
256,192,76742,1,8,0:0:0:0:
256,192,84242,5,8,0:0:0:0:
256,192,84462,1,8,0:0:0:0:
256,192,84683,5,4,0:0:0:0:
256,192,85565,1,12,0:0:0:0:
256,192,86447,1,4,0:0:0:0:
256,192,87330,1,12,0:0:0:0:
256,192,88212,1,4,0:0:0:0:
256,192,88653,1,8,0:0:0:0:
256,192,88764,1,8,0:0:0:0:
256,192,88874,1,0,0:0:0:0:
256,192,89094,1,12,0:0:0:0:
256,192,89536,1,8,0:0:0:0:
256,192,89646,1,0,0:0:0:0:
256,192,89756,1,0,0:0:0:0:
256,192,89977,1,4,0:0:0:0:
256,192,90418,1,8,0:0:0:0:
256,192,90528,1,8,0:0:0:0:
256,192,90639,1,0,0:0:0:0:
256,192,90859,1,12,0:0:0:0:
256,192,91300,1,8,0:0:0:0:
256,192,91411,1,8,0:0:0:0:
256,192,91521,1,8,0:0:0:0:
256,192,91742,1,4,0:0:0:0:
256,192,92624,1,12,0:0:0:0:
256,192,93506,1,4,0:0:0:0:
256,192,94389,1,12,0:0:0:0:
256,192,95271,1,4,0:0:0:0:
256,192,95712,1,8,0:0:0:0:
256,192,95822,1,8,0:0:0:0:
256,192,95933,1,0,0:0:0:0:
256,192,96153,1,12,0:0:0:0:
256,192,96594,1,8,0:0:0:0:
256,192,96705,1,0,0:0:0:0:
256,192,96815,1,8,0:0:0:0:
256,192,97036,1,4,0:0:0:0:
256,192,97477,1,8,0:0:0:0:
256,192,97587,1,8,0:0:0:0:
256,192,97697,1,0,0:0:0:0:
256,192,97918,1,12,0:0:0:0:
256,192,98359,1,8,0:0:0:0:
256,192,98469,1,0,0:0:0:0:
256,192,98580,1,8,0:0:0:0:
256,192,98800,1,4,0:0:0:0:
256,192,99683,1,12,0:0:0:0:
256,192,100565,1,4,0:0:0:0:
256,192,101447,1,12,0:0:0:0:
256,192,102330,1,4,0:0:0:0:
256,192,102771,1,8,0:0:0:0:
256,192,102881,1,8,0:0:0:0:
256,192,102992,1,0,0:0:0:0:
256,192,103212,1,12,0:0:0:0:
256,192,103653,1,8,0:0:0:0:
256,192,103764,1,0,0:0:0:0:
256,192,103874,1,0,0:0:0:0:
256,192,104094,1,4,0:0:0:0:
256,192,104536,1,8,0:0:0:0:
256,192,104646,1,8,0:0:0:0:
256,192,104756,1,0,0:0:0:0:
256,192,104977,1,12,0:0:0:0:
256,192,105418,1,8,0:0:0:0:
256,192,105528,1,0,0:0:0:0:
256,192,105639,1,0,0:0:0:0:
256,192,105859,1,4,0:0:0:0:
256,192,106742,1,12,0:0:0:0:
256,192,107624,1,4,0:0:0:0:
256,192,108506,1,12,0:0:0:0:
256,192,109389,1,4,0:0:0:0:
256,192,109830,1,8,0:0:0:0:
256,192,109940,1,8,0:0:0:0:
256,192,110050,1,0,0:0:0:0:
256,192,110271,1,12,0:0:0:0:
256,192,110712,1,8,0:0:0:0:
256,192,110822,1,0,0:0:0:0:
256,192,110933,1,8,0:0:0:0:
256,192,111153,1,4,0:0:0:0:
256,192,111595,1,8,0:0:0:0:
256,192,111705,1,8,0:0:0:0:
256,192,111815,1,0,0:0:0:0:
256,192,112036,1,12,0:0:0:0:
256,192,112477,1,8,0:0:0:0:
256,192,112697,1,8,0:0:0:0:
256,192,112918,5,4,0:0:0:0:
256,192,113359,1,8,0:0:0:0:
256,192,113800,1,12,0:0:0:0:
256,192,114242,1,8,0:0:0:0:
256,192,114683,1,0,0:0:0:0:
256,192,115124,1,8,0:0:0:0:
256,192,115565,1,12,0:0:0:0:
256,192,116006,1,8,0:0:0:0:
256,192,116447,1,4,0:0:0:0:
256,192,116889,1,8,0:0:0:0:
256,192,116999,1,8,0:0:0:0:
256,192,117109,1,0,0:0:0:0:
256,192,117330,1,12,0:0:0:0:
256,192,117771,1,8,0:0:0:0:
256,192,117881,1,0,0:0:0:0:
256,192,117992,1,0,0:0:0:0:
256,192,118212,1,4,0:0:0:0:
256,192,118653,1,8,0:0:0:0:
256,192,118764,1,8,0:0:0:0:
256,192,118874,1,0,0:0:0:0:
256,192,119094,1,12,0:0:0:0:
256,192,119536,1,8,0:0:0:0:
256,192,119646,1,8,0:0:0:0:
256,192,119756,1,8,0:0:0:0:
256,192,119977,1,4,0:0:0:0:
256,192,120418,1,8,0:0:0:0:
256,192,120859,1,12,0:0:0:0:
256,192,121300,1,8,0:0:0:0:
256,192,121742,1,0,0:0:0:0:
256,192,122183,1,8,0:0:0:0:
256,192,122624,1,12,0:0:0:0:
256,192,123065,1,8,0:0:0:0:
256,192,123506,1,4,0:0:0:0:
256,192,123947,1,8,0:0:0:0:
256,192,124058,1,8,0:0:0:0:
256,192,124168,1,0,0:0:0:0:
256,192,124389,1,12,0:0:0:0:
256,192,124830,1,8,0:0:0:0:
256,192,124940,1,0,0:0:0:0:
256,192,125050,1,8,0:0:0:0:
256,192,125271,1,4,0:0:0:0:
256,192,125712,1,8,0:0:0:0:
256,192,125822,1,8,0:0:0:0:
256,192,125933,1,0,0:0:0:0:
256,192,126153,1,12,0:0:0:0:
256,192,126594,1,8,0:0:0:0:
256,192,126705,1,8,0:0:0:0:
256,192,126815,1,8,0:0:0:0:
256,192,127036,1,4,0:0:0:0:
256,192,127477,1,8,0:0:0:0:
256,192,127918,1,12,0:0:0:0:
256,192,128359,1,8,0:0:0:0:
256,192,128800,1,0,0:0:0:0:
256,192,129242,1,8,0:0:0:0:
256,192,129683,1,12,0:0:0:0:
256,192,130124,1,8,0:0:0:0:
256,192,130565,1,4,0:0:0:0:
256,192,131006,1,8,0:0:0:0:
256,192,131117,1,8,0:0:0:0:
256,192,131227,1,0,0:0:0:0:
256,192,131447,1,12,0:0:0:0:
256,192,131889,1,8,0:0:0:0:
256,192,131999,1,0,0:0:0:0:
256,192,132109,1,0,0:0:0:0:
256,192,132330,1,4,0:0:0:0:
256,192,132771,1,8,0:0:0:0:
256,192,132881,1,8,0:0:0:0:
256,192,132992,1,0,0:0:0:0:
256,192,133212,1,12,0:0:0:0:
256,192,133653,1,8,0:0:0:0:
256,192,133764,1,8,0:0:0:0:
256,192,133874,1,8,0:0:0:0:
256,192,134094,1,4,0:0:0:0:
256,192,134536,1,0,0:0:0:0:
256,192,134977,1,12,0:0:0:0:
256,192,135418,1,0,0:0:0:0:
256,192,135859,1,0,0:0:0:0:
256,192,136300,1,0,0:0:0:0:
256,192,136742,1,12,0:0:0:0:
256,192,137183,1,0,0:0:0:0:
256,192,137624,1,4,0:0:0:0:
256,192,138065,1,8,0:0:0:0:
256,192,138175,1,8,0:0:0:0:
256,192,138286,1,0,0:0:0:0:
256,192,138506,1,12,0:0:0:0:
256,192,138727,1,0,0:0:0:0:
256,192,138947,1,8,0:0:0:0:
256,192,139058,1,8,0:0:0:0:
256,192,139168,1,8,0:0:0:0:
256,192,139389,1,0,0:0:0:0:
256,192,139499,1,0,0:0:0:0:
256,192,139609,1,0,0:0:0:0:
256,192,139830,1,8,0:0:0:0:
256,192,139940,1,8,0:0:0:0:
256,192,140050,1,8,0:0:0:0:
256,192,140161,1,8,0:0:0:0:
256,192,140712,1,8,0:0:0:0:
256,192,140933,1,8,0:0:0:0:
256,192,141153,5,0,0:0:0:0:
256,192,141374,1,8,0:0:0:0:
256,192,141484,1,0,0:0:0:0:
256,192,141594,1,8,0:0:0:0:
256,192,141815,1,0,0:0:0:0:
256,192,142036,1,12,0:0:0:0:
256,192,142477,1,0,0:0:0:0:
256,192,142918,1,0,0:0:0:0:
256,192,143139,1,8,0:0:0:0:
256,192,143249,1,8,0:0:0:0:
256,192,143359,1,8,0:0:0:0:
256,192,143580,1,0,0:0:0:0:
256,192,143800,1,12,0:0:0:0:
256,192,144242,1,0,0:0:0:0:
256,192,144683,1,0,0:0:0:0:
256,192,144903,1,8,0:0:0:0:
256,192,145014,1,8,0:0:0:0:
256,192,145124,1,0,0:0:0:0:
256,192,145344,1,0,0:0:0:0:
256,192,145565,1,12,0:0:0:0:
256,192,146006,1,0,0:0:0:0:
256,192,146447,1,0,0:0:0:0:
256,192,146668,1,8,0:0:0:0:
256,192,146778,1,0,0:0:0:0:
256,192,146889,1,0,0:0:0:0:
256,192,147109,1,0,0:0:0:0:
256,192,147330,1,12,0:0:0:0:
256,192,147771,1,0,0:0:0:0:
256,192,147881,1,0,0:0:0:0:
256,192,148102,1,0,0:0:0:0:
256,192,148212,1,0,0:0:0:0:
256,192,148433,1,8,0:0:0:0:
256,192,148543,1,0,0:0:0:0:
256,192,148653,1,8,0:0:0:0:
256,192,148874,1,0,0:0:0:0:
256,192,149094,1,12,0:0:0:0:
256,192,149536,1,0,0:0:0:0:
256,192,149977,1,0,0:0:0:0:
256,192,150197,1,8,0:0:0:0:
256,192,150308,1,8,0:0:0:0:
256,192,150418,1,8,0:0:0:0:
256,192,150639,1,0,0:0:0:0:
256,192,150859,1,12,0:0:0:0:
256,192,151300,1,0,0:0:0:0:
256,192,151742,1,0,0:0:0:0:
256,192,151962,1,8,0:0:0:0:
256,192,152072,1,8,0:0:0:0:
256,192,152183,1,0,0:0:0:0:
256,192,152403,1,0,0:0:0:0:
256,192,152624,1,12,0:0:0:0:
256,192,153065,1,0,0:0:0:0:
256,192,153506,1,0,0:0:0:0:
256,192,153727,1,8,0:0:0:0:
256,192,153837,1,0,0:0:0:0:
256,192,153947,1,0,0:0:0:0:
256,192,154168,1,0,0:0:0:0:
256,192,154389,1,12,0:0:0:0:
256,192,154830,1,0,0:0:0:0:
256,192,154940,1,0,0:0:0:0:
256,192,155050,1,0,0:0:0:0:
256,192,155161,1,0,0:0:0:0:
256,192,155271,1,0,0:0:0:0:
256,192,155492,1,8,0:0:0:0:
256,192,155602,1,0,0:0:0:0:
256,192,155712,1,8,0:0:0:0:
256,192,155933,1,0,0:0:0:0:
256,192,156153,1,12,0:0:0:0:
256,192,156594,1,0,0:0:0:0:
256,192,157036,1,0,0:0:0:0:
256,192,157256,1,8,0:0:0:0:
256,192,157367,1,8,0:0:0:0:
256,192,157477,1,8,0:0:0:0:
256,192,157697,1,0,0:0:0:0:
256,192,157918,1,12,0:0:0:0:
256,192,158359,1,0,0:0:0:0:
256,192,158800,1,0,0:0:0:0:
256,192,159021,1,8,0:0:0:0:
256,192,159131,1,8,0:0:0:0:
256,192,159242,1,0,0:0:0:0:
256,192,159462,1,0,0:0:0:0:
256,192,159683,1,12,0:0:0:0:
256,192,160124,1,0,0:0:0:0:
256,192,160565,1,0,0:0:0:0:
256,192,160786,1,8,0:0:0:0:
256,192,160896,1,0,0:0:0:0:
256,192,161006,1,0,0:0:0:0:
256,192,161227,1,0,0:0:0:0:
256,192,161447,1,12,0:0:0:0:
256,192,161889,1,0,0:0:0:0:
256,192,161999,1,0,0:0:0:0:
256,192,162219,1,0,0:0:0:0:
256,192,162330,1,0,0:0:0:0:
256,192,162550,1,8,0:0:0:0:
256,192,162661,1,0,0:0:0:0:
256,192,162771,1,8,0:0:0:0:
256,192,162992,1,0,0:0:0:0:
256,192,163212,1,12,0:0:0:0:
256,192,163653,1,0,0:0:0:0:
256,192,164094,1,0,0:0:0:0:
256,192,164315,1,8,0:0:0:0:
256,192,164425,1,8,0:0:0:0:
256,192,164536,1,8,0:0:0:0:
256,192,164756,1,0,0:0:0:0:
256,192,164977,1,12,0:0:0:0:
256,192,165418,1,0,0:0:0:0:
256,192,165859,1,0,0:0:0:0:
256,192,166080,1,8,0:0:0:0:
256,192,166190,1,8,0:0:0:0:
256,192,166300,1,0,0:0:0:0:
256,192,166521,1,0,0:0:0:0:
256,192,166742,1,12,0:0:0:0:
256,192,167183,1,0,0:0:0:0:
256,192,167624,1,0,0:0:0:0:
256,192,167844,1,8,0:0:0:0:
256,192,167955,1,0,0:0:0:0:
256,192,168065,1,0,0:0:0:0:
256,192,168286,1,0,0:0:0:0:
256,192,168506,1,12,0:0:0:0:
256,192,168947,1,8,0:0:0:0:
256,192,169389,5,4,0:0:0:0:
256,192,170050,1,8,0:0:0:0:
256,192,170271,1,4,0:0:0:0:
256,192,170712,1,8,0:0:0:0:
256,192,171153,1,4,0:0:0:0:
256,192,171374,1,8,0:0:0:0:
256,192,172036,1,4,0:0:0:0:
256,192,172477,1,4,0:0:0:0:
256,192,172918,1,4,0:0:0:0:
256,192,173580,1,8,0:0:0:0:
256,192,173800,1,4,0:0:0:0:
256,192,174242,1,8,0:0:0:0:
256,192,174683,1,4,0:0:0:0:
256,192,174903,1,8,0:0:0:0:
256,192,175565,1,4,0:0:0:0:
256,192,176006,1,4,0:0:0:0:
256,192,176337,1,0,0:0:0:0:
256,192,176447,1,0,0:0:0:0:
256,192,176889,1,12,0:0:0:0:
256,192,177330,1,0,0:0:0:0:
256,192,177771,1,12,0:0:0:0:
256,192,178212,1,0,0:0:0:0:
256,192,178653,1,12,0:0:0:0:
256,192,179094,1,0,0:0:0:0:
256,192,179536,1,12,0:0:0:0:
256,192,179977,1,0,0:0:0:0:
256,192,180418,1,12,0:0:0:0:
256,192,180859,1,0,0:0:0:0:
256,192,181300,1,12,0:0:0:0:
256,192,181742,1,0,0:0:0:0:
256,192,182183,1,12,0:0:0:0:
256,192,183065,1,12,0:0:0:0:
256,192,183506,1,0,0:0:0:0:
256,192,183727,1,0,0:0:0:0:
256,192,183837,1,0,0:0:0:0:
256,192,183947,1,8,0:0:0:0:
256,192,184168,1,8,0:0:0:0:
256,192,184389,1,0,0:0:0:0:
256,192,184499,1,8,0:0:0:0:
256,192,184609,1,0,0:0:0:0:
256,192,184719,1,0,0:0:0:0:
256,192,184830,1,8,0:0:0:0:
256,192,185050,1,8,0:0:0:0:
256,192,185271,1,0,0:0:0:0:
256,192,185381,1,0,0:0:0:0:
256,192,185492,1,0,0:0:0:0:
256,192,185712,1,8,0:0:0:0:
256,192,185933,1,0,0:0:0:0:
256,192,186043,1,0,0:0:0:0:
256,192,186264,1,8,0:0:0:0:
256,192,186374,1,0,0:0:0:0:
256,192,186594,1,8,0:0:0:0:
256,192,187036,1,0,0:0:0:0:
256,192,187256,1,0,0:0:0:0:
256,192,187367,1,8,0:0:0:0:
256,192,187477,1,8,0:0:0:0:
256,192,187697,1,0,0:0:0:0:
256,192,187918,1,8,0:0:0:0:
256,192,188028,1,8,0:0:0:0:
256,192,188139,1,0,0:0:0:0:
256,192,188249,1,0,0:0:0:0:
256,192,188359,1,8,0:0:0:0:
256,192,188580,1,8,0:0:0:0:
256,192,188800,1,0,0:0:0:0:
256,192,189021,1,0,0:0:0:0:
256,192,189131,1,0,0:0:0:0:
256,192,189242,1,8,0:0:0:0:
256,192,189462,1,0,0:0:0:0:
256,192,189683,1,8,0:0:0:0:
256,192,189793,1,8,0:0:0:0:
256,192,190014,1,8,0:0:0:0:
256,192,190565,1,0,0:0:0:0:
256,192,190786,1,8,0:0:0:0:
256,192,190896,1,0,0:0:0:0:
256,192,191006,1,8,0:0:0:0:
256,192,191227,1,0,0:0:0:0:
256,192,191447,1,0,0:0:0:0:
256,192,191558,1,8,0:0:0:0:
256,192,191668,1,8,0:0:0:0:
256,192,191778,1,0,0:0:0:0:
256,192,191889,1,8,0:0:0:0:
256,192,192109,1,8,0:0:0:0:
256,192,192330,1,0,0:0:0:0:
256,192,192440,1,0,0:0:0:0:
256,192,192550,1,0,0:0:0:0:
256,192,192771,1,8,0:0:0:0:
256,192,192992,1,0,0:0:0:0:
256,192,193102,1,0,0:0:0:0:
256,192,193322,1,8,0:0:0:0:
256,192,193433,1,0,0:0:0:0:
256,192,193653,1,8,0:0:0:0:
256,192,194094,1,0,0:0:0:0:
256,192,194315,1,0,0:0:0:0:
256,192,194425,1,0,0:0:0:0:
256,192,194536,1,8,0:0:0:0:
256,192,194756,1,0,0:0:0:0:
256,192,194977,1,8,0:0:0:0:
256,192,195087,1,0,0:0:0:0:
256,192,195197,1,0,0:0:0:0:
256,192,195308,1,8,0:0:0:0:
256,192,195418,1,8,0:0:0:0:
256,192,195639,1,8,0:0:0:0:
256,192,195859,1,0,0:0:0:0:
256,192,196080,1,0,0:0:0:0:
256,192,196190,1,0,0:0:0:0:
256,192,196300,1,8,0:0:0:0:
256,192,196521,1,0,0:0:0:0:
256,192,196742,1,8,0:0:0:0:
256,192,196852,1,8,0:0:0:0:
256,192,197072,1,8,0:0:0:0:
256,192,197624,1,8,0:0:0:0:
256,192,197844,1,0,0:0:0:0:
256,192,197955,1,0,0:0:0:0:
256,192,198065,1,8,0:0:0:0:
256,192,198286,1,0,0:0:0:0:
256,192,198506,1,8,0:0:0:0:
256,192,198617,1,8,0:0:0:0:
256,192,198727,1,0,0:0:0:0:
256,192,198837,1,0,0:0:0:0:
256,192,198947,1,8,0:0:0:0:
256,192,199168,1,8,0:0:0:0:
256,192,199389,1,0,0:0:0:0:
256,192,199499,1,8,0:0:0:0:
256,192,199609,1,0,0:0:0:0:
256,192,199830,1,8,0:0:0:0:
256,192,200050,1,0,0:0:0:0:
256,192,200161,1,0,0:0:0:0:
256,192,200381,1,8,0:0:0:0:
256,192,200492,1,0,0:0:0:0:
256,192,200712,1,8,0:0:0:0:
256,192,201153,1,8,0:0:0:0:
256,192,201374,1,0,0:0:0:0:
256,192,201484,1,8,0:0:0:0:
256,192,201594,1,8,0:0:0:0:
256,192,201815,1,0,0:0:0:0:
256,192,202036,1,8,0:0:0:0:
256,192,202146,1,8,0:0:0:0:
256,192,202256,1,0,0:0:0:0:
256,192,202367,1,8,0:0:0:0:
256,192,202477,1,8,0:0:0:0:
256,192,202697,1,0,0:0:0:0:
256,192,202918,1,8,0:0:0:0:
256,192,203139,1,8,0:0:0:0:
256,192,203249,1,0,0:0:0:0:
256,192,203359,1,8,0:0:0:0:
256,192,203580,1,0,0:0:0:0:
256,192,203800,1,8,0:0:0:0:
256,192,203911,1,8,0:0:0:0:
256,192,204131,1,8,0:0:0:0:
256,192,204683,1,8,0:0:0:0:
256,192,204903,1,0,0:0:0:0:
256,192,205014,1,0,0:0:0:0:
256,192,205124,1,8,0:0:0:0:
256,192,205344,1,0,0:0:0:0:
256,192,205565,1,8,0:0:0:0:
256,192,205675,1,8,0:0:0:0:
256,192,205786,1,8,0:0:0:0:
256,192,205896,1,0,0:0:0:0:
256,192,206006,1,8,0:0:0:0:
256,192,206227,1,8,0:0:0:0:
256,192,206447,1,0,0:0:0:0:
256,192,206558,1,8,0:0:0:0:
256,192,206668,1,0,0:0:0:0:
256,192,206889,1,8,0:0:0:0:
256,192,207109,1,0,0:0:0:0:
256,192,207219,1,0,0:0:0:0:
256,192,207440,1,8,0:0:0:0:
256,192,207550,1,0,0:0:0:0:
256,192,207771,1,8,0:0:0:0:
256,192,208212,1,8,0:0:0:0:
256,192,208433,1,0,0:0:0:0:
256,192,208543,1,8,0:0:0:0:
256,192,208653,1,8,0:0:0:0:
256,192,208874,1,0,0:0:0:0:
256,192,209094,1,8,0:0:0:0:
256,192,209205,1,0,0:0:0:0:
256,192,209315,1,0,0:0:0:0:
256,192,209425,1,0,0:0:0:0:
256,192,209536,1,8,0:0:0:0:
256,192,209756,1,0,0:0:0:0:
256,192,209977,1,8,0:0:0:0:
256,192,210087,1,8,0:0:0:0:
256,192,210197,1,0,0:0:0:0:
256,192,210308,1,8,0:0:0:0:
256,192,210418,1,0,0:0:0:0:
256,192,210639,1,0,0:0:0:0:
256,192,210859,1,8,0:0:0:0:
256,192,210969,1,8,0:0:0:0:
256,192,211190,1,8,0:0:0:0:
256,192,211742,5,4,0:0:0:0:
256,192,212403,1,8,0:0:0:0:
256,192,212624,1,0,0:0:0:0:
256,192,213065,1,8,0:0:0:0:
256,192,213506,1,0,0:0:0:0:
256,192,213727,1,8,0:0:0:0:
256,192,214389,1,0,0:0:0:0:
256,192,214830,1,8,0:0:0:0:
256,192,215271,1,4,0:0:0:0:
256,192,215933,1,8,0:0:0:0:
256,192,216153,1,0,0:0:0:0:
256,192,216594,1,8,0:0:0:0:
256,192,217036,1,0,0:0:0:0:
256,192,217256,1,8,0:0:0:0:
256,192,217918,1,0,0:0:0:0:
256,192,218359,1,8,0:0:0:0:
256,192,218800,1,4,0:0:0:0:
256,192,219462,1,8,0:0:0:0:
256,192,219683,1,0,0:0:0:0:
256,192,220124,1,8,0:0:0:0:
256,192,220565,1,0,0:0:0:0:
256,192,220786,1,8,0:0:0:0:
256,192,221447,1,0,0:0:0:0:
256,192,221889,1,8,0:0:0:0:
256,192,222330,1,4,0:0:0:0:
256,192,222992,1,8,0:0:0:0:
256,192,223212,1,0,0:0:0:0:
256,192,223653,1,8,0:0:0:0:
256,192,224094,1,0,0:0:0:0:
256,192,224315,1,8,0:0:0:0:
256,192,224977,1,0,0:0:0:0:
256,192,225418,1,8,0:0:0:0:
256,192,225859,1,0,0:0:0:0:
256,192,226190,1,0,0:0:0:0:
256,192,226521,1,8,0:0:0:0:
256,192,226852,1,0,0:0:0:0:
256,192,227183,1,8,0:0:0:0:
64,64,227403,1,0,0:0:0:0:
256,192,227624,1,8,0:0:0:0:
256,192,227955,1,0,0:0:0:0:
256,192,228286,1,8,0:0:0:0:
256,192,228617,1,8,0:0:0:0:
256,192,228947,1,0,0:0:0:0:
256,192,229168,1,0,0:0:0:0:
256,192,229389,1,8,0:0:0:0:
256,192,229719,1,0,0:0:0:0:
256,192,230050,1,8,0:0:0:0:
256,192,230381,1,0,0:0:0:0:
256,192,230712,1,8,0:0:0:0:
256,192,230933,1,8,0:0:0:0:
256,192,231153,1,0,0:0:0:0:
256,192,231484,1,8,0:0:0:0:
256,192,231815,1,8,0:0:0:0:
256,192,232146,1,0,0:0:0:0:
256,192,232477,1,0,0:0:0:0:
256,192,232918,1,0,0:0:0:0:
256,192,233249,1,0,0:0:0:0:
256,192,233580,1,8,0:0:0:0:
256,192,233911,1,8,0:0:0:0:
256,192,234242,1,0,0:0:0:0:
256,192,234462,1,8,0:0:0:0:
256,192,234683,1,0,0:0:0:0:
256,192,235014,1,0,0:0:0:0:
256,192,235344,1,8,0:0:0:0:
256,192,235675,1,0,0:0:0:0:
256,192,236006,1,8,0:0:0:0:
256,192,236227,1,8,0:0:0:0:
256,192,236447,1,0,0:0:0:0:
256,192,236778,1,0,0:0:0:0:
256,192,237109,1,8,0:0:0:0:
256,192,237440,1,0,0:0:0:0:
256,192,237771,1,8,0:0:0:0:
256,192,237992,1,0,0:0:0:0:
256,192,238212,1,8,0:0:0:0:
256,192,238543,1,0,0:0:0:0:
256,192,238874,1,8,0:0:0:0:
256,192,239205,1,8,0:0:0:0:
256,192,239536,1,0,0:0:0:0:
256,192,239646,1,0,0:0:0:0:
256,192,239756,1,0,0:0:0:0:
256,192,239867,1,0,0:0:0:0:
256,192,239977,1,0,0:0:0:0:
256,192,240859,1,12,0:0:0:0:
256,192,241300,1,0,0:0:0:0:
256,192,242624,1,12,0:0:0:0:
256,192,243065,1,0,0:0:0:0:
256,192,243506,1,0,0:0:0:0:
256,192,244389,1,12,0:0:0:0:
256,192,244830,1,0,0:0:0:0:
256,192,246153,1,12,0:0:0:0:
256,192,247036,1,0,0:0:0:0:
256,192,247918,1,12,0:0:0:0:
256,192,248359,1,0,0:0:0:0:
256,192,249683,1,12,0:0:0:0:
256,192,250124,1,0,0:0:0:0:
256,192,250565,1,0,0:0:0:0:
256,192,251447,1,12,0:0:0:0:
256,192,251889,1,0,0:0:0:0:
256,192,254094,5,0,0:0:0:0:
256,192,254389,1,0,0:0:0:0:
256,192,254536,1,0,0:0:0:0:
256,192,254756,1,0,0:0:0:0:
256,192,255308,1,0,0:0:0:0:
256,192,255639,1,0,0:0:0:0:
256,192,256080,1,0,0:0:0:0:
256,192,256300,1,0,0:0:0:0:
256,192,256742,1,0,0:0:0:0:
256,192,257293,1,0,0:0:0:0:
256,192,257514,1,0,0:0:0:0:
256,192,257918,1,0,0:0:0:0:
256,192,258065,1,0,0:0:0:0:
256,192,258286,1,0,0:0:0:0:
256,192,258837,1,0,0:0:0:0:
256,192,259168,1,0,0:0:0:0:
256,192,259609,1,0,0:0:0:0:
256,192,259830,1,0,0:0:0:0:
256,192,260271,1,0,0:0:0:0:
256,192,260822,1,0,0:0:0:0:
256,192,261043,1,0,0:0:0:0:
256,192,261447,1,0,0:0:0:0:
256,192,261594,1,0,0:0:0:0:
256,192,261815,1,0,0:0:0:0:
256,192,262367,1,0,0:0:0:0:
256,192,262697,1,0,0:0:0:0:
256,192,263139,1,0,0:0:0:0:
256,192,263359,1,0,0:0:0:0:
256,192,263800,1,0,0:0:0:0:
256,192,264352,1,0,0:0:0:0:
256,192,264572,1,0,0:0:0:0:
256,192,264977,1,0,0:0:0:0:
256,192,265124,1,0,0:0:0:0:
256,192,265344,1,0,0:0:0:0:
256,192,265896,1,0,0:0:0:0:
256,192,266227,1,0,0:0:0:0:
256,192,266668,1,0,0:0:0:0:
256,192,266889,1,0,0:0:0:0:
256,192,267330,1,0,0:0:0:0:
256,192,267881,1,0,0:0:0:0:
256,192,268102,1,0,0:0:0:0:
256,192,268322,1,8,0:0:0:0:
256,192,268653,1,8,0:0:0:0:
256,192,268874,1,8,0:0:0:0:
256,192,269205,1,8,0:0:0:0:
256,192,269756,1,8,0:0:0:0:
256,192,270087,1,8,0:0:0:0:
256,192,270308,1,8,0:0:0:0:
256,192,270859,1,8,0:0:0:0:
256,192,271631,1,8,0:0:0:0:
256,192,271852,1,8,0:0:0:0:
256,192,272183,1,8,0:0:0:0:
256,192,272403,1,8,0:0:0:0:
256,192,272734,1,8,0:0:0:0:
256,192,273286,1,8,0:0:0:0:
256,192,273617,1,8,0:0:0:0:
256,192,273837,1,8,0:0:0:0:
256,192,274389,1,8,0:0:0:0:
256,192,275161,1,8,0:0:0:0:
256,192,275381,1,8,0:0:0:0:
256,192,275712,1,8,0:0:0:0:
256,192,275933,1,8,0:0:0:0:
256,192,276264,1,8,0:0:0:0:
256,192,276815,1,8,0:0:0:0:
256,192,277146,1,8,0:0:0:0:
256,192,277367,1,8,0:0:0:0:
256,192,277918,1,8,0:0:0:0:
256,192,278690,1,8,0:0:0:0:
256,192,278911,1,8,0:0:0:0:
256,192,279242,1,8,0:0:0:0:
256,192,279462,1,8,0:0:0:0:
256,192,279793,1,8,0:0:0:0:
256,192,280344,1,8,0:0:0:0:
256,192,280675,1,8,0:0:0:0:
256,192,280896,1,8,0:0:0:0:
256,192,281447,1,8,0:0:0:0:
256,192,282330,1,0,0:0:0:0:
256,192,282440,1,8,0:0:0:0:
256,192,282661,1,8,0:0:0:0:
256,192,282771,1,8,0:0:0:0:
256,192,282992,1,8,0:0:0:0:
256,192,283322,1,8,0:0:0:0:
256,192,283543,1,8,0:0:0:0:
256,192,283653,1,0,0:0:0:0:
256,192,283874,1,8,0:0:0:0:
256,192,284205,1,8,0:0:0:0:
256,192,284315,1,0,0:0:0:0:
256,192,284425,1,8,0:0:0:0:
256,192,284536,1,0,0:0:0:0:
64,64,284756,1,0,0:0:0:0:
256,192,284977,1,8,0:0:0:0:
256,192,285124,1,8,0:0:0:0:
256,192,285271,1,8,0:0:0:0:
256,192,285418,1,8,0:0:0:0:
256,192,285859,1,0,0:0:0:0:
256,192,285969,1,8,0:0:0:0:
256,192,286190,1,8,0:0:0:0:
256,192,286300,1,0,0:0:0:0:
256,192,286521,1,8,0:0:0:0:
256,192,286852,1,8,0:0:0:0:
256,192,287072,1,8,0:0:0:0:
256,192,287183,1,0,0:0:0:0:
256,192,287403,1,8,0:0:0:0:
256,192,287734,1,8,0:0:0:0:
256,192,287844,1,0,0:0:0:0:
256,192,287955,1,8,0:0:0:0:
256,192,288065,1,0,0:0:0:0:
256,192,288286,1,0,0:0:0:0:
256,192,288506,1,8,0:0:0:0:
256,192,288837,1,0,0:0:0:0:
256,192,288947,1,0,0:0:0:0:
256,192,289389,1,0,0:0:0:0:
256,192,289499,1,8,0:0:0:0:
256,192,289719,1,8,0:0:0:0:
256,192,289830,1,8,0:0:0:0:
256,192,290050,1,8,0:0:0:0:
256,192,290381,1,8,0:0:0:0:
256,192,290602,1,8,0:0:0:0:
256,192,290712,1,0,0:0:0:0:
256,192,290933,1,8,0:0:0:0:
256,192,291264,1,8,0:0:0:0:
256,192,291374,1,0,0:0:0:0:
256,192,291484,1,8,0:0:0:0:
256,192,291594,1,0,0:0:0:0:
64,64,291815,1,0,0:0:0:0:
256,192,292036,1,8,0:0:0:0:
256,192,292183,1,8,0:0:0:0:
256,192,292330,1,8,0:0:0:0:
256,192,292477,1,8,0:0:0:0:
256,192,292918,1,0,0:0:0:0:
256,192,293028,1,8,0:0:0:0:
256,192,293249,1,8,0:0:0:0:
256,192,293359,1,0,0:0:0:0:
256,192,293580,1,8,0:0:0:0:
256,192,293911,1,8,0:0:0:0:
256,192,294131,1,8,0:0:0:0:
256,192,294242,1,0,0:0:0:0:
256,192,294462,1,8,0:0:0:0:
256,192,294793,1,8,0:0:0:0:
256,192,294903,1,0,0:0:0:0:
256,192,295014,1,8,0:0:0:0:
256,192,295124,1,0,0:0:0:0:
256,192,295344,1,0,0:0:0:0:
256,192,295565,1,8,0:0:0:0:
256,192,295896,1,0,0:0:0:0:
256,192,296006,1,0,0:0:0:0:
256,192,296447,1,0,0:0:0:0:
256,192,296558,1,8,0:0:0:0:
256,192,296778,1,8,0:0:0:0:
256,192,296889,1,8,0:0:0:0:
256,192,297109,1,8,0:0:0:0:
256,192,297440,1,8,0:0:0:0:
256,192,297661,1,8,0:0:0:0:
256,192,297771,1,0,0:0:0:0:
256,192,297992,1,8,0:0:0:0:
256,192,298322,1,8,0:0:0:0:
256,192,298433,1,0,0:0:0:0:
256,192,298543,1,8,0:0:0:0:
256,192,298653,1,0,0:0:0:0:
64,64,298874,1,0,0:0:0:0:
256,192,299094,1,8,0:0:0:0:
256,192,299242,1,8,0:0:0:0:
256,192,299389,1,8,0:0:0:0:
256,192,299536,1,8,0:0:0:0:
256,192,299977,1,0,0:0:0:0:
256,192,300087,1,8,0:0:0:0:
256,192,300308,1,8,0:0:0:0:
256,192,300418,1,0,0:0:0:0:
256,192,300639,1,8,0:0:0:0:
256,192,300969,1,8,0:0:0:0:
256,192,301190,1,8,0:0:0:0:
256,192,301300,1,0,0:0:0:0:
256,192,301521,1,8,0:0:0:0:
256,192,301852,1,8,0:0:0:0:
256,192,301962,1,0,0:0:0:0:
256,192,302072,1,8,0:0:0:0:
256,192,302183,1,0,0:0:0:0:
256,192,302403,1,0,0:0:0:0:
256,192,302624,1,8,0:0:0:0:
256,192,302955,1,0,0:0:0:0:
256,192,303065,1,0,0:0:0:0:
256,192,303506,1,0,0:0:0:0:
256,192,303617,1,8,0:0:0:0:
256,192,303837,1,8,0:0:0:0:
256,192,303947,1,8,0:0:0:0:
256,192,304168,1,8,0:0:0:0:
256,192,304499,1,8,0:0:0:0:
256,192,304719,1,8,0:0:0:0:
256,192,304830,1,0,0:0:0:0:
256,192,305050,1,8,0:0:0:0:
256,192,305381,1,8,0:0:0:0:
256,192,305492,1,0,0:0:0:0:
256,192,305602,1,8,0:0:0:0:
256,192,305712,1,0,0:0:0:0:
64,64,305933,1,0,0:0:0:0:
256,192,306153,1,8,0:0:0:0:
256,192,306300,1,8,0:0:0:0:
256,192,306447,1,8,0:0:0:0:
256,192,306594,1,8,0:0:0:0:
256,192,307036,1,0,0:0:0:0:
256,192,307146,1,8,0:0:0:0:
256,192,307367,1,8,0:0:0:0:
256,192,307477,1,0,0:0:0:0:
256,192,307697,1,8,0:0:0:0:
256,192,308028,1,8,0:0:0:0:
256,192,308249,1,8,0:0:0:0:
256,192,308359,1,0,0:0:0:0:
256,192,308580,1,8,0:0:0:0:
256,192,308911,1,8,0:0:0:0:
256,192,309021,1,0,0:0:0:0:
256,192,309131,1,8,0:0:0:0:
256,192,309242,1,0,0:0:0:0:
256,192,309462,1,0,0:0:0:0:
256,192,309683,1,8,0:0:0:0:
256,192,310014,1,0,0:0:0:0:
256,192,310124,1,0,0:0:0:0:
256,192,310565,1,0,0:0:0:0:
256,192,310675,1,8,0:0:0:0:
256,192,310896,1,8,0:0:0:0:
256,192,311006,1,8,0:0:0:0:
256,192,311227,1,0,0:0:0:0:
256,192,311447,1,12,0:0:0:0:
256,192,311668,1,0,0:0:0:0:
256,192,311778,1,8,0:0:0:0:
256,192,311889,1,0,0:0:0:0:
256,192,312109,1,8,0:0:0:0:
256,192,312440,1,8,0:0:0:0:
256,192,312550,1,0,0:0:0:0:
256,192,312661,1,8,0:0:0:0:
256,192,312771,1,0,0:0:0:0:
256,192,312992,1,0,0:0:0:0:
256,192,313212,1,8,0:0:0:0:
256,192,313359,1,8,0:0:0:0:
256,192,313506,1,8,0:0:0:0:
256,192,313653,1,8,0:0:0:0:
256,192,314094,1,0,0:0:0:0:
256,192,314205,1,8,0:0:0:0:
256,192,314425,1,8,0:0:0:0:
256,192,314536,1,0,0:0:0:0:
256,192,314756,1,0,0:0:0:0:
256,192,314977,1,12,0:0:0:0:
256,192,315197,1,8,0:0:0:0:
256,192,315308,1,8,0:0:0:0:
256,192,315418,1,0,0:0:0:0:
256,192,315639,1,8,0:0:0:0:
256,192,315969,1,8,0:0:0:0:
256,192,316080,1,0,0:0:0:0:
256,192,316190,1,8,0:0:0:0:
256,192,316300,1,0,0:0:0:0:
256,192,316521,1,0,0:0:0:0:
256,192,316742,1,12,0:0:0:0:
256,192,317072,1,0,0:0:0:0:
256,192,317183,1,0,0:0:0:0:
256,192,317624,1,0,0:0:0:0:
256,192,317734,1,8,0:0:0:0:
256,192,317955,1,8,0:0:0:0:
256,192,318065,1,8,0:0:0:0:
256,192,318286,1,0,0:0:0:0:
256,192,318506,1,12,0:0:0:0:
256,192,318727,1,0,0:0:0:0:
256,192,318837,1,8,0:0:0:0:
256,192,318947,1,0,0:0:0:0:
256,192,319168,1,8,0:0:0:0:
256,192,319499,1,8,0:0:0:0:
256,192,319609,1,0,0:0:0:0:
256,192,319719,1,8,0:0:0:0:
256,192,319830,1,0,0:0:0:0:
256,192,320050,1,0,0:0:0:0:
256,192,320271,1,8,0:0:0:0:
256,192,320418,1,8,0:0:0:0:
256,192,320565,1,8,0:0:0:0:
256,192,320712,1,8,0:0:0:0:
256,192,321153,1,0,0:0:0:0:
256,192,321264,1,8,0:0:0:0:
256,192,321484,1,8,0:0:0:0:
256,192,321594,1,0,0:0:0:0:
256,192,321815,1,0,0:0:0:0:
256,192,322036,1,12,0:0:0:0:
256,192,322256,1,8,0:0:0:0:
256,192,322367,1,8,0:0:0:0:
256,192,322477,1,0,0:0:0:0:
256,192,322697,1,8,0:0:0:0:
256,192,323028,1,8,0:0:0:0:
256,192,323139,1,0,0:0:0:0:
256,192,323249,1,8,0:0:0:0:
256,192,323359,1,0,0:0:0:0:
256,192,323580,1,0,0:0:0:0:
256,192,323800,1,12,0:0:0:0:
256,192,324131,1,0,0:0:0:0:
256,192,324242,1,0,0:0:0:0:
256,192,324683,1,0,0:0:0:0:
256,192,324793,1,8,0:0:0:0:
256,192,325014,1,8,0:0:0:0:
256,192,325124,1,8,0:0:0:0:
256,192,325344,1,0,0:0:0:0:
256,192,325565,1,12,0:0:0:0:
256,192,325786,1,0,0:0:0:0:
256,192,325896,1,8,0:0:0:0:
256,192,326006,1,0,0:0:0:0:
256,192,326227,1,8,0:0:0:0:
256,192,326558,1,8,0:0:0:0:
256,192,326668,1,0,0:0:0:0:
256,192,326778,1,8,0:0:0:0:
256,192,326889,1,0,0:0:0:0:
256,192,327109,1,0,0:0:0:0:
256,192,327330,1,8,0:0:0:0:
256,192,327477,1,8,0:0:0:0:
256,192,327624,1,8,0:0:0:0:
256,192,327771,1,8,0:0:0:0:
256,192,328212,1,0,0:0:0:0:
256,192,328322,1,8,0:0:0:0:
256,192,328543,1,8,0:0:0:0:
256,192,328653,1,0,0:0:0:0:
256,192,328874,1,0,0:0:0:0:
256,192,329094,1,12,0:0:0:0:
256,192,329315,1,8,0:0:0:0:
256,192,329425,1,8,0:0:0:0:
256,192,329536,1,0,0:0:0:0:
256,192,329756,1,8,0:0:0:0:
256,192,330087,1,8,0:0:0:0:
256,192,330197,1,0,0:0:0:0:
256,192,330308,1,8,0:0:0:0:
256,192,330418,1,0,0:0:0:0:
256,192,330639,1,0,0:0:0:0:
256,192,330859,1,12,0:0:0:0:
256,192,331190,1,0,0:0:0:0:
256,192,331300,1,0,0:0:0:0:
256,192,331742,1,0,0:0:0:0:
256,192,331852,1,8,0:0:0:0:
256,192,332072,1,8,0:0:0:0:
256,192,332183,1,8,0:0:0:0:
256,192,332403,1,0,0:0:0:0:
256,192,332624,1,12,0:0:0:0:
256,192,332844,1,0,0:0:0:0:
256,192,332955,1,8,0:0:0:0:
256,192,333065,1,0,0:0:0:0:
256,192,333286,1,8,0:0:0:0:
256,192,333617,1,8,0:0:0:0:
256,192,333727,1,0,0:0:0:0:
256,192,333837,1,8,0:0:0:0:
256,192,333947,1,0,0:0:0:0:
256,192,334168,1,0,0:0:0:0:
256,192,334389,1,8,0:0:0:0:
256,192,334536,1,8,0:0:0:0:
256,192,334683,1,8,0:0:0:0:
256,192,334830,1,8,0:0:0:0:
256,192,335271,1,0,0:0:0:0:
256,192,335381,1,8,0:0:0:0:
256,192,335602,1,8,0:0:0:0:
256,192,335712,1,0,0:0:0:0:
256,192,335933,1,8,0:0:0:0:
256,192,336264,1,8,0:0:0:0:
256,192,336484,1,8,0:0:0:0:
256,192,336594,1,0,0:0:0:0:
256,192,336815,1,8,0:0:0:0:
256,192,337146,1,8,0:0:0:0:
256,192,337256,1,0,0:0:0:0:
256,192,337367,1,8,0:0:0:0:
256,192,337477,1,0,0:0:0:0:
256,192,337697,1,0,0:0:0:0:
256,192,337918,1,8,0:0:0:0:
256,192,338800,1,0,0:0:0:0:
256,192,338911,1,8,0:0:0:0:
256,192,339131,1,8,0:0:0:0:
256,192,339242,1,8,0:0:0:0:
256,192,339462,1,0,0:0:0:0:
256,192,339683,1,12,0:0:0:0:
256,192,339903,1,0,0:0:0:0:
256,192,340014,1,8,0:0:0:0:
256,192,340124,1,0,0:0:0:0:
256,192,340344,1,8,0:0:0:0:
256,192,340565,1,0,0:0:0:0:
256,192,340675,1,8,0:0:0:0:
256,192,340786,1,0,0:0:0:0:
256,192,340896,1,8,0:0:0:0:
256,192,341006,1,0,0:0:0:0:
256,192,341227,1,0,0:0:0:0:
256,192,341447,1,8,0:0:0:0:
256,192,341594,1,0,0:0:0:0:
256,192,341742,1,0,0:0:0:0:
256,192,341889,1,8,0:0:0:0:
256,192,342330,1,0,0:0:0:0:
256,192,342440,1,8,0:0:0:0:
256,192,342661,1,8,0:0:0:0:
256,192,342771,1,0,0:0:0:0:
256,192,342992,1,0,0:0:0:0:
256,192,343212,1,12,0:0:0:0:
256,192,343433,1,8,0:0:0:0:
256,192,343543,1,8,0:0:0:0:
256,192,343653,1,0,0:0:0:0:
256,192,343874,1,8,0:0:0:0:
256,192,344094,1,8,0:0:0:0:
256,192,344205,1,8,0:0:0:0:
256,192,344315,1,0,0:0:0:0:
256,192,344425,1,8,0:0:0:0:
256,192,344536,1,0,0:0:0:0:
256,192,344756,1,0,0:0:0:0:
256,192,344977,1,12,0:0:0:0:
256,192,345197,1,0,0:0:0:0:
256,192,345308,1,8,0:0:0:0:
256,192,345418,1,0,0:0:0:0:
256,192,345859,1,0,0:0:0:0:
256,192,345969,1,8,0:0:0:0:
256,192,346190,1,8,0:0:0:0:
256,192,346300,1,8,0:0:0:0:
256,192,346521,1,0,0:0:0:0:
256,192,346742,1,12,0:0:0:0:
256,192,346962,1,0,0:0:0:0:
256,192,347072,1,8,0:0:0:0:
256,192,347183,1,0,0:0:0:0:
256,192,347403,1,8,0:0:0:0:
256,192,347624,1,0,0:0:0:0:
256,192,347734,1,8,0:0:0:0:
256,192,347844,1,0,0:0:0:0:
256,192,347955,1,8,0:0:0:0:
256,192,348065,1,0,0:0:0:0:
256,192,348286,1,0,0:0:0:0:
256,192,348506,1,8,0:0:0:0:
256,192,348653,1,0,0:0:0:0:
256,192,348800,1,0,0:0:0:0:
256,192,348947,1,8,0:0:0:0:
256,192,349389,1,0,0:0:0:0:
256,192,349499,1,8,0:0:0:0:
256,192,349719,1,8,0:0:0:0:
256,192,349830,1,0,0:0:0:0:
256,192,350050,1,0,0:0:0:0:
256,192,350271,1,12,0:0:0:0:
256,192,350492,1,8,0:0:0:0:
256,192,350602,1,8,0:0:0:0:
256,192,350712,1,0,0:0:0:0:
256,192,350933,1,8,0:0:0:0:
256,192,351153,1,8,0:0:0:0:
256,192,351264,1,8,0:0:0:0:
256,192,351374,1,0,0:0:0:0:
256,192,351484,1,8,0:0:0:0:
256,192,351594,1,0,0:0:0:0:
256,192,351815,1,0,0:0:0:0:
256,192,352036,1,12,0:0:0:0:
256,192,352256,1,0,0:0:0:0:
256,192,352367,1,8,0:0:0:0:
256,192,352477,1,0,0:0:0:0:
256,192,352918,1,0,0:0:0:0:
256,192,353249,1,0,0:0:0:0:
256,192,353580,1,0,0:0:0:0:
256,192,353800,1,12,0:0:0:0:
256,192,354021,1,0,0:0:0:0:
256,192,354131,1,8,0:0:0:0:
256,192,354242,1,0,0:0:0:0:
256,192,354462,1,8,0:0:0:0:
256,192,354683,1,0,0:0:0:0:
256,192,354793,1,8,0:0:0:0:
256,192,354903,1,0,0:0:0:0:
256,192,355014,1,8,0:0:0:0:
256,192,355124,1,0,0:0:0:0:
256,192,355344,1,0,0:0:0:0:
256,192,355565,1,8,0:0:0:0:
256,192,355712,1,0,0:0:0:0:
256,192,355859,1,0,0:0:0:0:
256,192,356006,1,8,0:0:0:0:
256,192,356447,1,0,0:0:0:0:
256,192,356558,1,8,0:0:0:0:
256,192,356778,1,8,0:0:0:0:
256,192,356889,1,0,0:0:0:0:
256,192,357109,1,0,0:0:0:0:
256,192,357330,1,12,0:0:0:0:
256,192,357550,1,8,0:0:0:0:
256,192,357661,1,8,0:0:0:0:
256,192,357771,1,0,0:0:0:0:
256,192,357992,1,8,0:0:0:0:
256,192,358212,1,8,0:0:0:0:
256,192,358322,1,8,0:0:0:0:
256,192,358433,1,0,0:0:0:0:
256,192,358543,1,8,0:0:0:0:
256,192,358653,1,0,0:0:0:0:
256,192,358874,1,0,0:0:0:0:
256,192,359094,1,12,0:0:0:0:
256,192,359315,1,0,0:0:0:0:
256,192,359425,1,8,0:0:0:0:
256,192,359536,1,0,0:0:0:0:
256,192,359977,1,0,0:0:0:0:
256,192,360087,1,8,0:0:0:0:
256,192,360308,1,8,0:0:0:0:
256,192,360418,1,8,0:0:0:0:
256,192,360639,1,0,0:0:0:0:
256,192,360859,1,12,0:0:0:0:
256,192,361080,1,0,0:0:0:0:
256,192,361190,1,8,0:0:0:0:
256,192,361300,1,0,0:0:0:0:
256,192,361521,1,8,0:0:0:0:
256,192,361742,1,0,0:0:0:0:
256,192,361852,1,8,0:0:0:0:
256,192,361962,1,0,0:0:0:0:
256,192,362072,1,8,0:0:0:0:
256,192,362183,1,0,0:0:0:0:
256,192,362403,1,0,0:0:0:0:
256,192,362624,1,8,0:0:0:0:
256,192,362771,1,0,0:0:0:0:
256,192,362918,1,0,0:0:0:0:
256,192,363065,1,8,0:0:0:0:
256,192,363506,1,0,0:0:0:0:
256,192,363617,1,8,0:0:0:0:
256,192,363837,1,8,0:0:0:0:
256,192,363947,1,0,0:0:0:0:
256,192,364168,1,0,0:0:0:0:
256,192,364389,1,12,0:0:0:0:
256,192,364609,1,8,0:0:0:0:
256,192,364719,1,8,0:0:0:0:
256,192,364830,1,0,0:0:0:0:
256,192,365050,1,8,0:0:0:0:
256,192,365271,1,8,0:0:0:0:
256,192,365381,1,8,0:0:0:0:
256,192,365492,1,0,0:0:0:0:
256,192,365602,1,8,0:0:0:0:
256,192,365712,1,0,0:0:0:0:
256,192,365933,1,0,0:0:0:0:
256,192,366153,1,8,0:0:0:0:
256,192,366484,1,0,0:0:0:0:
256,192,366594,1,0,0:0:0:0:
256,192,367036,1,0,0:0:0:0:
256,192,367146,1,8,0:0:0:0:
256,192,367367,1,8,0:0:0:0:
256,192,367477,1,8,0:0:0:0:
256,192,367587,1,0,0:0:0:0:
256,192,367697,1,0,0:0:0:0:
256,192,367918,1,12,0:0:0:0:
256,192,368139,1,0,0:0:0:0:
256,192,368249,1,8,0:0:0:0:
256,192,368359,1,0,0:0:0:0:
256,192,368580,1,8,0:0:0:0:
256,192,368800,1,0,0:0:0:0:
256,192,368911,1,8,0:0:0:0:
256,192,369021,1,0,0:0:0:0:
256,192,369131,1,8,0:0:0:0:
256,192,369242,1,0,0:0:0:0:
256,192,369462,1,0,0:0:0:0:
256,192,369683,1,8,0:0:0:0:
256,192,369830,1,8,0:0:0:0:
256,192,369977,1,8,0:0:0:0:
256,192,370124,1,0,0:0:0:0:
256,192,370565,1,0,0:0:0:0:
256,192,370675,1,8,0:0:0:0:
256,192,370896,1,8,0:0:0:0:
256,192,371006,1,0,0:0:0:0:
256,192,371117,1,8,0:0:0:0:
256,192,371227,1,0,0:0:0:0:
256,192,371447,1,12,0:0:0:0:
256,192,371668,1,8,0:0:0:0:
256,192,371778,1,8,0:0:0:0:
256,192,371889,1,0,0:0:0:0:
256,192,372109,1,8,0:0:0:0:
256,192,372330,1,8,0:0:0:0:
256,192,372440,1,8,0:0:0:0:
256,192,372550,1,0,0:0:0:0:
256,192,372661,1,8,0:0:0:0:
256,192,372771,1,0,0:0:0:0:
256,192,372992,1,0,0:0:0:0:
256,192,373212,1,12,0:0:0:0:
256,192,373433,1,0,0:0:0:0:
256,192,373543,1,8,0:0:0:0:
256,192,373653,1,0,0:0:0:0:
256,192,374094,1,0,0:0:0:0:
256,192,374205,1,8,0:0:0:0:
256,192,374425,1,8,0:0:0:0:
256,192,374536,1,8,0:0:0:0:
256,192,374646,1,0,0:0:0:0:
256,192,374756,1,0,0:0:0:0:
256,192,374977,1,12,0:0:0:0:
256,192,375197,1,0,0:0:0:0:
256,192,375308,1,8,0:0:0:0:
256,192,375418,1,0,0:0:0:0:
256,192,375639,1,8,0:0:0:0:
256,192,375859,1,0,0:0:0:0:
256,192,375969,1,8,0:0:0:0:
256,192,376080,1,0,0:0:0:0:
256,192,376190,1,8,0:0:0:0:
256,192,376300,1,0,0:0:0:0:
256,192,376521,1,0,0:0:0:0:
256,192,376742,1,8,0:0:0:0:
256,192,376889,1,8,0:0:0:0:
256,192,377036,1,8,0:0:0:0:
256,192,377183,1,0,0:0:0:0:
256,192,377624,1,0,0:0:0:0:
256,192,377734,1,8,0:0:0:0:
256,192,377955,1,8,0:0:0:0:
256,192,378065,1,0,0:0:0:0:
256,192,378175,1,8,0:0:0:0:
256,192,378286,1,0,0:0:0:0:
256,192,378506,1,12,0:0:0:0:
256,192,378727,1,8,0:0:0:0:
256,192,378837,1,8,0:0:0:0:
256,192,378947,1,0,0:0:0:0:
256,192,379168,1,8,0:0:0:0:
256,192,379389,1,8,0:0:0:0:
256,192,379499,1,8,0:0:0:0:
256,192,379609,1,0,0:0:0:0:
256,192,379719,1,8,0:0:0:0:
256,192,379830,1,0,0:0:0:0:
256,192,380050,1,0,0:0:0:0:
256,192,380271,1,12,0:0:0:0:
256,192,380492,1,0,0:0:0:0:
256,192,380602,1,8,0:0:0:0:
256,192,380712,1,0,0:0:0:0:
256,192,381153,1,0,0:0:0:0:
256,192,381264,1,8,0:0:0:0:
256,192,381484,1,8,0:0:0:0:
256,192,381594,1,8,0:0:0:0:
256,192,381705,1,0,0:0:0:0:
256,192,381815,1,0,0:0:0:0:
256,192,382036,1,12,0:0:0:0:
256,192,382256,1,0,0:0:0:0:
256,192,382367,1,8,0:0:0:0:
256,192,382477,1,0,0:0:0:0:
256,192,382697,1,8,0:0:0:0:
256,192,382918,1,0,0:0:0:0:
256,192,383028,1,8,0:0:0:0:
256,192,383139,1,0,0:0:0:0:
256,192,383249,1,8,0:0:0:0:
256,192,383359,1,0,0:0:0:0:
256,192,383580,1,0,0:0:0:0:
256,192,383800,1,8,0:0:0:0:
256,192,383947,1,8,0:0:0:0:
256,192,384094,1,8,0:0:0:0:
256,192,384242,1,0,0:0:0:0:
256,192,384683,1,0,0:0:0:0:
256,192,384793,1,8,0:0:0:0:
256,192,385014,1,8,0:0:0:0:
256,192,385124,1,0,0:0:0:0:
256,192,385234,1,8,0:0:0:0:
256,192,385344,1,0,0:0:0:0:
256,192,385565,1,12,0:0:0:0:
256,192,385786,1,8,0:0:0:0:
256,192,385896,1,8,0:0:0:0:
256,192,386006,1,0,0:0:0:0:
256,192,386227,1,8,0:0:0:0:
256,192,386447,1,8,0:0:0:0:
256,192,386558,1,8,0:0:0:0:
256,192,386668,1,0,0:0:0:0:
256,192,386778,1,8,0:0:0:0:
256,192,386889,1,0,0:0:0:0:
256,192,387109,1,0,0:0:0:0:
256,192,387330,1,12,0:0:0:0:
256,192,387550,1,0,0:0:0:0:
256,192,387661,1,8,0:0:0:0:
256,192,387771,1,0,0:0:0:0:
256,192,388212,1,0,0:0:0:0:
256,192,388322,1,8,0:0:0:0:
256,192,388543,1,8,0:0:0:0:
256,192,388653,1,8,0:0:0:0:
256,192,388764,1,0,0:0:0:0:
256,192,388874,1,0,0:0:0:0:
256,192,389094,1,12,0:0:0:0:
256,192,389315,1,0,0:0:0:0:
256,192,389425,1,8,0:0:0:0:
256,192,389536,1,0,0:0:0:0:
256,192,389756,1,8,0:0:0:0:
256,192,389977,1,0,0:0:0:0:
256,192,390087,1,8,0:0:0:0:
256,192,390197,1,0,0:0:0:0:
256,192,390308,1,8,0:0:0:0:
256,192,390418,1,0,0:0:0:0:
256,192,390639,1,0,0:0:0:0:
256,192,390859,1,8,0:0:0:0:
256,192,391006,1,8,0:0:0:0:
256,192,391153,1,8,0:0:0:0:
256,192,391300,1,0,0:0:0:0:
256,192,391742,1,0,0:0:0:0:
256,192,391852,1,8,0:0:0:0:
256,192,392072,1,8,0:0:0:0:
256,192,392183,1,0,0:0:0:0:
256,192,392293,1,8,0:0:0:0:
256,192,392403,1,0,0:0:0:0:
256,192,392624,1,12,0:0:0:0:
256,192,392844,1,8,0:0:0:0:
256,192,392955,1,8,0:0:0:0:
256,192,393065,1,0,0:0:0:0:
256,192,393286,1,8,0:0:0:0:
256,192,393506,1,8,0:0:0:0:
256,192,393617,1,8,0:0:0:0:
256,192,393727,1,0,0:0:0:0:
256,192,393837,1,8,0:0:0:0:
256,192,393947,1,0,0:0:0:0:
256,192,394168,1,0,0:0:0:0:
448,320,394389,1,12,0:0:0:0:
256,192,394609,1,0,0:0:0:0:
256,192,394719,1,8,0:0:0:0:
256,192,394830,1,0,0:0:0:0:
256,192,394940,1,0,0:0:0:0:
256,192,395161,1,8,0:0:0:0:
