osu file format v14

[General]
AudioFilename: audio.mp3
AudioLeadIn: 0
PreviewTime: 42293
Countdown: 0
SampleSet: Normal
StackLeniency: 0.7
Mode: 1
LetterboxInBreaks: 0
WidescreenStoryboard: 1

[Editor]
Bookmarks: 42330,84683,141153,169389,183506,211742,225859,239977,254094,282330,310565
DistanceSpacing: 1
BeatDivisor: 8
GridSize: 32
TimelineZoom: 2.1

[Metadata]
Title:Ganju Gok
TitleUnicode:간주곡
Artist:XXX
ArtistUnicode:XXX
Creator:woosungko
Version:Muzukashii
Source:
Tags:instrumental 김심야 kim ximya 프랭크 frnk 강이채 bana beasts and natives alike language korean kpop hip hop
BeatmapID:3449419
BeatmapSetID:1635925

[Difficulty]
HPDrainRate:6
CircleSize:2
OverallDifficulty:4
ApproachRate:10
SliderMultiplier:1.4
SliderTickRate:1

[Events]
//Background and Video events
0,0,"ganju gok.PNG",0,0
//Break Periods
2,77624,83792
2,252330,253644
//Storyboard Layer 0 (Background)
//Storyboard Layer 1 (Fail)
//Storyboard Layer 2 (Pass)
//Storyboard Layer 3 (Foreground)
//Storyboard Layer 4 (Overlay)
//Storyboard Sound Samples

[TimingPoints]
14095,441.176470588235,4,1,0,60,1,0
42302,-100,4,1,0,60,0,0
42522,-98.7283788648136,4,1,0,60,0,0
42633,-98.0929386463207,4,1,0,60,0,0
42743,-97.4672579404289,4,1,0,60,0,0
42853,-96.1082943002668,4,1,0,60,0,0
42963,-96.2278436885717,4,1,0,60,0,0
43184,-94.9986637042609,4,1,0,60,0,0
43405,-93.7851848244945,4,1,0,60,0,0
43515,-93.1869809022452,4,1,0,60,0,0
43625,-92.5925925925926,4,1,0,60,0,0
44067,-100,4,1,0,60,0,0
44287,-98.7283788648136,4,1,0,60,0,0
44398,-98.0929386463207,4,1,0,60,0,0
44508,-97.4672579404289,4,1,0,60,0,0
44618,-96.1082943002668,4,1,0,60,0,0
44728,-96.2278436885717,4,1,0,60,0,0
44949,-94.9986637042609,4,1,0,60,0,0
45170,-93.7851848244945,4,1,0,60,0,0
45280,-93.1869809022452,4,1,0,60,0,0
45390,-92.5925925925926,4,1,0,60,0,0
45832,-100,4,1,0,60,0,0
46052,-98.7283788648136,4,1,0,60,0,0
46163,-98.0929386463207,4,1,0,60,0,0
46273,-97.4672579404289,4,1,0,60,0,0
46383,-96.1082943002668,4,1,0,60,0,0
46493,-96.2278436885717,4,1,0,60,0,0
46714,-94.9986637042609,4,1,0,60,0,0
46935,-93.7851848244945,4,1,0,60,0,0
47045,-93.1869809022452,4,1,0,60,0,0
47155,-92.5925925925926,4,1,0,60,0,0
47596,-100,4,1,0,60,0,0
47816,-98.7283788648136,4,1,0,60,0,0
47927,-98.0929386463207,4,1,0,60,0,0
48037,-97.4672579404289,4,1,0,60,0,0
48147,-96.1082943002668,4,1,0,60,0,0
48257,-96.2278436885717,4,1,0,60,0,0
48478,-94.9986637042609,4,1,0,60,0,0
48699,-93.7851848244945,4,1,0,60,0,0
48809,-93.1869809022452,4,1,0,60,0,0
48919,-92.5925925925926,4,1,0,60,0,0
49361,-100,4,1,0,60,0,0
49581,-98.7283788648136,4,1,0,60,0,0
49692,-98.0929386463207,4,1,0,60,0,0
49802,-97.4672579404289,4,1,0,60,0,0
49912,-96.1082943002668,4,1,0,60,0,0
50022,-96.2278436885717,4,1,0,60,0,0
50243,-94.9986637042609,4,1,0,60,0,0
50464,-93.7851848244945,4,1,0,60,0,0
50574,-93.1869809022452,4,1,0,60,0,0
50684,-92.5925925925926,4,1,0,60,0,0
51126,-100,4,1,0,60,0,0
51346,-98.7283788648136,4,1,0,60,0,0
51457,-98.0929386463207,4,1,0,60,0,0
51567,-97.4672579404289,4,1,0,60,0,0
51677,-96.1082943002668,4,1,0,60,0,0
51787,-96.2278436885717,4,1,0,60,0,0
52008,-94.9986637042609,4,1,0,60,0,0
52229,-93.7851848244945,4,1,0,60,0,0
52339,-93.1869809022452,4,1,0,60,0,0
52449,-92.5925925925926,4,1,0,60,0,0
52890,-100,4,1,0,60,0,0
53110,-98.7283788648136,4,1,0,60,0,0
53221,-98.0929386463207,4,1,0,60,0,0
53331,-97.4672579404289,4,1,0,60,0,0
53441,-96.1082943002668,4,1,0,60,0,0
53551,-96.2278436885717,4,1,0,60,0,0
53772,-94.9986637042609,4,1,0,60,0,0
53993,-93.7851848244945,4,1,0,60,0,0
54103,-93.1869809022452,4,1,0,60,0,0
54213,-92.5925925925926,4,1,0,60,0,0
54655,-100,4,1,0,60,0,0
54875,-98.7283788648136,4,1,0,60,0,0
54986,-98.0929386463207,4,1,0,60,0,0
55096,-97.4672579404289,4,1,0,60,0,0
55206,-96.1082943002668,4,1,0,60,0,0
55316,-96.2278436885717,4,1,0,60,0,0
55537,-94.9986637042609,4,1,0,60,0,0
55758,-93.7851848244945,4,1,0,60,0,0
55868,-93.1869809022452,4,1,0,60,0,0
55978,-92.5925925925926,4,1,0,60,0,0
56419,-100,4,1,0,60,0,0
56640,-97.6941169844061,4,1,0,60,0,0
56750,-96.5662885400652,4,1,0,60,0,0
56861,-95.4414049336281,4,1,0,60,0,0
56971,-94.3395828938304,4,1,0,60,0,0
57081,-93.2504808240314,4,1,0,60,0,0
57191,-89.9147362445258,4,1,0,60,0,0
57302,-91.1002338247503,4,1,0,60,0,0
57522,-89.0089643299713,4,1,0,60,0,0
57633,-87.9721146558825,4,1,0,60,0,0
57743,-86.9565217391304,4,1,0,60,0,0
58185,-100,4,1,0,60,0,0
58406,-97.6941169844061,4,1,0,60,0,0
58516,-96.5662885400652,4,1,0,60,0,0
58627,-95.4414049336281,4,1,0,60,0,0
58737,-94.3395828938304,4,1,0,60,0,0
58847,-93.2504808240314,4,1,0,60,0,0
58957,-89.9147362445258,4,1,0,60,0,0
59068,-91.1002338247503,4,1,0,60,0,0
59288,-89.0089643299713,4,1,0,60,0,0
59399,-87.9721146558825,4,1,0,60,0,0
59509,-86.9565217391304,4,1,0,60,0,0
59949,-100,4,1,0,60,0,0
60170,-97.6941169844061,4,1,0,60,0,0
60280,-96.5662885400652,4,1,0,60,0,0
60391,-95.4414049336281,4,1,0,60,0,0
60501,-94.3395828938304,4,1,0,60,0,0
60611,-93.2504808240314,4,1,0,60,0,0
60721,-89.9147362445258,4,1,0,60,0,0
60832,-91.1002338247503,4,1,0,60,0,0
61052,-89.0089643299713,4,1,0,60,0,0
61163,-87.9721146558825,4,1,0,60,0,0
61273,-86.9565217391304,4,1,0,60,0,0
61714,-100,4,1,0,60,0,0
61935,-97.6941169844061,4,1,0,60,0,0
62045,-96.5662885400652,4,1,0,60,0,0
62156,-95.4414049336281,4,1,0,60,0,0
62266,-94.3395828938304,4,1,0,60,0,0
62376,-93.2504808240314,4,1,0,60,0,0
62486,-89.9147362445258,4,1,0,60,0,0
62597,-91.1002338247503,4,1,0,60,0,0
62817,-89.0089643299713,4,1,0,60,0,0
62928,-87.9721146558825,4,1,0,60,0,0
63038,-86.9565217391304,4,1,0,60,0,0
63479,-100,4,1,0,60,0,0
63700,-97.6941169844061,4,1,0,60,0,0
63810,-96.5662885400652,4,1,0,60,0,0
63921,-95.4414049336281,4,1,0,60,0,0
64031,-94.3395828938304,4,1,0,60,0,0
64141,-93.2504808240314,4,1,0,60,0,0
64251,-89.9147362445258,4,1,0,60,0,0
64362,-91.1002338247503,4,1,0,60,0,0
64582,-89.0089643299713,4,1,0,60,0,0
64693,-87.9721146558825,4,1,0,60,0,0
64803,-86.9565217391304,4,1,0,60,0,0
65243,-100,4,1,0,60,0,0
65464,-97.6941169844061,4,1,0,60,0,0
65574,-96.5662885400652,4,1,0,60,0,0
65685,-95.4414049336281,4,1,0,60,0,0
65795,-94.3395828938304,4,1,0,60,0,0
65905,-93.2504808240314,4,1,0,60,0,0
66015,-89.9147362445258,4,1,0,60,0,0
66126,-91.1002338247503,4,1,0,60,0,0
66346,-89.0089643299713,4,1,0,60,0,0
66457,-87.9721146558825,4,1,0,60,0,0
66567,-86.9565217391304,4,1,0,60,0,0
67008,-100,4,1,0,60,0,0
67229,-97.6941169844061,4,1,0,60,0,0
67339,-96.5662885400652,4,1,0,60,0,0
67450,-95.4414049336281,4,1,0,60,0,0
67560,-94.3395828938304,4,1,0,60,0,0
67670,-93.2504808240314,4,1,0,60,0,0
67780,-89.9147362445258,4,1,0,60,0,0
67891,-91.1002338247503,4,1,0,60,0,0
68111,-89.0089643299713,4,1,0,60,0,0
68222,-87.9721146558825,4,1,0,60,0,0
68332,-86.9565217391304,4,1,0,60,0,0
68773,-100,4,1,0,60,0,0
68994,-97.6941169844061,4,1,0,60,0,0
69104,-96.5662885400652,4,1,0,60,0,0
69215,-95.4414049336281,4,1,0,60,0,0
69325,-94.3395828938304,4,1,0,60,0,0
69435,-93.2504808240314,4,1,0,60,0,0
69545,-89.9147362445258,4,1,0,60,0,0
69656,-91.1002338247503,4,1,0,60,0,0
69876,-89.0089643299713,4,1,0,60,0,0
69987,-87.9721146558825,4,1,0,60,0,0
70097,-86.9565217391304,4,1,0,60,0,0
70537,-57.1428571428571,4,1,0,40,0,0
71419,-100,4,1,0,40,0,0
72302,-103.466551210845,4,1,0,40,0,0
73184,-107.049140697287,4,1,0,40,0,0
74067,-110.760053980328,4,1,0,40,0,0
74949,-114.595185240275,4,1,0,40,0,0
75831,-118.563110149669,4,1,0,40,0,0
76714,-122.673161080178,4,1,0,40,0,0
77596,-126.920790599198,4,1,0,5,0,0
79361,-135.867615702644,4,1,0,5,0,0
81125,-145.439501945228,4,1,0,5,0,0
82890,-155.69173706678,4,1,0,5,0,0
84214,-111.111111111111,4,1,0,80,0,0
84435,-105.421847897748,4,1,0,80,0,0
84655,-100,4,1,0,80,0,0
85538,-90.702947845805,4,1,0,80,0,0
86420,-100,4,1,0,80,0,0
87302,-90.702947845805,4,1,0,80,0,0
88185,-100,4,1,0,80,0,0
88626,-98.8163585607348,4,1,0,80,0,0
88847,-98.2284759322773,4,1,0,80,0,0
89067,-97.646727192037,4,1,0,80,0,0
89509,-96.4883348397799,4,1,0,80,0,0
89729,-95.9168919184865,4,1,0,80,0,0
89950,-95.3462589245592,4,1,0,80,0,0
90391,-94.217701093139,4,1,0,80,0,0
90612,-93.6571770000375,4,1,0,80,0,0
90832,-93.1025013398775,4,1,0,80,0,0
91273,-92.0005015530263,4,1,0,80,0,0
91384,-91.7251882934805,4,1,0,80,0,0
91494,-91.4531681209898,4,1,0,80,0,0
91715,-83.3333333333333,4,1,0,80,0,0
92596,-90.702947845805,4,1,0,80,0,0
93479,-100,4,1,0,80,0,0
94360,-90.702947845805,4,1,0,80,0,0
95243,-100,4,1,0,80,0,0
95684,-98.8160251499623,4,1,0,80,0,0
95905,-98.2279784160844,4,1,0,80,0,0
96125,-97.6460682643798,4,1,0,80,0,0
96567,-96.4899633740788,4,1,0,80,0,0
96787,-95.91575885889,4,1,0,80,0,0
97008,-95.3449713915861,4,1,0,80,0,0
97449,-94.2161109095341,4,1,0,80,0,0
97670,-93.6579673716496,4,1,0,80,0,0
97890,-93.1006158516815,4,1,0,80,0,0
98331,-91.9983279747674,4,1,0,80,0,0
98442,-91.7251882934805,4,1,0,80,0,0
98552,-91.4508528440314,4,1,0,80,0,0
98773,-83.3333333333333,4,1,0,80,0,0
99655,-90.702947845805,4,1,0,80,0,0
100538,-100,4,1,0,80,0,0
101419,-90.702947845805,4,1,0,80,0,0
102302,-100,4,1,0,80,0,0
102743,-98.8160251499623,4,1,0,80,0,0
102964,-98.2279784160844,4,1,0,80,0,0
103184,-97.6460682643798,4,1,0,80,0,0
103626,-96.4899633740788,4,1,0,80,0,0
103846,-95.91575885889,4,1,0,80,0,0
104067,-95.3475464749191,4,1,0,80,0,0
104095,-95.3449713915861,4,1,0,80,0,0
104508,-94.2161109095341,4,1,0,80,0,0
104729,-93.6579673716496,4,1,0,80,0,0
104949,-93.1006158516815,4,1,0,80,0,0
105390,-91.9983279747674,4,1,0,80,0,0
105501,-91.7251882934805,4,1,0,80,0,0
105611,-91.4508528440314,4,1,0,80,0,0
105832,-83.3333333333333,4,1,0,80,0,0
106714,-90.702947845805,4,1,0,80,0,0
107596,-100,4,1,0,80,0,0
108478,-90.702947845805,4,1,0,80,0,0
109361,-100,4,1,0,80,0,0
109802,-98.8160251499623,4,1,0,80,0,0
110023,-98.230631363863,4,1,0,80,0,0
110243,-97.6460682643798,4,1,0,80,0,0
110685,-96.4899633740788,4,1,0,80,0,0
110905,-95.91575885889,4,1,0,80,0,0
111126,-95.3475464749191,4,1,0,80,0,0
111567,-94.2161109095341,4,1,0,80,0,0
111788,-93.6579673716496,4,1,0,80,0,0
112008,-93.1006158516815,4,1,0,80,0,0
112449,-91.9983279747674,4,1,0,80,0,0
112560,-91.7251882934805,4,1,0,80,0,0
112670,-91.4533227547515,4,1,0,80,0,0
112891,-83.3333333333333,4,1,0,80,0,0
112946,-100,4,1,0,80,0,0
113332,-101.325339031716,4,1,0,80,0,0
113773,-102.668243298922,4,1,0,80,0,0
114215,-104.032051496536,4,1,0,80,0,0
114656,-105.410828880515,4,1,0,80,0,0
115097,-106.807879739324,4,1,0,80,0,0
115538,-108.223446258457,4,1,0,80,0,0
116420,-111.111111111111,4,1,0,80,0,0
116861,-109.654909902065,4,1,0,80,0,0
117081,-108.937233188792,4,1,0,80,0,0
117302,-108.221023433921,4,1,0,80,0,0
117743,-106.805886973464,4,1,0,80,0,0
117964,-106.103689791757,4,1,0,80,0,0
118184,-105.409255338946,4,1,0,80,0,0
118625,-104.030886554706,4,1,0,80,0,0
118846,-103.346933662041,4,1,0,80,0,0
119066,-102.67054180924,4,1,0,80,0,0
119508,-101.324961105196,4,1,0,80,0,0
119618,-100.992837630706,4,1,0,80,0,0
119728,-100.661802792235,4,1,0,80,0,0
119949,-90.9090909090909,4,1,0,80,0,0
120390,-101.325339031716,4,1,0,80,0,0
120831,-102.668243298922,4,1,0,80,0,0
121273,-104.032051496536,4,1,0,80,0,0
121714,-105.410828880515,4,1,0,80,0,0
122155,-106.807879739324,4,1,0,80,0,0
122596,-108.223446258457,4,1,0,80,0,0
123478,-111.111111111111,4,1,0,80,0,0
123919,-109.654909902065,4,1,0,80,0,0
124139,-108.937233188792,4,1,0,80,0,0
124360,-108.221023433921,4,1,0,80,0,0
124801,-106.805886973464,4,1,0,80,0,0
125022,-106.103689791757,4,1,0,80,0,0
125242,-105.409255338946,4,1,0,80,0,0
125683,-104.030886554706,4,1,0,80,0,0
125904,-103.346933662041,4,1,0,80,0,0
126124,-102.67054180924,4,1,0,80,0,0
126566,-101.324961105196,4,1,0,80,0,0
126676,-100.992837630706,4,1,0,80,0,0
126786,-100.661802792235,4,1,0,80,0,0
127008,-90.9090909090909,4,1,0,80,0,0
127449,-101.325339031716,4,1,0,80,0,0
127890,-102.668243298922,4,1,0,80,0,0
128332,-104.032051496536,4,1,0,80,0,0
128773,-105.410828880515,4,1,0,80,0,0
129214,-106.807879739324,4,1,0,80,0,0
129655,-108.223446258457,4,1,0,80,0,0
130537,-111.111111111111,4,1,0,80,0,0
130978,-109.654909902065,4,1,0,80,0,0
131198,-108.937233188792,4,1,0,80,0,0
131419,-108.221023433921,4,1,0,80,0,0
131860,-106.805886973464,4,1,0,80,0,0
132081,-106.103689791757,4,1,0,80,0,0
132301,-105.409255338946,4,1,0,80,0,0
132742,-104.030886554706,4,1,0,80,0,0
132963,-103.346933662041,4,1,0,80,0,0
133183,-102.67054180924,4,1,0,80,0,0
133625,-101.324961105196,4,1,0,80,0,0
133735,-100.992837630706,4,1,0,80,0,0
133845,-100.661802792235,4,1,0,80,0,0
134067,-90.9090909090909,4,1,0,80,0,0
134508,-101.325339031716,4,1,0,80,0,0
134949,-102.668243298922,4,1,0,80,0,0
135391,-104.032051496536,4,1,0,80,0,0
135832,-105.410828880515,4,1,0,80,0,0
136273,-106.807879739324,4,1,0,80,0,0
136714,-108.223446258457,4,1,0,80,0,0
137596,-111.111111111111,4,1,0,80,0,0
138037,-109.654909902065,4,1,0,80,0,0
138257,-108.937233188792,4,1,0,80,0,0
138478,-108.225108225108,4,1,0,80,0,0
138919,-110.466823125231,4,1,0,80,0,0
139030,-111.038341387319,4,1,0,80,0,0
139140,-111.607627797264,4,1,0,80,0,0
139360,-112.760213701553,4,1,0,80,0,0
139801,-115.095866262601,4,1,0,80,0,0
139913,-115.685955340712,4,1,0,80,0,0
140022,-116.279069767442,4,1,0,80,0,0
140684,-111.111111111111,4,1,0,80,0,0
140904,-105.396664284315,4,1,0,80,0,0
141126,-100,4,1,0,60,0,0
141347,-100.676720307285,4,1,0,60,0,0
141457,-101.015254455221,4,1,0,60,0,0
141567,-101.354926953404,4,1,0,60,0,0
141788,-102.040816326531,4,1,0,60,0,0
142008,-90.9090909090909,4,1,0,60,0,0
142890,-100,4,1,0,60,0,0
143111,-100.676720307285,4,1,0,60,0,0
143221,-101.015254455221,4,1,0,60,0,0
143331,-101.354926953404,4,1,0,60,0,0
143552,-102.040816326531,4,1,0,60,0,0
143772,-90.9090909090909,4,1,0,60,0,0
144655,-100,4,1,0,60,0,0
144876,-100.676720307285,4,1,0,60,0,0
144986,-101.015254455221,4,1,0,60,0,0
145096,-101.354926953404,4,1,0,60,0,0
145317,-102.040816326531,4,1,0,60,0,0
145537,-90.9090909090909,4,1,0,60,0,0
146420,-100,4,1,0,60,0,0
146641,-100.676720307285,4,1,0,60,0,0
146751,-101.015254455221,4,1,0,60,0,0
146861,-101.354926953404,4,1,0,60,0,0
147082,-102.040816326531,4,1,0,60,0,0
147302,-90.9090909090909,4,1,0,60,0,0
148185,-100,4,1,0,60,0,0
148406,-100.676720307285,4,1,0,60,0,0
148516,-101.015254455221,4,1,0,60,0,0
148626,-101.354926953404,4,1,0,60,0,0
148847,-102.040816326531,4,1,0,60,0,0
149067,-90.9090909090909,4,1,0,60,0,0
149949,-100,4,1,0,60,0,0
150170,-100.676720307285,4,1,0,60,0,0
150280,-101.015254455221,4,1,0,60,0,0
150390,-101.354926953404,4,1,0,60,0,0
150611,-102.040816326531,4,1,0,60,0,0
150831,-90.9090909090909,4,1,0,60,0,0
151714,-100,4,1,0,60,0,0
151935,-100.676720307285,4,1,0,60,0,0
152045,-101.015254455221,4,1,0,60,0,0
152155,-101.354926953404,4,1,0,60,0,0
152376,-102.040816326531,4,1,0,60,0,0
152596,-90.9090909090909,4,1,0,60,0,0
153479,-100,4,1,0,60,0,0
153700,-100.676720307285,4,1,0,60,0,0
153810,-101.015254455221,4,1,0,60,0,0
153920,-101.354926953404,4,1,0,60,0,0
154141,-102.040816326531,4,1,0,60,0,0
154361,-90.9090909090909,4,1,0,60,0,0
155243,-100,4,1,0,60,0,0
155464,-100.676720307285,4,1,0,60,0,0
155574,-101.015254455221,4,1,0,60,0,0
155684,-101.354926953404,4,1,0,60,0,0
155905,-102.040816326531,4,1,0,60,0,0
156125,-90.9090909090909,4,1,0,60,0,0
157008,-100,4,1,0,60,0,0
157229,-100.676720307285,4,1,0,60,0,0
157339,-101.015254455221,4,1,0,60,0,0
157449,-101.354926953404,4,1,0,60,0,0
157670,-102.040816326531,4,1,0,60,0,0
157890,-90.9090909090909,4,1,0,60,0,0
158773,-100,4,1,0,60,0,0
158994,-100.676720307285,4,1,0,60,0,0
159104,-101.015254455221,4,1,0,60,0,0
159214,-101.354926953404,4,1,0,60,0,0
159435,-102.040816326531,4,1,0,60,0,0
159655,-90.9090909090909,4,1,0,60,0,0
160538,-100,4,1,0,60,0,0
160759,-100.676720307285,4,1,0,60,0,0
160869,-101.015254455221,4,1,0,60,0,0
160979,-101.354926953404,4,1,0,60,0,0
161200,-102.040816326531,4,1,0,60,0,0
161420,-90.9090909090909,4,1,0,60,0,0
162302,-100,4,1,0,60,0,0
162523,-100.676720307285,4,1,0,60,0,0
162633,-101.015254455221,4,1,0,60,0,0
162743,-101.354926953404,4,1,0,60,0,0
162964,-102.040816326531,4,1,0,60,0,0
163184,-90.9090909090909,4,1,0,60,0,0
164067,-100,4,1,0,60,0,0
164288,-100.676720307285,4,1,0,60,0,0
164398,-101.015254455221,4,1,0,60,0,0
164508,-101.354926953404,4,1,0,60,0,0
164729,-102.040816326531,4,1,0,60,0,0
164949,-90.9090909090909,4,1,0,60,0,0
165832,-100,4,1,0,60,0,0
166053,-100.676720307285,4,1,0,60,0,0
166163,-101.015254455221,4,1,0,60,0,0
166273,-101.354926953404,4,1,0,60,0,0
166494,-102.040816326531,4,1,0,60,0,0
166714,-90.9090909090909,4,1,0,60,0,0
167596,-100,4,1,0,60,0,0
167817,-100.676720307285,4,1,0,60,0,0
167927,-101.015254455221,4,1,0,60,0,0
168037,-101.354926953404,4,1,0,60,0,0
168258,-102.040816326531,4,1,0,60,0,0
168478,-90.9090909090909,4,1,0,60,0,0
169362,-86.9565217391304,4,1,0,60,0,0
170023,-89.9627129599578,4,1,0,60,0,0
170244,-90.9908157793174,4,1,0,60,0,0
170685,-93.0776175214633,4,1,0,60,0,0
171126,-95.2122783961352,4,1,0,60,0,0
171347,-96.3003737707187,4,1,0,60,0,0
172009,-99.6347160072252,4,1,0,60,0,0
172450,-101.919758702593,4,1,0,60,0,0
172891,-104.257207028537,4,1,0,60,0,0
173553,-107.867049807374,4,1,0,60,0,0
173773,-109.094155661598,4,1,0,60,0,0
174215,-111.601881210587,4,1,0,60,0,0
174656,-114.161381289165,4,1,0,60,0,0
174876,-115.460092059102,4,1,0,60,0,0
175538,-119.45782796094,4,1,0,60,0,0
175979,-122.197497908581,4,1,0,60,0,0
176310,-124.295003445478,4,1,0,60,0,0
176420,-125,4,1,0,60,0,0
176862,-111.593179494834,4,1,0,60,0,0
177303,-120.118508368487,4,1,0,60,0,0
177744,-107.614853797454,4,1,0,60,0,0
178185,-115.432855843727,4,1,0,60,0,0
178626,-103.765428830447,4,1,0,60,0,0
179067,-110.929983973514,4,1,0,60,0,0
179509,-100.037489028674,4,1,0,60,0,0
179950,-106.59795366591,4,1,0,60,0,0
180391,-96.4362286215124,4,1,0,60,0,0
180832,-102.439718790093,4,1,0,60,0,0
181273,-92.9541311018516,4,1,0,60,0,0
181715,-98.4392497500266,4,1,0,60,0,0
182156,-89.5842480129075,4,1,0,60,0,0
183038,-86.3310444694198,4,1,0,60,0,0
183479,-90.9090909090909,4,1,0,60,0,0
183700,-91.531310398603,4,1,0,60,0,0
183810,-91.8425979913985,4,1,0,60,0,0
183920,-92.1549442379486,4,1,0,60,0,0
184141,-92.7856908639059,4,1,0,60,0,0
184362,-93.420754581143,4,1,0,60,0,0
184582,-94.0572618440708,4,1,0,60,0,0
184803,-94.7010287200155,4,1,0,60,0,0
185244,-95.9988482306635,4,1,0,60,0,0
185465,-96.6559041284016,4,1,0,60,0,0
185685,-97.314453561645,4,1,0,60,0,0
186016,-98.3137346093625,4,1,0,60,0,0
186347,-99.3232768523679,4,1,0,60,0,0
186567,-100,4,1,0,60,0,0
187008,-90.9090909090909,4,1,0,60,0,0
187229,-91.531310398603,4,1,0,60,0,0
187339,-91.8425979913985,4,1,0,60,0,0
187449,-92.1549442379486,4,1,0,60,0,0
187670,-92.7856908639059,4,1,0,60,0,0
187891,-93.420754581143,4,1,0,60,0,0
188111,-94.0572618440708,4,1,0,60,0,0
188332,-94.7010287200155,4,1,0,60,0,0
188773,-95.9988482306635,4,1,0,60,0,0
188994,-96.6559041284016,4,1,0,60,0,0
189214,-97.3141300116777,4,1,0,60,0,0
189435,-97.9787111169771,4,1,0,60,0,0
189655,-98.6508826652764,4,1,0,60,0,0
190538,-90.9090909090909,4,1,0,60,0,0
190759,-91.531310398603,4,1,0,60,0,0
190869,-91.8425979913985,4,1,0,60,0,0
190979,-92.1549442379486,4,1,0,60,0,0
191200,-92.7856908639059,4,1,0,60,0,0
191421,-93.420754581143,4,1,0,60,0,0
191641,-94.0572618440708,4,1,0,60,0,0
191862,-94.7010287200155,4,1,0,60,0,0
192303,-95.9988482306635,4,1,0,60,0,0
192524,-96.6559041284016,4,1,0,60,0,0
192744,-97.314453561645,4,1,0,60,0,0
193075,-98.3137346093625,4,1,0,60,0,0
193406,-99.3232768523679,4,1,0,60,0,0
193626,-100,4,1,0,60,0,0
194067,-90.9090909090909,4,1,0,60,0,0
194288,-91.531310398603,4,1,0,60,0,0
194398,-91.8425979913985,4,1,0,60,0,0
194508,-92.1549442379486,4,1,0,60,0,0
194729,-92.7856908639059,4,1,0,60,0,0
194950,-93.420754581143,4,1,0,60,0,0
195170,-94.0572618440708,4,1,0,60,0,0
195391,-94.7010287200155,4,1,0,60,0,0
195832,-95.9988482306635,4,1,0,60,0,0
196053,-96.6559041284016,4,1,0,60,0,0
196273,-97.3141300116777,4,1,0,60,0,0
196494,-97.9787111169771,4,1,0,60,0,0
196714,-98.6508826652764,4,1,0,60,0,0
197596,-83.3333333333333,4,1,0,60,0,0
197817,-83.8558725037194,4,1,0,60,0,0
197927,-84.1170679366753,4,1,0,60,0,0
198037,-84.3790020126217,4,1,0,60,0,0
198258,-84.9074906815021,4,1,0,60,0,0
198479,-85.4389805477304,4,1,0,60,0,0
198699,-85.9710593991525,4,1,0,60,0,0
198920,-86.5085774430533,4,1,0,60,0,0
199361,-87.590282038745,4,1,0,60,0,0
199582,-88.1369477559341,4,1,0,60,0,0
199802,-88.6841991789895,4,1,0,60,0,0
200133,-89.5133435113873,4,1,0,60,0,0
200464,-90.349471300885,4,1,0,60,0,0
200684,-90.9090909090909,4,1,0,60,0,0
201125,-83.3333333333333,4,1,0,60,0,0
201346,-83.8558725037194,4,1,0,60,0,0
201456,-84.1170679366753,4,1,0,60,0,0
201566,-84.3790020126217,4,1,0,60,0,0
201787,-84.9074906815021,4,1,0,60,0,0
202008,-85.4389805477304,4,1,0,60,0,0
202228,-85.9710593991525,4,1,0,60,0,0
202449,-86.5085774430533,4,1,0,60,0,0
202890,-87.590282038745,4,1,0,60,0,0
203111,-88.1369477559341,4,1,0,60,0,0
203331,-88.6839304717985,4,1,0,60,0,0
203552,-89.2355289997408,4,1,0,60,0,0
203772,-89.792748744673,4,1,0,60,0,0
204655,-83.3333333333333,4,1,0,60,0,0
204876,-83.8558725037194,4,1,0,60,0,0
204986,-84.1170679366753,4,1,0,60,0,0
205096,-84.3790020126217,4,1,0,60,0,0
205317,-84.9074906815021,4,1,0,60,0,0
205538,-85.4389805477304,4,1,0,60,0,0
205758,-85.9710593991525,4,1,0,60,0,0
205979,-86.5085774430533,4,1,0,60,0,0
206420,-87.590282038745,4,1,0,60,0,0
206641,-88.1369477559341,4,1,0,60,0,0
206861,-88.6841991789895,4,1,0,60,0,0
207192,-89.5133435113873,4,1,0,60,0,0
207523,-90.349471300885,4,1,0,60,0,0
207743,-90.9090909090909,4,1,0,60,0,0
208184,-83.3333333333333,4,1,0,60,0,0
208405,-83.8558725037194,4,1,0,60,0,0
208515,-84.1170679366753,4,1,0,60,0,0
208625,-84.3790020126217,4,1,0,60,0,0
208846,-84.9074906815021,4,1,0,60,0,0
209067,-85.4389805477304,4,1,0,60,0,0
209287,-85.9710593991525,4,1,0,60,0,0
209508,-86.5085774430533,4,1,0,60,0,0
209949,-87.590282038745,4,1,0,60,0,0
210170,-88.1369477559341,4,1,0,60,0,0
210390,-88.6839304717985,4,1,0,60,0,0
210611,-89.2355289997408,4,1,0,60,0,0
210831,-89.792748744673,4,1,0,60,0,0
211714,-83.3333333333333,4,1,0,60,0,0
212375,-85.4632151529748,4,1,0,60,0,0
212596,-86.1873985985202,4,1,0,60,0,0
213037,-87.6508802367416,4,1,0,60,0,0
213478,-89.1392121261625,4,1,0,60,0,0
213699,-89.8945446005514,4,1,0,60,0,0
214361,-92.1956416993643,4,1,0,60,0,0
214802,-93.7611446724796,4,1,0,60,0,0
215243,-83.3333333333333,4,1,0,60,0,0
215905,-97.7940573519488,4,1,0,60,0,0
216125,-98.6189623505676,4,1,0,60,0,0
216566,-100.293534769823,4,1,0,60,0,0
217008,-102.000436180291,4,1,0,60,0,0
217228,-102.860822505848,4,1,0,60,0,0
217890,-105.493827003524,4,1,0,60,0,0
218331,-107.285136188809,4,1,0,60,0,0
218773,-83.3333333333333,4,1,0,60,0,0
219434,-111.899751204078,4,1,0,60,0,0
219655,-112.847948007084,4,1,0,60,0,0
220096,-114.764131840275,4,1,0,60,0,0
220537,-116.712852910939,4,1,0,60,0,0
220758,-117.701834144669,4,1,0,60,0,0
221419,-120.710126104867,4,1,0,60,0,0
221861,-122.764498652199,4,1,0,60,0,0
222302,-83.3333333333333,4,1,0,60,0,0
222964,-128.044921634796,4,1,0,60,0,0
223184,-129.124996424251,4,1,0,60,0,0
223625,-131.317568243045,4,1,0,60,0,0
224066,-133.547370430193,4,1,0,60,0,0
224287,-134.679001093614,4,1,0,60,0,0
224949,-138.12647902528,4,1,0,60,0,0
225390,-140.471898066725,4,1,0,60,0,0
225804,-194.60437633672,4,1,0,40,0,0
225832,-200,4,1,0,40,0,0
225859,-142.450142450142,4,1,0,40,0,1
226742,-142.348754448399,4,1,0,40,0,0
227183,-142.348754448399,4,1,0,40,0,1
228175,-142.348754448399,4,1,0,40,0,0
228947,-142.348754448399,4,1,0,40,0,1
230271,-142.348754448399,4,1,0,40,0,0
230712,-142.348754448399,4,1,0,40,0,1
231705,-142.348754448399,4,1,0,40,0,0
232918,-142.348754448399,4,1,0,40,0,1
233800,-142.348754448399,4,1,0,40,0,0
234242,-142.348754448399,4,1,0,40,0,1
235234,-142.348754448399,4,1,0,40,0,0
236006,-142.348754448399,4,1,0,40,0,1
237330,-142.348754448399,4,1,0,40,0,0
237771,-142.348754448399,4,1,0,40,0,1
238764,-142.348754448399,4,1,0,40,0,0
239508,-142.348754448399,4,1,0,60,0,0
239536,-142.348754448399,4,1,0,60,0,1
239618,-137.785934677988,4,1,0,60,0,1
239728,-133.313896628542,4,1,0,60,0,1
239839,-128.895058946721,4,1,0,60,0,1
239949,-124.610591900312,4,1,0,60,0,1
240804,-166.666666666667,4,1,0,80,0,1
240832,-111.111111111111,4,1,0,80,0,1
240859,-111.111111111111,4,1,0,80,0,0
240887,-153.846153846154,4,1,0,60,0,0
241300,-153.846153846154,4,1,0,60,0,1
242293,-250,4,1,0,60,0,0
242569,-250,4,1,0,80,0,0
242596,-111.111111111111,4,1,0,80,0,0
242651,-153.846153846154,4,1,0,60,0,0
243065,-153.846153846154,4,1,0,60,0,1
244333,-250,4,1,0,80,0,1
244361,-111.111111111111,4,1,0,80,0,1
244389,-111.111111111111,4,1,0,80,0,0
244416,-153.846153846154,4,1,0,60,0,0
244830,-153.846153846154,4,1,0,60,0,1
245822,-250,4,1,0,60,0,0
246098,-250,4,1,0,80,0,0
246126,-111.111111111111,4,1,0,80,0,0
246181,-153.846153846154,4,1,0,60,0,0
247036,-153.846153846154,4,1,0,60,0,1
247863,-250,4,1,0,80,0,1
247890,-111.111111111111,4,1,0,80,0,1
247918,-111.111111111111,4,1,0,80,0,0
247946,-153.846153846154,4,1,0,60,0,0
248359,-153.846153846154,4,1,0,60,0,1
249352,-250,4,1,0,60,0,0
249628,-250,4,1,0,80,0,0
249655,-111.111111111111,4,1,0,80,0,0
249710,-153.846153846154,4,1,0,60,0,0
250124,-153.846153846154,4,1,0,60,0,1
251392,-250,4,1,0,80,0,1
251420,-111.111111111111,4,1,0,80,0,1
251447,-111.111111111111,4,1,0,80,0,0
251475,-153.846153846154,4,1,0,60,0,0
251889,-153.846153846154,4,1,0,60,0,1
252302,-250,4,1,0,5,0,1
252330,-153.846153846154,4,1,0,5,0,0
254039,-250,4,1,0,40,0,0
254067,-133.333333333333,4,1,0,40,0,0
282275,-133.333333333333,4,1,0,60,0,0
282302,-100,4,1,0,60,0,0
282412,-100.328951784639,4,1,0,60,0,0
282633,-100.993120359929,4,1,0,60,0,0
282964,-101.996103600351,4,1,0,60,0,0
283294,-103.005972317512,4,1,0,60,0,0
283625,-104.02894560054,4,1,0,60,0,0
283846,-104.717607799829,4,1,0,60,0,0
284066,-105.407681820867,4,1,0,60,0,0
284508,-106.807879739324,4,1,0,60,0,0
284949,-108.223446258457,4,1,0,60,0,0
285096,-108.699458676739,4,1,0,60,0,0
285243,-109.177564798652,4,1,0,60,0,0
285390,-109.657773833189,4,1,0,60,0,0
285832,-100,4,1,0,60,0,0
285942,-100.328951784639,4,1,0,60,0,0
286163,-100.993120359929,4,1,0,60,0,0
286494,-101.996103600351,4,1,0,60,0,0
286824,-103.005972317512,4,1,0,60,0,0
287155,-104.02894560054,4,1,0,60,0,0
287376,-104.717607799829,4,1,0,60,0,0
287596,-105.407681820867,4,1,0,60,0,0
288038,-106.807879739324,4,1,0,60,0,0
288479,-108.223446258457,4,1,0,60,0,0
288626,-108.699458676739,4,1,0,60,0,0
288773,-109.177564798652,4,1,0,60,0,0
288920,-109.657773833189,4,1,0,60,0,0
289361,-100,4,1,0,60,0,0
289471,-100.328951784639,4,1,0,60,0,0
289692,-100.993120359929,4,1,0,60,0,0
290023,-101.996103600351,4,1,0,60,0,0
290353,-103.005972317512,4,1,0,60,0,0
290684,-104.02894560054,4,1,0,60,0,0
290905,-104.717607799829,4,1,0,60,0,0
291125,-105.407681820867,4,1,0,60,0,0
291567,-106.807879739324,4,1,0,60,0,0
292008,-108.223446258457,4,1,0,60,0,0
292155,-108.699458676739,4,1,0,60,0,0
292302,-109.177564798652,4,1,0,60,0,0
292449,-109.657773833189,4,1,0,60,0,0
292890,-100,4,1,0,60,0,0
293000,-100.328951784639,4,1,0,60,0,0
293221,-100.993120359929,4,1,0,60,0,0
293552,-101.996103600351,4,1,0,60,0,0
293882,-103.005972317512,4,1,0,60,0,0
294213,-104.02894560054,4,1,0,60,0,0
294434,-104.717607799829,4,1,0,60,0,0
294654,-105.407681820867,4,1,0,60,0,0
295096,-106.807879739324,4,1,0,60,0,0
295537,-108.223446258457,4,1,0,60,0,0
295684,-108.699458676739,4,1,0,60,0,0
295831,-109.177564798652,4,1,0,60,0,0
295978,-109.657773833189,4,1,0,60,0,0
296420,-100,4,1,0,60,0,0
296530,-100.328951784639,4,1,0,60,0,0
296751,-100.993120359929,4,1,0,60,0,0
297082,-101.996103600351,4,1,0,60,0,0
297412,-103.005972317512,4,1,0,60,0,0
297743,-104.02894560054,4,1,0,60,0,0
297964,-104.717607799829,4,1,0,60,0,0
298184,-105.407681820867,4,1,0,60,0,0
298626,-106.807879739324,4,1,0,60,0,0
299067,-108.223446258457,4,1,0,60,0,0
299214,-108.699458676739,4,1,0,60,0,0
299361,-109.177564798652,4,1,0,60,0,0
299508,-109.657773833189,4,1,0,60,0,0
299949,-100,4,1,0,60,0,0
300059,-100.328951784639,4,1,0,60,0,0
300280,-100.993120359929,4,1,0,60,0,0
300611,-101.996103600351,4,1,0,60,0,0
300941,-103.005972317512,4,1,0,60,0,0
301272,-104.02894560054,4,1,0,60,0,0
301493,-104.717607799829,4,1,0,60,0,0
301713,-105.407681820867,4,1,0,60,0,0
302155,-106.807879739324,4,1,0,60,0,0
302596,-108.223446258457,4,1,0,60,0,0
302743,-108.699458676739,4,1,0,60,0,0
302890,-109.177564798652,4,1,0,60,0,0
303037,-109.657773833189,4,1,0,60,0,0
303479,-100,4,1,0,60,0,0
303589,-100.328951784639,4,1,0,60,0,0
303810,-100.993120359929,4,1,0,60,0,0
304141,-101.996103600351,4,1,0,60,0,0
304471,-103.005972317512,4,1,0,60,0,0
304802,-104.02894560054,4,1,0,60,0,0
305023,-104.717607799829,4,1,0,60,0,0
305243,-105.407681820867,4,1,0,60,0,0
305685,-106.807879739324,4,1,0,60,0,0
306126,-108.223446258457,4,1,0,60,0,0
306273,-108.699458676739,4,1,0,60,0,0
306420,-109.177564798652,4,1,0,60,0,0
306567,-109.657773833189,4,1,0,60,0,0
307008,-100,4,1,0,60,0,0
307118,-100.328951784639,4,1,0,60,0,0
307339,-100.993120359929,4,1,0,60,0,0
307670,-101.996103600351,4,1,0,60,0,0
308000,-103.005972317512,4,1,0,60,0,0
308331,-104.02894560054,4,1,0,60,0,0
308552,-104.717607799829,4,1,0,60,0,0
308772,-105.407681820867,4,1,0,60,0,0
309214,-106.807879739324,4,1,0,60,0,0
309655,-108.223446258457,4,1,0,60,0,0
309802,-108.699458676739,4,1,0,60,0,0
309949,-109.177564798652,4,1,0,60,0,0
310538,-90.9090909090909,4,1,0,60,0,0
310648,-91.1795695038749,4,1,0,60,0,0
310869,-91.7254205832488,4,1,0,60,0,0
311200,-92.5490805929127,4,1,0,60,0,0
311420,-93.1006158516815,4,1,0,60,0,0
311862,-94.218655504528,4,1,0,60,0,0
312082,-94.7801403967779,4,1,0,60,0,0
312303,-95.3475464749191,4,1,0,60,0,0
312523,-95.91575885889,4,1,0,60,0,0
312744,-96.4899633740788,4,1,0,60,0,0
313185,-97.6460682643797,4,1,0,60,0,0
313332,-98.0345066269695,4,1,0,60,0,0
313479,-98.4244902065272,4,1,0,60,0,0
313626,-98.8160251499623,4,1,0,60,0,0
314067,-90.9090909090909,4,1,0,60,0,0
314177,-91.1795695038749,4,1,0,60,0,0
314398,-91.7254205832488,4,1,0,60,0,0
314729,-92.5490805929127,4,1,0,60,0,0
314949,-93.1006158516815,4,1,0,60,0,0
315391,-94.218655504528,4,1,0,60,0,0
315611,-94.7801403967779,4,1,0,60,0,0
315832,-95.3475464749191,4,1,0,60,0,0
316052,-95.91575885889,4,1,0,60,0,0
316273,-96.4899633740788,4,1,0,60,0,0
316714,-97.6460682643797,4,1,0,60,0,0
316861,-98.0345066269695,4,1,0,60,0,0
317008,-98.4244902065272,4,1,0,60,0,0
317155,-98.8160251499623,4,1,0,60,0,0
317596,-90.9090909090909,4,1,0,60,0,0
317706,-91.1795695038749,4,1,0,60,0,0
317927,-91.7254205832488,4,1,0,60,0,0
318258,-92.5490805929127,4,1,0,60,0,0
318478,-93.1006158516815,4,1,0,60,0,0
318920,-94.218655504528,4,1,0,60,0,0
319140,-94.7801403967779,4,1,0,60,0,0
319361,-95.3475464749191,4,1,0,60,0,0
319581,-95.91575885889,4,1,0,60,0,0
319802,-96.4899633740788,4,1,0,60,0,0
320243,-97.6460682643797,4,1,0,60,0,0
320390,-98.0345066269695,4,1,0,60,0,0
320537,-98.4244902065272,4,1,0,60,0,0
320684,-98.8160251499623,4,1,0,60,0,0
321126,-90.9090909090909,4,1,0,60,0,0
321236,-91.1795695038749,4,1,0,60,0,0
321457,-91.7254205832488,4,1,0,60,0,0
321788,-92.5490805929127,4,1,0,60,0,0
322008,-93.1006158516815,4,1,0,60,0,0
322450,-94.218655504528,4,1,0,60,0,0
322670,-94.7801403967779,4,1,0,60,0,0
322891,-95.3475464749191,4,1,0,60,0,0
323111,-95.91575885889,4,1,0,60,0,0
323332,-96.4899633740788,4,1,0,60,0,0
323773,-97.6460682643797,4,1,0,60,0,0
323920,-98.0345066269695,4,1,0,60,0,0
324067,-98.4244902065272,4,1,0,60,0,0
324214,-98.8160251499623,4,1,0,60,0,0
324655,-90.9090909090909,4,1,0,60,0,0
324765,-91.1795695038749,4,1,0,60,0,0
324986,-91.7254205832488,4,1,0,60,0,0
325317,-92.5490805929127,4,1,0,60,0,0
325537,-93.1006158516815,4,1,0,60,0,0
325979,-94.218655504528,4,1,0,60,0,0
326199,-94.7801403967779,4,1,0,60,0,0
326420,-95.3475464749191,4,1,0,60,0,0
326640,-95.91575885889,4,1,0,60,0,0
326861,-96.4899633740788,4,1,0,60,0,0
327302,-97.6460682643797,4,1,0,60,0,0
327449,-98.0345066269695,4,1,0,60,0,0
327596,-98.4244902065272,4,1,0,60,0,0
327743,-98.8160251499623,4,1,0,60,0,0
328185,-90.9090909090909,4,1,0,60,0,0
328295,-91.1795695038749,4,1,0,60,0,0
328516,-91.7254205832488,4,1,0,60,0,0
328847,-92.5490805929127,4,1,0,60,0,0
329067,-93.1006158516815,4,1,0,60,0,0
329509,-94.218655504528,4,1,0,60,0,0
329729,-94.7801403967779,4,1,0,60,0,0
329950,-95.3475464749191,4,1,0,60,0,0
330170,-95.91575885889,4,1,0,60,0,0
330391,-96.4899633740788,4,1,0,60,0,0
330832,-97.6460682643797,4,1,0,60,0,0
330979,-98.0345066269695,4,1,0,60,0,0
331126,-98.4244902065272,4,1,0,60,0,0
331273,-98.8160251499623,4,1,0,60,0,0
331714,-90.9090909090909,4,1,0,60,0,0
331824,-91.1795695038749,4,1,0,60,0,0
332045,-91.7254205832488,4,1,0,60,0,0
332376,-92.5490805929127,4,1,0,60,0,0
332596,-93.1006158516815,4,1,0,60,0,0
333038,-94.218655504528,4,1,0,60,0,0
333258,-94.7801403967779,4,1,0,60,0,0
333479,-95.3475464749191,4,1,0,60,0,0
333699,-95.91575885889,4,1,0,60,0,0
333920,-96.4899633740788,4,1,0,60,0,0
334361,-97.6460682643797,4,1,0,60,0,0
334508,-98.0345066269695,4,1,0,60,0,0
334655,-98.4244902065272,4,1,0,60,0,0
334802,-98.8160251499623,4,1,0,60,0,0
335243,-90.9090909090909,4,1,0,60,0,0
335353,-91.1795695038749,4,1,0,60,0,0
335574,-91.7254205832488,4,1,0,60,0,0
335905,-92.5490805929127,4,1,0,60,0,0
336236,-93.3803455808497,4,1,0,60,0,0
336457,-93.9360808327419,4,1,0,60,0,0
336787,-94.7801403967779,4,1,0,60,0,0
337008,-95.34706331045,4,1,0,60,0,0
337118,-95.6301419357798,4,1,0,60,0,0
337228,-95.9140610013428,4,1,0,60,0,0
337449,-96.4899633740788,4,1,0,60,0,0
337890,-97.6460682643797,4,1,0,60,0,0
338773,-83.3333333333333,4,1,0,60,0,0
338884,-83.5616498502849,4,1,0,60,0,0
339104,-84.0160192784074,4,1,0,60,0,0
339435,-84.7042979446767,4,1,0,60,0,0
339656,-85.1669798270807,4,1,0,60,0,0
340097,-86.0978170836068,4,1,0,60,0,0
340317,-86.5659770108099,4,1,0,60,0,0
340538,-87.0388279778489,4,1,0,60,0,0
340648,-87.2751455207325,4,1,0,60,0,0
340759,-87.5142618076333,4,1,0,60,0,0
340979,-87.9901237031481,4,1,0,60,0,0
341420,-88.951816668139,4,1,0,60,0,0
341567,-89.2747110928631,4,1,0,60,0,0
341715,-89.600986179737,4,1,0,60,0,0
341862,-89.9262370849002,4,1,0,60,0,0
342302,-83.3333333333333,4,1,0,60,0,0
342413,-83.5616498502849,4,1,0,60,0,0
342633,-84.0160192784074,4,1,0,60,0,0
342964,-84.7042979446767,4,1,0,60,0,0
343185,-85.1669798270807,4,1,0,60,0,0
343626,-86.0978170836068,4,1,0,60,0,0
343846,-86.5659770108099,4,1,0,60,0,0
344067,-87.0388279778489,4,1,0,60,0,0
344177,-87.2751455207325,4,1,0,60,0,0
344288,-87.5142618076333,4,1,0,60,0,0
344508,-87.9901237031481,4,1,0,60,0,0
344949,-88.951816668139,4,1,0,60,0,0
345096,-89.2747110928631,4,1,0,60,0,0
345244,-89.600986179737,4,1,0,60,0,0
345391,-89.9262370849002,4,1,0,60,0,0
345832,-83.3333333333333,4,1,0,60,0,0
345943,-83.5616498502849,4,1,0,60,0,0
346163,-84.0160192784074,4,1,0,60,0,0
346494,-84.7042979446767,4,1,0,60,0,0
346715,-85.1669798270807,4,1,0,60,0,0
347156,-86.0978170836068,4,1,0,60,0,0
347376,-86.5659770108099,4,1,0,60,0,0
347597,-87.0388279778489,4,1,0,60,0,0
347707,-87.2751455207325,4,1,0,60,0,0
347818,-87.5142618076333,4,1,0,60,0,0
348038,-87.9901237031481,4,1,0,60,0,0
348479,-88.951816668139,4,1,0,60,0,0
348626,-89.2747110928631,4,1,0,60,0,0
348774,-89.600986179737,4,1,0,60,0,0
348921,-89.9262370849002,4,1,0,60,0,0
349361,-83.3333333333333,4,1,0,60,0,0
349472,-83.5616498502849,4,1,0,60,0,0
349692,-84.0160192784074,4,1,0,60,0,0
350023,-84.7042979446767,4,1,0,60,0,0
350244,-85.1669798270807,4,1,0,60,0,0
350685,-86.0978170836068,4,1,0,60,0,0
350905,-86.5659770108099,4,1,0,60,0,0
351126,-87.0388279778489,4,1,0,60,0,0
351236,-87.2751455207325,4,1,0,60,0,0
351347,-87.5142618076333,4,1,0,60,0,0
351567,-87.9901237031481,4,1,0,60,0,0
352008,-88.951816668139,4,1,0,60,0,0
352155,-89.2747110928631,4,1,0,60,0,0
352303,-89.600986179737,4,1,0,60,0,0
352450,-89.9262370849002,4,1,0,60,0,0
352890,-83.3333333333333,4,1,0,60,0,0
353221,-84.015829231245,4,1,0,60,0,0
353552,-84.7039147369646,4,1,0,60,0,0
353773,-85.1643672287515,4,1,0,60,0,0
354214,-86.0978170836068,4,1,0,60,0,0
354434,-86.5659770108099,4,1,0,60,0,0
354655,-87.0388279778489,4,1,0,60,0,0
354765,-87.2751455207325,4,1,0,60,0,0
354876,-87.5142618076333,4,1,0,60,0,0
355096,-87.9901237031481,4,1,0,60,0,0
355537,-88.951816668139,4,1,0,60,0,0
355684,-89.2747110928631,4,1,0,60,0,0
355832,-89.600986179737,4,1,0,60,0,0
355979,-89.9262370849002,4,1,0,60,0,0
356420,-83.3333333333333,4,1,0,60,0,0
356531,-83.5616498502849,4,1,0,60,0,0
356751,-84.0160192784074,4,1,0,60,0,0
357082,-84.7042979446767,4,1,0,60,0,0
357303,-85.1669798270807,4,1,0,60,0,0
357744,-86.0978170836068,4,1,0,60,0,0
357964,-86.5659770108099,4,1,0,60,0,0
358185,-87.0388279778489,4,1,0,60,0,0
358295,-87.2751455207325,4,1,0,60,0,0
358406,-87.5142618076333,4,1,0,60,0,0
358626,-87.9901237031481,4,1,0,60,0,0
359067,-88.951816668139,4,1,0,60,0,0
359214,-89.2747110928631,4,1,0,60,0,0
359362,-89.600986179737,4,1,0,60,0,0
359509,-89.9262370849002,4,1,0,60,0,0
359949,-83.3333333333333,4,1,0,60,0,0
360060,-83.5616498502849,4,1,0,60,0,0
360280,-84.0160192784074,4,1,0,60,0,0
360611,-84.7042979446767,4,1,0,60,0,0
360832,-85.1669798270807,4,1,0,60,0,0
361273,-86.0978170836068,4,1,0,60,0,0
361493,-86.5659770108099,4,1,0,60,0,0
361714,-87.0388279778489,4,1,0,60,0,0
361824,-87.2751455207325,4,1,0,60,0,0
361935,-87.5142618076333,4,1,0,60,0,0
362155,-87.9901237031481,4,1,0,60,0,0
362596,-88.951816668139,4,1,0,60,0,0
362743,-89.2747110928631,4,1,0,60,0,0
362891,-89.600986179737,4,1,0,60,0,0
363038,-89.9262370849002,4,1,0,60,0,0
363479,-83.3333333333333,4,1,0,60,0,0
363590,-83.5616498502849,4,1,0,60,0,0
363810,-84.0160192784074,4,1,0,60,0,0
364141,-84.7042979446767,4,1,0,60,0,0
364362,-85.1669798270807,4,1,0,60,0,0
364803,-86.0978170836068,4,1,0,60,0,0
365023,-86.5659770108099,4,1,0,60,0,0
365244,-87.0388279778489,4,1,0,60,0,0
365354,-87.2751455207325,4,1,0,60,0,0
365465,-87.5142618076333,4,1,0,60,0,0
365685,-87.9901237031481,4,1,0,60,0,0
366126,-88.951816668139,4,1,0,60,0,0
366273,-89.2747110928631,4,1,0,60,0,0
366421,-89.600986179737,4,1,0,60,0,0
367008,-76.9230769230769,4,1,0,60,0,0
367118,-77.1152361891337,4,1,0,60,0,0
367339,-77.5027538546069,4,1,0,60,0,0
367669,-78.0850280167397,4,1,0,60,0,0
367890,-78.4774190572242,4,1,0,60,0,0
368221,-79.0688092003794,4,1,0,60,0,0
368331,-79.2663286568505,4,1,0,60,0,0
368552,-79.6646559414405,4,1,0,60,0,0
368772,-80.0631689244812,4,1,0,60,0,0
368883,-80.2649928644384,4,1,0,60,0,0
368993,-80.4655004719838,4,1,0,60,0,0
369214,-80.8698538064865,4,1,0,60,0,0
369655,-81.6828138242184,4,1,0,60,0,0
369802,-81.9556125543337,4,1,0,60,0,0
369949,-82.229322359174,4,1,0,60,0,0
370096,-82.5039462814852,4,1,0,60,0,0
370538,-76.9230769230769,4,1,0,60,0,0
370648,-77.1152361891337,4,1,0,60,0,0
370869,-77.5027538546069,4,1,0,60,0,0
371199,-78.0850280167397,4,1,0,60,0,0
371420,-78.4774190572242,4,1,0,60,0,0
371751,-79.0688092003794,4,1,0,60,0,0
371861,-79.2663286568505,4,1,0,60,0,0
372082,-79.6646559414405,4,1,0,60,0,0
372302,-80.0631689244812,4,1,0,60,0,0
372413,-80.2649928644384,4,1,0,60,0,0
372523,-80.4655004719838,4,1,0,60,0,0
372744,-80.8698538064865,4,1,0,60,0,0
373185,-81.6828138242184,4,1,0,60,0,0
373332,-81.9556125543337,4,1,0,60,0,0
373479,-82.229322359174,4,1,0,60,0,0
373626,-82.5039462814852,4,1,0,60,0,0
374067,-76.9230769230769,4,1,0,60,0,0
374177,-77.1152361891337,4,1,0,60,0,0
374398,-77.5027538546069,4,1,0,60,0,0
374728,-78.0850280167397,4,1,0,60,0,0
374949,-78.4774190572242,4,1,0,60,0,0
375280,-79.0688092003794,4,1,0,60,0,0
375390,-79.2663286568505,4,1,0,60,0,0
375611,-79.6646559414405,4,1,0,60,0,0
375831,-80.0631689244812,4,1,0,60,0,0
375942,-80.2649928644384,4,1,0,60,0,0
376052,-80.4655004719838,4,1,0,60,0,0
376273,-80.8698538064865,4,1,0,60,0,0
376714,-81.6828138242184,4,1,0,60,0,0
376861,-81.9556125543337,4,1,0,60,0,0
377008,-82.229322359174,4,1,0,60,0,0
377155,-82.5039462814852,4,1,0,60,0,0
377596,-76.9230769230769,4,1,0,60,0,0
377706,-77.1152361891337,4,1,0,60,0,0
377927,-77.5027538546069,4,1,0,60,0,0
378257,-78.0850280167397,4,1,0,60,0,0
378478,-78.4774190572242,4,1,0,60,0,0
378809,-79.0688092003794,4,1,0,60,0,0
378919,-79.2663286568505,4,1,0,60,0,0
379140,-79.6646559414405,4,1,0,60,0,0
379360,-80.0631689244812,4,1,0,60,0,0
379471,-80.2649928644384,4,1,0,60,0,0
379581,-80.4655004719838,4,1,0,60,0,0
379802,-80.8698538064865,4,1,0,60,0,0
380243,-81.6828138242184,4,1,0,60,0,0
380390,-81.9556125543337,4,1,0,60,0,0
380537,-82.229322359174,4,1,0,60,0,0
381126,-71.4285714285714,4,1,0,60,0,0
381237,-71.5952160440081,4,1,0,60,0,0
381457,-71.9266524547639,4,1,0,60,0,0
381788,-72.4282066668775,4,1,0,60,0,0
382009,-72.7650268444635,4,1,0,60,0,0
382340,-73.2724271538461,4,1,0,60,0,0
382450,-73.4418316937188,4,1,0,60,0,0
382670,-73.7818166597665,4,1,0,60,0,0
382891,-74.1249316661101,4,1,0,60,0,0
383001,-74.2963071811539,4,1,0,60,0,0
383112,-74.4696422946938,4,1,0,60,0,0
383332,-74.8143853140773,4,1,0,60,0,0
383553,-75.1623021783367,4,1,0,60,0,0
383773,-75.5102517346705,4,1,0,60,0,0
383920,-75.7436425621635,4,1,0,60,0,0
384067,-75.9777547655904,4,1,0,60,0,0
384215,-76.2141905802322,4,1,0,60,0,0
384655,-71.4285714285714,4,1,0,60,0,0
384766,-71.5952160440081,4,1,0,60,0,0
384986,-71.9266524547639,4,1,0,60,0,0
385317,-72.4282066668775,4,1,0,60,0,0
385538,-72.7650268444635,4,1,0,60,0,0
385869,-73.2724271538461,4,1,0,60,0,0
385979,-73.4418316937188,4,1,0,60,0,0
386199,-73.7818166597665,4,1,0,60,0,0
386420,-74.1249316661101,4,1,0,60,0,0
386530,-74.2963071811539,4,1,0,60,0,0
386641,-74.4696422946938,4,1,0,60,0,0
386861,-74.8143853140773,4,1,0,60,0,0
387082,-75.1623021783367,4,1,0,60,0,0
387302,-75.5102517346705,4,1,0,60,0,0
387449,-75.7436425621635,4,1,0,60,0,0
387596,-75.9777547655904,4,1,0,60,0,0
387744,-76.2141905802322,4,1,0,60,0,0
388185,-71.4285714285714,4,1,0,60,0,0
388296,-71.5952160440081,4,1,0,60,0,0
388516,-71.9266524547639,4,1,0,60,0,0
388847,-72.4282066668775,4,1,0,60,0,0
389068,-72.7650268444635,4,1,0,60,0,0
389399,-73.2724271538461,4,1,0,60,0,0
389509,-73.4418316937188,4,1,0,60,0,0
389729,-73.7818166597665,4,1,0,60,0,0
389950,-74.1249316661101,4,1,0,60,0,0
390060,-74.2963071811539,4,1,0,60,0,0
390171,-74.4696422946938,4,1,0,60,0,0
390391,-74.8143853140773,4,1,0,60,0,0
390612,-75.1623021783367,4,1,0,60,0,0
390832,-75.5102517346705,4,1,0,60,0,0
390979,-75.7436425621635,4,1,0,60,0,0
391126,-75.9777547655904,4,1,0,60,0,0
391274,-76.2141905802322,4,1,0,60,0,0
391714,-71.4285714285714,4,1,0,60,0,0
391825,-71.5952160440081,4,1,0,60,0,0
392045,-71.9266524547639,4,1,0,60,0,0
392376,-72.4282066668775,4,1,0,60,0,0
392597,-72.7650268444635,4,1,0,60,0,0
392928,-73.2724271538461,4,1,0,60,0,0
393038,-73.4418316937188,4,1,0,60,0,0
393258,-73.7818166597665,4,1,0,60,0,0
393479,-74.1249316661101,4,1,0,60,0,0
393589,-74.2963071811539,4,1,0,60,0,0
393700,-74.4696422946938,4,1,0,60,0,0
393920,-74.8143853140773,4,1,0,60,0,0
394141,-75.1623021783367,4,1,0,60,0,0
394361,-75.511591029223,4,1,0,60,0,0
394692,-76.0363686861477,4,1,0,60,0,0
394803,-76.2137032238396,4,1,0,60,0,0
394913,-76.3900297849098,4,1,0,60,0,0
395133,-76.7455199610104,4,1,0,60,0,0

[HitObjects]
256,192,42330,5,8,0:0:0:0:
256,192,42661,1,0,0:0:0:0:
256,192,42992,1,8,0:0:0:0:
256,192,43212,1,0,0:0:0:0:
256,192,43653,1,8,0:0:0:0:
256,192,44094,1,0,0:0:0:0:
256,192,44425,1,8,0:0:0:0:
256,192,44756,1,0,0:0:0:0:
256,192,44977,1,8,0:0:0:0:
256,192,45418,1,8,0:0:0:0:
256,192,45859,1,8,0:0:0:0:
256,192,46190,1,0,0:0:0:0:
256,192,46521,1,8,0:0:0:0:
256,192,46742,1,8,0:0:0:0:
256,192,47183,1,8,0:0:0:0:
256,192,47624,1,0,0:0:0:0:
256,192,47955,1,8,0:0:0:0:
256,192,48286,1,8,0:0:0:0:
256,192,48506,1,0,0:0:0:0:
256,192,49389,1,8,0:0:0:0:
256,192,49719,1,0,0:0:0:0:
256,192,50050,1,8,0:0:0:0:
256,192,50271,1,0,0:0:0:0:
256,192,50712,1,8,0:0:0:0:
256,192,51153,1,0,0:0:0:0:
256,192,51484,1,8,0:0:0:0:
256,192,51815,1,0,0:0:0:0:
256,192,52036,1,8,0:0:0:0:
256,192,52477,1,8,0:0:0:0:
256,192,52918,1,8,0:0:0:0:
256,192,53249,1,0,0:0:0:0:
256,192,53580,1,8,0:0:0:0:
256,192,53800,1,8,0:0:0:0:
256,192,54242,1,8,0:0:0:0:
256,192,54683,1,0,0:0:0:0:
256,192,55014,1,8,0:0:0:0:
256,192,55344,1,8,0:0:0:0:
256,192,55565,1,0,0:0:0:0:
256,192,56447,1,8,0:0:0:0:
256,192,56668,1,0,0:0:0:0:
256,192,56778,1,0,0:0:0:0:
256,192,56889,1,0,0:0:0:0:
256,192,57109,1,8,0:0:0:0:
256,192,57330,1,0,0:0:0:0:
256,192,57771,1,8,0:0:0:0:
256,192,58212,1,0,0:0:0:0:
256,192,58433,1,8,0:0:0:0:
256,192,58543,1,8,0:0:0:0:
256,192,58653,1,8,0:0:0:0:
256,192,58874,1,0,0:0:0:0:
256,192,59094,1,8,0:0:0:0:
256,192,59536,1,8,0:0:0:0:
256,192,59977,1,8,0:0:0:0:
256,192,60197,1,0,0:0:0:0:
256,192,60308,1,0,0:0:0:0:
256,192,60418,1,0,0:0:0:0:
256,192,60639,1,8,0:0:0:0:
256,192,60859,1,8,0:0:0:0:
256,192,61300,1,8,0:0:0:0:
256,192,61742,1,0,0:0:0:0:
256,192,61962,1,8,0:0:0:0:
256,192,62072,1,8,0:0:0:0:
256,192,62183,1,8,0:0:0:0:
256,192,62403,1,8,0:0:0:0:
256,192,62624,1,0,0:0:0:0:
256,192,63506,1,8,0:0:0:0:
256,192,63727,1,0,0:0:0:0:
256,192,63837,1,0,0:0:0:0:
256,192,63947,1,0,0:0:0:0:
256,192,64168,1,8,0:0:0:0:
256,192,64389,1,0,0:0:0:0:
256,192,64830,1,8,0:0:0:0:
256,192,65271,1,0,0:0:0:0:
256,192,65492,1,8,0:0:0:0:
256,192,65602,1,8,0:0:0:0:
256,192,65712,1,8,0:0:0:0:
256,192,65933,1,0,0:0:0:0:
256,192,66153,1,8,0:0:0:0:
256,192,66595,1,8,0:0:0:0:
256,192,67036,1,8,0:0:0:0:
256,192,67256,1,0,0:0:0:0:
256,192,67367,1,0,0:0:0:0:
256,192,67477,1,0,0:0:0:0:
256,192,67697,1,8,0:0:0:0:
256,192,67918,1,8,0:0:0:0:
256,192,68359,1,8,0:0:0:0:
256,192,68800,1,0,0:0:0:0:
256,192,69021,1,8,0:0:0:0:
256,192,69131,1,8,0:0:0:0:
256,192,69242,1,8,0:0:0:0:
256,192,69462,1,8,0:0:0:0:
256,192,69683,1,0,0:0:0:0:
256,192,70124,1,8,0:0:0:0:
256,192,71447,1,8,0:0:0:0:
256,192,73212,1,8,0:0:0:0:
256,192,74977,1,8,0:0:0:0:
256,192,76742,1,8,0:0:0:0:
256,192,84242,5,8,0:0:0:0:
256,192,84462,1,8,0:0:0:0:
256,192,84683,5,4,0:0:0:0:
256,192,85565,1,12,0:0:0:0:
256,192,86447,1,4,0:0:0:0:
256,192,87330,1,12,0:0:0:0:
256,192,88212,1,4,0:0:0:0:
256,192,88653,1,8,0:0:0:0:
256,192,88874,1,0,0:0:0:0:
256,192,89094,1,12,0:0:0:0:
256,192,89536,1,8,0:0:0:0:
256,192,89756,1,0,0:0:0:0:
256,192,89977,1,4,0:0:0:0:
256,192,90418,1,8,0:0:0:0:
256,192,90639,1,0,0:0:0:0:
256,192,90859,1,12,0:0:0:0:
256,192,91300,1,8,0:0:0:0:
256,192,91411,1,8,0:0:0:0:
256,192,91521,1,8,0:0:0:0:
256,192,91742,1,4,0:0:0:0:
256,192,92624,1,12,0:0:0:0:
256,192,93506,1,4,0:0:0:0:
256,192,94389,1,12,0:0:0:0:
256,192,95271,1,4,0:0:0:0:
256,192,95712,1,8,0:0:0:0:
256,192,95933,1,0,0:0:0:0:
256,192,96153,1,12,0:0:0:0:
256,192,96594,1,8,0:0:0:0:
256,192,96815,1,8,0:0:0:0:
256,192,97036,1,4,0:0:0:0:
256,192,97477,1,8,0:0:0:0:
256,192,97697,1,0,0:0:0:0:
256,192,97918,1,12,0:0:0:0:
256,192,98359,1,8,0:0:0:0:
256,192,98580,1,8,0:0:0:0:
256,192,98800,1,4,0:0:0:0:
256,192,99683,1,12,0:0:0:0:
256,192,100565,1,4,0:0:0:0:
256,192,101447,1,12,0:0:0:0:
256,192,102330,1,4,0:0:0:0:
256,192,102771,1,8,0:0:0:0:
256,192,102992,1,0,0:0:0:0:
256,192,103212,1,12,0:0:0:0:
256,192,103653,1,8,0:0:0:0:
256,192,103874,1,0,0:0:0:0:
256,192,104094,1,4,0:0:0:0:
256,192,104536,1,8,0:0:0:0:
256,192,104756,1,0,0:0:0:0:
256,192,104977,1,12,0:0:0:0:
256,192,105418,1,8,0:0:0:0:
256,192,105639,1,0,0:0:0:0:
256,192,105859,1,4,0:0:0:0:
256,192,106742,1,12,0:0:0:0:
256,192,107624,1,4,0:0:0:0:
256,192,108506,1,12,0:0:0:0:
256,192,109389,1,4,0:0:0:0:
256,192,109830,1,8,0:0:0:0:
256,192,110050,1,0,0:0:0:0:
256,192,110271,1,12,0:0:0:0:
256,192,110712,1,8,0:0:0:0:
256,192,110933,1,8,0:0:0:0:
256,192,111153,1,4,0:0:0:0:
256,192,111595,1,8,0:0:0:0:
256,192,111815,1,0,0:0:0:0:
256,192,112036,1,12,0:0:0:0:
256,192,112477,1,8,0:0:0:0:
256,192,112697,1,8,0:0:0:0:
256,192,112918,5,4,0:0:0:0:
256,192,113359,1,8,0:0:0:0:
256,192,113800,1,12,0:0:0:0:
256,192,114242,1,8,0:0:0:0:
256,192,114683,1,0,0:0:0:0:
256,192,115124,1,8,0:0:0:0:
256,192,115565,1,12,0:0:0:0:
256,192,116447,1,4,0:0:0:0:
256,192,116889,1,8,0:0:0:0:
256,192,117109,1,0,0:0:0:0:
256,192,117330,1,12,0:0:0:0:
256,192,117771,1,8,0:0:0:0:
256,192,117992,1,0,0:0:0:0:
256,192,118212,1,4,0:0:0:0:
256,192,118653,1,8,0:0:0:0:
256,192,118874,1,0,0:0:0:0:
256,192,119094,1,12,0:0:0:0:
256,192,119536,1,8,0:0:0:0:
256,192,119646,1,8,0:0:0:0:
256,192,119756,1,8,0:0:0:0:
256,192,119977,1,4,0:0:0:0:
256,192,120418,1,8,0:0:0:0:
256,192,120859,1,12,0:0:0:0:
256,192,121300,1,8,0:0:0:0:
256,192,121742,1,0,0:0:0:0:
256,192,122183,1,8,0:0:0:0:
256,192,122624,1,12,0:0:0:0:
256,192,123506,1,4,0:0:0:0:
256,192,123947,1,8,0:0:0:0:
256,192,124168,1,0,0:0:0:0:
256,192,124389,1,12,0:0:0:0:
256,192,124830,1,8,0:0:0:0:
256,192,125050,1,8,0:0:0:0:
256,192,125271,1,4,0:0:0:0:
256,192,125712,1,8,0:0:0:0:
256,192,125933,1,0,0:0:0:0:
256,192,126153,1,12,0:0:0:0:
256,192,126594,1,8,0:0:0:0:
256,192,126705,1,8,0:0:0:0:
256,192,126815,1,8,0:0:0:0:
256,192,127036,1,4,0:0:0:0:
256,192,127477,1,8,0:0:0:0:
256,192,127918,1,12,0:0:0:0:
256,192,128359,1,8,0:0:0:0:
256,192,128800,1,0,0:0:0:0:
256,192,129242,1,8,0:0:0:0:
256,192,129683,1,12,0:0:0:0:
256,192,130565,1,4,0:0:0:0:
256,192,131006,1,8,0:0:0:0:
256,192,131227,1,0,0:0:0:0:
256,192,131447,1,12,0:0:0:0:
256,192,131889,1,8,0:0:0:0:
256,192,132109,1,0,0:0:0:0:
256,192,132330,1,4,0:0:0:0:
256,192,132771,1,8,0:0:0:0:
256,192,132992,1,0,0:0:0:0:
256,192,133212,1,12,0:0:0:0:
256,192,133653,1,8,0:0:0:0:
256,192,133764,1,8,0:0:0:0:
256,192,133874,1,8,0:0:0:0:
256,192,134094,1,4,0:0:0:0:
256,192,134536,1,0,0:0:0:0:
256,192,134977,1,12,0:0:0:0:
256,192,135418,1,0,0:0:0:0:
256,192,135859,1,0,0:0:0:0:
256,192,136300,1,0,0:0:0:0:
256,192,136742,1,12,0:0:0:0:
256,192,137624,1,4,0:0:0:0:
256,192,138065,1,8,0:0:0:0:
256,192,138286,1,0,0:0:0:0:
256,192,138506,1,12,0:0:0:0:
256,192,138947,1,8,0:0:0:0:
256,192,139058,1,8,0:0:0:0:
256,192,139168,1,8,0:0:0:0:
256,192,139389,1,0,0:0:0:0:
256,192,139830,1,8,0:0:0:0:
256,192,139940,1,8,0:0:0:0:
256,192,140050,1,8,0:0:0:0:
256,192,140712,1,8,0:0:0:0:
256,192,140933,1,8,0:0:0:0:
256,192,141153,5,0,0:0:0:0:
256,192,141374,1,8,0:0:0:0:
256,192,141484,1,8,0:0:0:0:
256,192,141594,1,8,0:0:0:0:
256,192,141815,1,0,0:0:0:0:
256,192,142036,1,12,0:0:0:0:
256,192,142918,1,8,0:0:0:0:
256,192,143139,1,0,0:0:0:0:
256,192,143249,1,0,0:0:0:0:
256,192,143359,1,0,0:0:0:0:
256,192,143580,1,0,0:0:0:0:
256,192,143800,1,12,0:0:0:0:
256,192,144683,1,0,0:0:0:0:
256,192,144903,1,8,0:0:0:0:
256,192,145014,1,8,0:0:0:0:
256,192,145124,1,8,0:0:0:0:
256,192,145344,1,0,0:0:0:0:
256,192,145565,1,12,0:0:0:0:
256,192,146447,1,8,0:0:0:0:
256,192,146668,1,0,0:0:0:0:
256,192,146778,1,0,0:0:0:0:
256,192,146889,1,0,0:0:0:0:
256,192,147109,1,0,0:0:0:0:
256,192,147330,1,12,0:0:0:0:
256,192,148212,1,0,0:0:0:0:
256,192,148433,1,8,0:0:0:0:
256,192,148543,1,8,0:0:0:0:
256,192,148653,1,8,0:0:0:0:
256,192,148874,1,0,0:0:0:0:
256,192,149094,1,12,0:0:0:0:
256,192,149977,1,8,0:0:0:0:
256,192,150197,1,0,0:0:0:0:
256,192,150308,1,0,0:0:0:0:
256,192,150418,1,0,0:0:0:0:
256,192,150639,1,0,0:0:0:0:
256,192,150859,1,12,0:0:0:0:
256,192,151742,1,0,0:0:0:0:
256,192,151962,1,8,0:0:0:0:
256,192,152072,1,8,0:0:0:0:
256,192,152183,1,8,0:0:0:0:
256,192,152403,1,0,0:0:0:0:
256,192,152624,1,12,0:0:0:0:
256,192,153506,1,8,0:0:0:0:
256,192,153727,1,0,0:0:0:0:
256,192,153837,1,0,0:0:0:0:
256,192,153947,1,0,0:0:0:0:
256,192,154168,1,0,0:0:0:0:
256,192,154389,1,12,0:0:0:0:
256,192,155271,1,0,0:0:0:0:
256,192,155492,1,8,0:0:0:0:
256,192,155602,1,8,0:0:0:0:
256,192,155712,1,8,0:0:0:0:
256,192,155933,1,0,0:0:0:0:
256,192,156153,1,12,0:0:0:0:
256,192,157036,1,8,0:0:0:0:
256,192,157256,1,0,0:0:0:0:
256,192,157367,1,0,0:0:0:0:
256,192,157477,1,0,0:0:0:0:
256,192,157697,1,0,0:0:0:0:
256,192,157918,1,12,0:0:0:0:
256,192,158800,1,0,0:0:0:0:
256,192,159021,1,8,0:0:0:0:
256,192,159131,1,8,0:0:0:0:
256,192,159242,1,8,0:0:0:0:
256,192,159462,1,0,0:0:0:0:
256,192,159683,1,12,0:0:0:0:
256,192,160565,1,8,0:0:0:0:
256,192,160786,1,0,0:0:0:0:
256,192,160896,1,0,0:0:0:0:
256,192,161006,1,0,0:0:0:0:
256,192,161227,1,0,0:0:0:0:
256,192,161447,1,12,0:0:0:0:
256,192,162330,1,0,0:0:0:0:
256,192,162550,1,8,0:0:0:0:
256,192,162661,1,8,0:0:0:0:
256,192,162771,1,8,0:0:0:0:
256,192,162992,1,0,0:0:0:0:
256,192,163212,1,12,0:0:0:0:
256,192,164094,1,8,0:0:0:0:
256,192,164315,1,0,0:0:0:0:
256,192,164425,1,0,0:0:0:0:
256,192,164536,1,0,0:0:0:0:
256,192,164756,1,0,0:0:0:0:
256,192,164977,1,12,0:0:0:0:
256,192,165859,1,0,0:0:0:0:
256,192,166080,1,8,0:0:0:0:
256,192,166190,1,8,0:0:0:0:
256,192,166300,1,8,0:0:0:0:
256,192,166521,1,0,0:0:0:0:
256,192,166742,1,12,0:0:0:0:
256,192,167624,1,8,0:0:0:0:
256,192,167844,1,0,0:0:0:0:
256,192,167955,1,0,0:0:0:0:
256,192,168065,1,0,0:0:0:0:
256,192,168286,1,0,0:0:0:0:
256,192,168506,1,12,0:0:0:0:
256,192,169389,5,4,0:0:0:0:
256,192,170050,1,8,0:0:0:0:
256,192,170271,1,4,0:0:0:0:
256,192,170712,1,8,0:0:0:0:
256,192,171153,1,4,0:0:0:0:
256,192,171374,1,8,0:0:0:0:
256,192,172036,1,4,0:0:0:0:
256,192,172477,1,4,0:0:0:0:
256,192,172918,1,4,0:0:0:0:
256,192,173580,1,8,0:0:0:0:
256,192,173800,1,4,0:0:0:0:
256,192,174242,1,8,0:0:0:0:
256,192,174683,1,4,0:0:0:0:
256,192,174903,1,8,0:0:0:0:
256,192,175565,1,4,0:0:0:0:
256,192,176006,1,4,0:0:0:0:
256,192,176337,1,0,0:0:0:0:
256,192,176447,1,0,0:0:0:0:
256,192,176889,1,12,0:0:0:0:
256,192,177330,1,0,0:0:0:0:
256,192,177771,1,12,0:0:0:0:
256,192,178212,1,0,0:0:0:0:
256,192,178653,1,12,0:0:0:0:
256,192,179094,1,0,0:0:0:0:
256,192,179536,1,12,0:0:0:0:
256,192,179977,1,0,0:0:0:0:
256,192,180418,1,12,0:0:0:0:
256,192,180859,1,0,0:0:0:0:
256,192,181300,1,12,0:0:0:0:
256,192,181742,1,0,0:0:0:0:
256,192,182183,1,12,0:0:0:0:
256,192,183065,1,12,0:0:0:0:
256,192,183506,1,0,0:0:0:0:
256,192,183727,1,8,0:0:0:0:
256,192,183837,1,8,0:0:0:0:
256,192,183947,1,8,0:0:0:0:
256,192,184168,1,0,0:0:0:0:
256,192,184389,1,0,0:0:0:0:
256,192,184609,1,0,0:0:0:0:
256,192,184830,1,8,0:0:0:0:
256,192,185271,1,0,0:0:0:0:
256,192,185492,1,0,0:0:0:0:
256,192,185712,1,8,0:0:0:0:
256,192,186043,1,0,0:0:0:0:
256,192,186374,1,0,0:0:0:0:
256,192,186594,1,8,0:0:0:0:
256,192,187036,1,0,0:0:0:0:
256,192,187256,1,8,0:0:0:0:
256,192,187367,1,8,0:0:0:0:
256,192,187477,1,8,0:0:0:0:
256,192,187697,1,8,0:0:0:0:
256,192,187918,1,0,0:0:0:0:
256,192,188139,1,0,0:0:0:0:
256,192,188359,1,8,0:0:0:0:
256,192,188800,1,0,0:0:0:0:
256,192,189021,1,8,0:0:0:0:
256,192,189242,1,8,0:0:0:0:
256,192,189462,1,0,0:0:0:0:
256,192,189683,1,8,0:0:0:0:
256,192,190565,1,0,0:0:0:0:
256,192,190786,1,8,0:0:0:0:
256,192,190896,1,8,0:0:0:0:
256,192,191006,1,8,0:0:0:0:
256,192,191227,1,0,0:0:0:0:
256,192,191447,1,0,0:0:0:0:
256,192,191668,1,0,0:0:0:0:
256,192,191889,1,8,0:0:0:0:
256,192,192330,1,0,0:0:0:0:
256,192,192550,1,0,0:0:0:0:
256,192,192771,1,8,0:0:0:0:
256,192,193102,1,0,0:0:0:0:
256,192,193433,1,0,0:0:0:0:
256,192,193653,1,8,0:0:0:0:
256,192,194094,1,0,0:0:0:0:
256,192,194315,1,8,0:0:0:0:
256,192,194425,1,8,0:0:0:0:
256,192,194536,1,8,0:0:0:0:
256,192,194756,1,8,0:0:0:0:
256,192,194977,1,0,0:0:0:0:
256,192,195197,1,0,0:0:0:0:
256,192,195418,1,8,0:0:0:0:
256,192,195859,1,0,0:0:0:0:
256,192,196080,1,8,0:0:0:0:
256,192,196300,1,8,0:0:0:0:
256,192,196521,1,0,0:0:0:0:
256,192,196742,1,8,0:0:0:0:
256,192,197624,1,8,0:0:0:0:
256,192,197844,1,0,0:0:0:0:
256,192,197955,1,0,0:0:0:0:
256,192,198065,1,0,0:0:0:0:
256,192,198286,1,0,0:0:0:0:
256,192,198506,1,8,0:0:0:0:
256,192,198727,1,8,0:0:0:0:
256,192,198947,1,8,0:0:0:0:
256,192,199389,1,0,0:0:0:0:
256,192,199609,1,0,0:0:0:0:
256,192,199830,1,8,0:0:0:0:
256,192,200161,1,0,0:0:0:0:
256,192,200492,1,0,0:0:0:0:
256,192,200712,1,8,0:0:0:0:
256,192,201153,1,8,0:0:0:0:
256,192,201374,1,0,0:0:0:0:
256,192,201484,1,0,0:0:0:0:
256,192,201594,1,0,0:0:0:0:
256,192,201815,1,8,0:0:0:0:
256,192,202036,1,8,0:0:0:0:
256,192,202256,1,0,0:0:0:0:
256,192,202477,1,8,0:0:0:0:
256,192,202918,1,8,0:0:0:0:
256,192,203139,1,8,0:0:0:0:
256,192,203359,1,8,0:0:0:0:
256,192,203580,1,0,0:0:0:0:
256,192,203800,1,8,0:0:0:0:
256,192,204683,1,8,0:0:0:0:
256,192,204903,1,0,0:0:0:0:
256,192,205014,1,0,0:0:0:0:
256,192,205124,1,0,0:0:0:0:
256,192,205344,1,0,0:0:0:0:
256,192,205565,1,8,0:0:0:0:
256,192,205786,1,8,0:0:0:0:
256,192,206006,1,8,0:0:0:0:
256,192,206447,1,0,0:0:0:0:
256,192,206668,1,0,0:0:0:0:
256,192,206889,1,8,0:0:0:0:
256,192,207219,1,0,0:0:0:0:
256,192,207550,1,0,0:0:0:0:
256,192,207771,1,8,0:0:0:0:
256,192,208212,1,8,0:0:0:0:
256,192,208433,1,0,0:0:0:0:
256,192,208543,1,0,0:0:0:0:
256,192,208653,1,0,0:0:0:0:
256,192,208874,1,8,0:0:0:0:
256,192,209094,1,8,0:0:0:0:
256,192,209315,1,0,0:0:0:0:
256,192,209536,1,8,0:0:0:0:
256,192,209977,1,8,0:0:0:0:
256,192,210197,1,8,0:0:0:0:
256,192,210418,1,8,0:0:0:0:
256,192,210639,1,0,0:0:0:0:
256,192,210859,1,8,0:0:0:0:
256,192,211742,5,4,0:0:0:0:
256,192,212403,1,8,0:0:0:0:
256,192,212624,1,0,0:0:0:0:
256,192,213065,1,8,0:0:0:0:
256,192,213506,1,0,0:0:0:0:
256,192,213727,1,8,0:0:0:0:
256,192,214389,1,0,0:0:0:0:
256,192,214830,1,8,0:0:0:0:
256,192,215271,1,4,0:0:0:0:
256,192,215933,1,8,0:0:0:0:
256,192,216153,1,0,0:0:0:0:
256,192,216594,1,8,0:0:0:0:
256,192,217036,1,0,0:0:0:0:
256,192,217256,1,8,0:0:0:0:
256,192,217918,1,0,0:0:0:0:
256,192,218359,1,8,0:0:0:0:
256,192,218800,1,4,0:0:0:0:
256,192,219462,1,8,0:0:0:0:
256,192,219683,1,0,0:0:0:0:
256,192,220124,1,8,0:0:0:0:
256,192,220565,1,0,0:0:0:0:
256,192,220786,1,8,0:0:0:0:
256,192,221447,1,0,0:0:0:0:
256,192,221889,1,8,0:0:0:0:
256,192,222330,1,4,0:0:0:0:
256,192,222992,1,8,0:0:0:0:
256,192,223212,1,0,0:0:0:0:
256,192,223653,1,8,0:0:0:0:
256,192,224094,1,0,0:0:0:0:
256,192,224315,1,8,0:0:0:0:
256,192,224977,1,0,0:0:0:0:
256,192,225418,1,8,0:0:0:0:
256,192,225859,1,0,0:0:0:0:
256,192,226190,1,0,0:0:0:0:
256,192,226521,1,8,0:0:0:0:
256,192,227183,1,0,0:0:0:0:
256,192,227624,1,8,0:0:0:0:
256,192,227955,1,0,0:0:0:0:
256,192,228286,1,8,0:0:0:0:
256,192,228947,1,8,0:0:0:0:
256,192,229389,1,0,0:0:0:0:
256,192,229719,1,0,0:0:0:0:
256,192,230050,1,8,0:0:0:0:
256,192,230712,1,0,0:0:0:0:
256,192,231153,1,8,0:0:0:0:
256,192,231484,1,8,0:0:0:0:
256,192,231815,1,8,0:0:0:0:
256,192,232918,1,0,0:0:0:0:
256,192,233249,1,0,0:0:0:0:
256,192,233580,1,8,0:0:0:0:
256,192,234242,1,0,0:0:0:0:
256,192,234683,1,8,0:0:0:0:
256,192,235014,1,0,0:0:0:0:
256,192,235344,1,8,0:0:0:0:
256,192,236006,1,8,0:0:0:0:
256,192,236447,1,0,0:0:0:0:
256,192,236778,1,0,0:0:0:0:
256,192,237109,1,8,0:0:0:0:
256,192,237771,1,0,0:0:0:0:
256,192,238212,1,8,0:0:0:0:
256,192,238543,1,8,0:0:0:0:
256,192,238874,1,8,0:0:0:0:
256,192,239536,1,0,0:0:0:0:
256,192,239756,1,0,0:0:0:0:
256,192,239977,1,0,0:0:0:0:
256,192,240859,1,12,0:0:0:0:
256,192,241300,1,0,0:0:0:0:
256,192,242624,1,12,0:0:0:0:
256,192,243065,1,0,0:0:0:0:
256,192,243506,1,0,0:0:0:0:
256,192,244389,1,12,0:0:0:0:
256,192,244830,1,0,0:0:0:0:
256,192,246153,1,12,0:0:0:0:
256,192,247036,1,0,0:0:0:0:
256,192,247918,1,12,0:0:0:0:
256,192,248359,1,0,0:0:0:0:
256,192,249683,1,12,0:0:0:0:
256,192,250124,1,0,0:0:0:0:
256,192,250565,1,0,0:0:0:0:
256,192,251447,1,12,0:0:0:0:
256,192,251889,1,0,0:0:0:0:
256,192,254094,5,0,0:0:0:0:
256,192,254536,1,0,0:0:0:0:
256,192,254756,1,0,0:0:0:0:
256,192,255308,1,0,0:0:0:0:
256,192,255639,1,0,0:0:0:0:
256,192,256080,1,0,0:0:0:0:
256,192,256300,1,0,0:0:0:0:
256,192,256742,1,0,0:0:0:0:
256,192,257293,1,0,0:0:0:0:
256,192,257514,1,0,0:0:0:0:
256,192,258065,1,0,0:0:0:0:
256,192,258286,1,0,0:0:0:0:
256,192,258837,1,0,0:0:0:0:
256,192,259168,1,0,0:0:0:0:
256,192,259609,1,0,0:0:0:0:
256,192,259830,1,0,0:0:0:0:
256,192,260271,1,0,0:0:0:0:
256,192,260822,1,0,0:0:0:0:
256,192,261043,1,0,0:0:0:0:
256,192,261594,1,0,0:0:0:0:
256,192,261815,1,0,0:0:0:0:
256,192,262367,1,0,0:0:0:0:
256,192,262697,1,0,0:0:0:0:
256,192,263139,1,0,0:0:0:0:
256,192,263359,1,0,0:0:0:0:
256,192,263800,1,0,0:0:0:0:
256,192,264352,1,0,0:0:0:0:
256,192,264572,1,0,0:0:0:0:
256,192,265124,1,0,0:0:0:0:
256,192,265344,1,0,0:0:0:0:
256,192,265896,1,0,0:0:0:0:
256,192,266227,1,0,0:0:0:0:
256,192,266668,1,0,0:0:0:0:
256,192,266889,1,0,0:0:0:0:
256,192,267330,1,0,0:0:0:0:
256,192,267881,1,0,0:0:0:0:
256,192,268102,1,0,0:0:0:0:
256,192,268322,1,8,0:0:0:0:
256,192,268653,1,8,0:0:0:0:
256,192,268874,1,8,0:0:0:0:
256,192,269205,1,8,0:0:0:0:
256,192,269756,1,8,0:0:0:0:
256,192,270087,1,8,0:0:0:0:
256,192,270308,1,8,0:0:0:0:
256,192,270859,1,8,0:0:0:0:
256,192,271631,1,8,0:0:0:0:
256,192,271852,1,8,0:0:0:0:
256,192,272183,1,8,0:0:0:0:
256,192,272403,1,8,0:0:0:0:
256,192,272734,1,8,0:0:0:0:
256,192,273286,1,8,0:0:0:0:
256,192,273617,1,8,0:0:0:0:
256,192,273837,1,8,0:0:0:0:
256,192,274389,1,8,0:0:0:0:
256,192,275161,1,8,0:0:0:0:
256,192,275381,1,8,0:0:0:0:
256,192,275712,1,8,0:0:0:0:
256,192,275933,1,8,0:0:0:0:
256,192,276264,1,8,0:0:0:0:
256,192,276815,1,8,0:0:0:0:
256,192,277146,1,8,0:0:0:0:
256,192,277367,1,8,0:0:0:0:
256,192,277918,1,8,0:0:0:0:
256,192,278690,1,8,0:0:0:0:
256,192,278911,1,8,0:0:0:0:
256,192,279242,1,8,0:0:0:0:
256,192,279462,1,8,0:0:0:0:
256,192,279793,1,8,0:0:0:0:
256,192,280344,1,8,0:0:0:0:
256,192,280675,1,8,0:0:0:0:
256,192,280896,1,8,0:0:0:0:
256,192,281447,1,8,0:0:0:0:
256,192,282330,1,0,0:0:0:0:
256,192,282440,1,0,0:0:0:0:
256,192,282661,1,8,0:0:0:0:
256,192,282992,1,0,0:0:0:0:
256,192,283322,1,8,0:0:0:0:
256,192,283653,1,0,0:0:0:0:
256,192,283874,1,8,0:0:0:0:
256,192,284536,1,0,0:0:0:0:
256,192,284977,1,8,0:0:0:0:
256,192,285124,1,8,0:0:0:0:
256,192,285271,1,8,0:0:0:0:
256,192,285418,1,8,0:0:0:0:
256,192,285859,1,0,0:0:0:0:
256,192,285969,1,0,0:0:0:0:
256,192,286190,1,8,0:0:0:0:
256,192,286521,1,8,0:0:0:0:
256,192,286852,1,0,0:0:0:0:
256,192,287183,1,0,0:0:0:0:
256,192,287403,1,8,0:0:0:0:
256,192,288065,1,0,0:0:0:0:
256,192,288506,1,8,0:0:0:0:
256,192,289389,1,0,0:0:0:0:
256,192,289499,1,0,0:0:0:0:
256,192,289719,1,8,0:0:0:0:
256,192,290050,1,0,0:0:0:0:
256,192,290381,1,8,0:0:0:0:
256,192,290712,1,0,0:0:0:0:
256,192,290933,1,8,0:0:0:0:
256,192,291594,1,0,0:0:0:0:
256,192,292036,1,8,0:0:0:0:
256,192,292183,1,8,0:0:0:0:
256,192,292330,1,8,0:0:0:0:
256,192,292477,1,8,0:0:0:0:
256,192,292918,1,0,0:0:0:0:
256,192,293028,1,0,0:0:0:0:
256,192,293249,1,8,0:0:0:0:
256,192,293580,1,8,0:0:0:0:
256,192,293911,1,0,0:0:0:0:
256,192,294242,1,0,0:0:0:0:
256,192,294462,1,8,0:0:0:0:
256,192,295124,1,0,0:0:0:0:
256,192,295565,1,8,0:0:0:0:
256,192,296447,1,0,0:0:0:0:
256,192,296558,1,0,0:0:0:0:
256,192,296778,1,8,0:0:0:0:
256,192,297109,1,0,0:0:0:0:
256,192,297440,1,8,0:0:0:0:
256,192,297771,1,0,0:0:0:0:
256,192,297992,1,8,0:0:0:0:
256,192,298653,1,0,0:0:0:0:
256,192,299094,1,8,0:0:0:0:
256,192,299242,1,8,0:0:0:0:
256,192,299389,1,8,0:0:0:0:
256,192,299536,1,8,0:0:0:0:
256,192,299977,1,0,0:0:0:0:
256,192,300087,1,0,0:0:0:0:
256,192,300308,1,8,0:0:0:0:
256,192,300639,1,8,0:0:0:0:
256,192,300969,1,0,0:0:0:0:
256,192,301300,1,0,0:0:0:0:
256,192,301521,1,8,0:0:0:0:
256,192,302183,1,0,0:0:0:0:
256,192,302624,1,8,0:0:0:0:
256,192,303506,1,0,0:0:0:0:
256,192,303617,1,0,0:0:0:0:
256,192,303837,1,8,0:0:0:0:
256,192,304168,1,0,0:0:0:0:
256,192,304499,1,8,0:0:0:0:
256,192,304830,1,0,0:0:0:0:
256,192,305050,1,8,0:0:0:0:
256,192,305712,1,0,0:0:0:0:
256,192,306153,1,8,0:0:0:0:
256,192,306300,1,8,0:0:0:0:
256,192,306447,1,8,0:0:0:0:
256,192,306594,1,8,0:0:0:0:
256,192,307036,1,0,0:0:0:0:
256,192,307146,1,0,0:0:0:0:
256,192,307367,1,8,0:0:0:0:
256,192,307697,1,8,0:0:0:0:
256,192,308028,1,0,0:0:0:0:
256,192,308359,1,0,0:0:0:0:
256,192,308580,1,8,0:0:0:0:
256,192,309242,1,0,0:0:0:0:
256,192,309683,1,8,0:0:0:0:
256,192,310565,1,0,0:0:0:0:
256,192,310675,1,0,0:0:0:0:
256,192,310896,1,8,0:0:0:0:
256,192,311227,1,0,0:0:0:0:
256,192,311447,1,8,0:0:0:0:
256,192,311889,1,0,0:0:0:0:
256,192,312109,1,8,0:0:0:0:
256,192,312550,1,8,0:0:0:0:
256,192,312771,1,0,0:0:0:0:
256,192,313212,1,8,0:0:0:0:
256,192,313359,1,8,0:0:0:0:
256,192,313506,1,8,0:0:0:0:
256,192,313653,1,8,0:0:0:0:
256,192,314094,1,0,0:0:0:0:
256,192,314205,1,0,0:0:0:0:
256,192,314425,1,8,0:0:0:0:
256,192,314756,1,0,0:0:0:0:
256,192,314977,1,8,0:0:0:0:
256,192,315418,1,8,0:0:0:0:
256,192,315639,1,0,0:0:0:0:
256,192,316080,1,8,0:0:0:0:
256,192,316300,1,0,0:0:0:0:
256,192,316742,1,8,0:0:0:0:
256,192,317624,1,0,0:0:0:0:
256,192,317734,1,0,0:0:0:0:
256,192,317955,1,8,0:0:0:0:
256,192,318286,1,0,0:0:0:0:
256,192,318506,1,8,0:0:0:0:
256,192,318947,1,0,0:0:0:0:
256,192,319168,1,8,0:0:0:0:
256,192,319609,1,8,0:0:0:0:
256,192,319830,1,0,0:0:0:0:
256,192,320271,1,8,0:0:0:0:
256,192,320418,1,8,0:0:0:0:
256,192,320565,1,8,0:0:0:0:
256,192,320712,1,8,0:0:0:0:
256,192,321153,1,0,0:0:0:0:
256,192,321264,1,0,0:0:0:0:
256,192,321484,1,8,0:0:0:0:
256,192,321815,1,0,0:0:0:0:
256,192,322036,1,8,0:0:0:0:
256,192,322477,1,8,0:0:0:0:
256,192,322697,1,0,0:0:0:0:
256,192,323139,1,8,0:0:0:0:
256,192,323359,1,0,0:0:0:0:
256,192,323800,1,8,0:0:0:0:
256,192,324683,1,0,0:0:0:0:
256,192,324793,1,0,0:0:0:0:
256,192,325014,1,8,0:0:0:0:
256,192,325344,1,0,0:0:0:0:
256,192,325565,1,8,0:0:0:0:
256,192,326006,1,0,0:0:0:0:
256,192,326227,1,8,0:0:0:0:
256,192,326668,1,8,0:0:0:0:
256,192,326889,1,0,0:0:0:0:
256,192,327330,1,8,0:0:0:0:
256,192,327477,1,8,0:0:0:0:
256,192,327624,1,8,0:0:0:0:
256,192,327771,1,8,0:0:0:0:
256,192,328212,1,0,0:0:0:0:
256,192,328322,1,0,0:0:0:0:
256,192,328543,1,8,0:0:0:0:
256,192,328874,1,0,0:0:0:0:
256,192,329094,1,8,0:0:0:0:
256,192,329536,1,8,0:0:0:0:
256,192,329756,1,0,0:0:0:0:
256,192,330197,1,8,0:0:0:0:
256,192,330418,1,0,0:0:0:0:
256,192,330859,1,8,0:0:0:0:
256,192,331742,1,0,0:0:0:0:
256,192,331852,1,0,0:0:0:0:
256,192,332072,1,8,0:0:0:0:
256,192,332403,1,0,0:0:0:0:
256,192,332624,1,8,0:0:0:0:
256,192,333065,1,0,0:0:0:0:
256,192,333286,1,8,0:0:0:0:
256,192,333727,1,8,0:0:0:0:
256,192,333947,1,0,0:0:0:0:
256,192,334389,1,8,0:0:0:0:
256,192,334536,1,8,0:0:0:0:
256,192,334683,1,8,0:0:0:0:
256,192,334830,1,8,0:0:0:0:
256,192,335271,1,0,0:0:0:0:
256,192,335381,1,0,0:0:0:0:
256,192,335602,1,8,0:0:0:0:
256,192,335933,1,0,0:0:0:0:
256,192,336264,1,8,0:0:0:0:
256,192,336484,1,0,0:0:0:0:
256,192,336815,1,8,0:0:0:0:
256,192,337146,1,8,0:0:0:0:
256,192,337256,1,8,0:0:0:0:
256,192,337477,1,0,0:0:0:0:
256,192,337918,1,8,0:0:0:0:
256,192,338800,1,0,0:0:0:0:
256,192,338911,1,0,0:0:0:0:
256,192,339131,1,8,0:0:0:0:
256,192,339462,1,0,0:0:0:0:
256,192,339683,1,8,0:0:0:0:
256,192,340124,1,0,0:0:0:0:
256,192,340344,1,8,0:0:0:0:
256,192,340675,1,8,0:0:0:0:
256,192,340786,1,8,0:0:0:0:
256,192,341006,1,0,0:0:0:0:
256,192,341447,1,8,0:0:0:0:
256,192,341594,1,8,0:0:0:0:
256,192,341742,1,8,0:0:0:0:
256,192,341889,1,8,0:0:0:0:
256,192,342330,1,0,0:0:0:0:
256,192,342440,1,0,0:0:0:0:
256,192,342661,1,8,0:0:0:0:
256,192,342992,1,0,0:0:0:0:
256,192,343212,1,8,0:0:0:0:
256,192,343653,1,8,0:0:0:0:
256,192,343874,1,0,0:0:0:0:
256,192,344205,1,8,0:0:0:0:
256,192,344315,1,8,0:0:0:0:
256,192,344536,1,0,0:0:0:0:
256,192,344977,1,8,0:0:0:0:
256,192,345859,1,0,0:0:0:0:
256,192,345969,1,0,0:0:0:0:
256,192,346190,1,8,0:0:0:0:
256,192,346521,1,0,0:0:0:0:
256,192,346742,1,8,0:0:0:0:
256,192,347183,1,0,0:0:0:0:
256,192,347403,1,8,0:0:0:0:
256,192,347734,1,8,0:0:0:0:
256,192,347844,1,8,0:0:0:0:
256,192,348065,1,0,0:0:0:0:
256,192,348506,1,8,0:0:0:0:
256,192,348653,1,8,0:0:0:0:
256,192,348800,1,8,0:0:0:0:
256,192,348947,1,8,0:0:0:0:
256,192,349389,1,0,0:0:0:0:
256,192,349499,1,0,0:0:0:0:
256,192,349719,1,8,0:0:0:0:
256,192,350050,1,0,0:0:0:0:
256,192,350271,1,8,0:0:0:0:
256,192,350712,1,8,0:0:0:0:
256,192,350933,1,0,0:0:0:0:
256,192,351264,1,8,0:0:0:0:
256,192,351374,1,8,0:0:0:0:
256,192,351594,1,0,0:0:0:0:
256,192,352036,1,8,0:0:0:0:
256,192,352918,1,0,0:0:0:0:
256,192,353249,1,0,0:0:0:0:
256,192,353580,1,0,0:0:0:0:
256,192,353800,1,8,0:0:0:0:
256,192,354242,1,0,0:0:0:0:
256,192,354462,1,8,0:0:0:0:
256,192,354793,1,8,0:0:0:0:
256,192,354903,1,8,0:0:0:0:
256,192,355124,1,0,0:0:0:0:
256,192,355565,1,8,0:0:0:0:
256,192,355712,1,8,0:0:0:0:
256,192,355859,1,8,0:0:0:0:
256,192,356006,1,8,0:0:0:0:
256,192,356447,1,0,0:0:0:0:
256,192,356558,1,0,0:0:0:0:
256,192,356778,1,8,0:0:0:0:
256,192,357109,1,0,0:0:0:0:
256,192,357330,1,8,0:0:0:0:
256,192,357771,1,8,0:0:0:0:
256,192,357992,1,0,0:0:0:0:
256,192,358322,1,8,0:0:0:0:
256,192,358433,1,8,0:0:0:0:
256,192,358653,1,0,0:0:0:0:
256,192,359094,1,8,0:0:0:0:
256,192,359977,1,0,0:0:0:0:
256,192,360087,1,0,0:0:0:0:
256,192,360308,1,8,0:0:0:0:
256,192,360639,1,0,0:0:0:0:
256,192,360859,1,8,0:0:0:0:
256,192,361300,1,0,0:0:0:0:
256,192,361521,1,8,0:0:0:0:
256,192,361852,1,8,0:0:0:0:
256,192,361962,1,8,0:0:0:0:
256,192,362183,1,0,0:0:0:0:
256,192,362624,1,8,0:0:0:0:
256,192,362771,1,8,0:0:0:0:
256,192,362918,1,8,0:0:0:0:
256,192,363065,1,8,0:0:0:0:
256,192,363506,1,0,0:0:0:0:
256,192,363617,1,0,0:0:0:0:
256,192,363837,1,8,0:0:0:0:
256,192,364168,1,0,0:0:0:0:
256,192,364389,1,8,0:0:0:0:
256,192,364830,1,8,0:0:0:0:
256,192,365050,1,0,0:0:0:0:
256,192,365381,1,8,0:0:0:0:
256,192,365492,1,8,0:0:0:0:
256,192,365712,1,0,0:0:0:0:
256,192,366153,1,8,0:0:0:0:
256,192,367036,1,0,0:0:0:0:
256,192,367146,1,0,0:0:0:0:
256,192,367367,1,8,0:0:0:0:
256,192,367697,1,0,0:0:0:0:
256,192,367918,1,8,0:0:0:0:
256,192,368249,1,0,0:0:0:0:
256,192,368359,1,0,0:0:0:0:
256,192,368580,1,8,0:0:0:0:
256,192,368911,1,8,0:0:0:0:
256,192,369021,1,8,0:0:0:0:
256,192,369242,1,0,0:0:0:0:
256,192,369683,1,8,0:0:0:0:
256,192,369830,1,8,0:0:0:0:
256,192,369977,1,8,0:0:0:0:
256,192,370124,1,8,0:0:0:0:
256,192,370565,1,0,0:0:0:0:
256,192,370675,1,0,0:0:0:0:
256,192,370896,1,8,0:0:0:0:
256,192,371227,1,0,0:0:0:0:
256,192,371447,1,8,0:0:0:0:
256,192,371778,1,0,0:0:0:0:
256,192,371889,1,0,0:0:0:0:
256,192,372109,1,8,0:0:0:0:
256,192,372440,1,8,0:0:0:0:
256,192,372550,1,8,0:0:0:0:
256,192,372771,1,0,0:0:0:0:
256,192,373212,1,8,0:0:0:0:
256,192,374094,1,0,0:0:0:0:
256,192,374205,1,0,0:0:0:0:
256,192,374425,1,8,0:0:0:0:
256,192,374756,1,0,0:0:0:0:
256,192,374977,1,8,0:0:0:0:
256,192,375308,1,0,0:0:0:0:
256,192,375418,1,0,0:0:0:0:
256,192,375639,1,8,0:0:0:0:
256,192,375969,1,8,0:0:0:0:
256,192,376080,1,8,0:0:0:0:
256,192,376300,1,0,0:0:0:0:
256,192,376742,1,8,0:0:0:0:
256,192,376889,1,8,0:0:0:0:
256,192,377036,1,8,0:0:0:0:
256,192,377183,1,8,0:0:0:0:
256,192,377624,1,0,0:0:0:0:
256,192,377734,1,0,0:0:0:0:
256,192,377955,1,8,0:0:0:0:
256,192,378286,1,0,0:0:0:0:
256,192,378506,1,8,0:0:0:0:
256,192,378837,1,0,0:0:0:0:
256,192,378947,1,0,0:0:0:0:
256,192,379168,1,8,0:0:0:0:
256,192,379499,1,8,0:0:0:0:
256,192,379609,1,8,0:0:0:0:
256,192,379830,1,0,0:0:0:0:
256,192,380271,1,8,0:0:0:0:
256,192,381153,1,0,0:0:0:0:
256,192,381264,1,0,0:0:0:0:
256,192,381484,1,8,0:0:0:0:
256,192,381815,1,0,0:0:0:0:
256,192,382036,1,8,0:0:0:0:
256,192,382367,1,0,0:0:0:0:
256,192,382477,1,0,0:0:0:0:
256,192,382697,1,8,0:0:0:0:
256,192,383028,1,8,0:0:0:0:
256,192,383139,1,8,0:0:0:0:
256,192,383359,1,0,0:0:0:0:
256,192,383580,1,0,0:0:0:0:
256,192,383800,1,8,0:0:0:0:
256,192,383947,1,8,0:0:0:0:
256,192,384094,1,8,0:0:0:0:
256,192,384242,1,8,0:0:0:0:
256,192,384683,1,0,0:0:0:0:
256,192,384793,1,0,0:0:0:0:
256,192,385014,1,8,0:0:0:0:
256,192,385344,1,0,0:0:0:0:
256,192,385565,1,8,0:0:0:0:
256,192,385896,1,0,0:0:0:0:
256,192,386006,1,0,0:0:0:0:
256,192,386227,1,8,0:0:0:0:
256,192,386558,1,8,0:0:0:0:
256,192,386668,1,8,0:0:0:0:
256,192,386889,1,0,0:0:0:0:
256,192,387109,1,0,0:0:0:0:
256,192,387330,1,8,0:0:0:0:
256,192,388212,1,0,0:0:0:0:
256,192,388322,1,0,0:0:0:0:
256,192,388543,1,8,0:0:0:0:
256,192,388874,1,0,0:0:0:0:
256,192,389094,1,8,0:0:0:0:
256,192,389425,1,0,0:0:0:0:
256,192,389536,1,0,0:0:0:0:
256,192,389756,1,8,0:0:0:0:
256,192,390087,1,8,0:0:0:0:
256,192,390197,1,8,0:0:0:0:
256,192,390418,1,0,0:0:0:0:
256,192,390639,1,0,0:0:0:0:
256,192,390859,1,8,0:0:0:0:
256,192,391006,1,8,0:0:0:0:
256,192,391153,1,8,0:0:0:0:
256,192,391300,1,8,0:0:0:0:
256,192,391742,1,0,0:0:0:0:
256,192,391852,1,0,0:0:0:0:
256,192,392072,1,8,0:0:0:0:
256,192,392403,1,0,0:0:0:0:
256,192,392624,1,8,0:0:0:0:
256,192,392955,1,0,0:0:0:0:
256,192,393065,1,0,0:0:0:0:
256,192,393286,1,8,0:0:0:0:
256,192,393617,1,8,0:0:0:0:
256,192,393727,1,8,0:0:0:0:
256,192,393947,1,0,0:0:0:0:
256,192,394168,1,0,0:0:0:0:
448,320,394389,1,8,0:0:0:0:
256,192,394719,1,0,0:0:0:0:
256,192,394830,1,0,0:0:0:0:
256,192,394940,1,0,0:0:0:0:
256,192,395161,1,8,0:0:0:0:
