osu file format v14

[General]
AudioFilename: audio.mp3
AudioLeadIn: 0
PreviewTime: 42293
Countdown: 0
SampleSet: Normal
StackLeniency: 0.7
Mode: 1
LetterboxInBreaks: 0
WidescreenStoryboard: 0

[Editor]
Bookmarks: 42330,84683,141153,169389,183506,211852,225859,239977,254094,282330,310565
DistanceSpacing: 1
BeatDivisor: 4
GridSize: 32
TimelineZoom: 2.1

[Metadata]
Title:Ganju Gok
TitleUnicode:간주곡
Artist:XXX
ArtistUnicode:XXX
Creator:woosungko
Version:Interlude
Source:
Tags:instrumental 김심야 kim ximya 프랭크 frnk 강이채 bana beasts and natives alike language korean kpop hip hop
BeatmapID:3338795
BeatmapSetID:1635925

[Difficulty]
HPDrainRate:6
CircleSize:2
OverallDifficulty:6
ApproachRate:10
SliderMultiplier:1.4
SliderTickRate:1

[Events]
//Background and Video events
0,0,"ganju gok.PNG",0,0
//Break Periods
2,77624,83792
2,252330,253644
//Storyboard Layer 0 (Background)
//Storyboard Layer 1 (Fail)
//Storyboard Layer 2 (Pass)
//Storyboard Layer 3 (Foreground)
//Storyboard Layer 4 (Overlay)
//Storyboard Sound Samples

[TimingPoints]
14095,441.176470588235,4,1,0,60,1,0
42302,-100,4,1,0,60,0,0
42522,-98.4275925158692,4,1,0,60,0,0
42633,-97.6436503664067,4,1,0,60,0,0
42743,-96.8729306151464,4,1,0,60,0,0
42853,-96.1082943002668,4,1,0,60,0,0
42964,-95.3428245687708,4,1,0,60,0,0
43184,-93.8436468596697,4,1,0,60,0,0
43405,-92.3613882910261,4,1,0,60,0,0
43460,-91.9961532157173,4,1,0,60,0,0
43515,-91.6323624307413,4,1,0,60,0,0
43570,-91.2700102247777,4,1,0,60,0,0
43625,-90.9090909090909,4,1,0,60,0,0
44066,-100,4,1,0,60,0,0
44287,-98.4275925158692,4,1,0,60,0,0
44397,-97.650684961345,4,1,0,60,0,0
44508,-96.8729306151464,4,1,0,60,0,0
44618,-96.1082943002668,4,1,0,60,0,0
44728,-95.349693404057,4,1,0,60,0,0
44949,-93.8436468596697,4,1,0,60,0,0
45169,-92.368042333067,4,1,0,60,0,0
45225,-91.9961532157173,4,1,0,60,0,0
45280,-91.6323624307413,4,1,0,60,0,0
45335,-91.2700102247777,4,1,0,60,0,0
45390,-90.9090909090909,4,1,0,60,0,0
45831,-100,4,1,0,60,0,0
46052,-98.4216854637549,4,1,0,60,0,0
46162,-97.6454089676311,4,1,0,60,0,0
46272,-96.8752551587544,4,1,0,60,0,0
46383,-96.1042572839189,4,1,0,60,0,0
46493,-95.3462589245592,4,1,0,60,0,0
46714,-93.841395060187,4,1,0,60,0,0
46934,-92.3669316174934,4,1,0,60,0,0
46989,-92.0019499496783,4,1,0,60,0,0
47044,-91.6384104821778,4,1,0,60,0,0
47100,-91.269737087109,4,1,0,60,0,0
47155,-90.9090909090909,4,1,0,60,0,0
47596,-100,4,1,0,60,0,0
47816,-98.4275925158692,4,1,0,60,0,0
47927,-97.6436503664067,4,1,0,60,0,0
48037,-96.8729306151464,4,1,0,60,0,0
48147,-96.1082943002668,4,1,0,60,0,0
48258,-95.3428245687708,4,1,0,60,0,0
48478,-93.8436468596697,4,1,0,60,0,0
48699,-92.3613882910261,4,1,0,60,0,0
48754,-91.9961532157173,4,1,0,60,0,0
48809,-91.6323624307413,4,1,0,60,0,0
48864,-91.2700102247777,4,1,0,60,0,0
48919,-90.9090909090909,4,1,0,60,0,0
49361,-100,4,1,0,60,0,0
49581,-98.4275925158692,4,1,0,60,0,0
49691,-97.650684961345,4,1,0,60,0,0
49802,-96.8729306151464,4,1,0,60,0,0
49912,-96.1082943002668,4,1,0,60,0,0
50022,-95.349693404057,4,1,0,60,0,0
50243,-93.8436468596697,4,1,0,60,0,0
50464,-92.3613882910261,4,1,0,60,0,0
50519,-91.9961532157173,4,1,0,60,0,0
50574,-91.6323624307413,4,1,0,60,0,0
50629,-91.2700102247777,4,1,0,60,0,0
50684,-90.9090909090909,4,1,0,60,0,0
51125,-100,4,1,0,60,0,0
51346,-98.4216854637549,4,1,0,60,0,0
51456,-97.6454089676311,4,1,0,60,0,0
51566,-96.8752551587544,4,1,0,60,0,0
51677,-96.1042572839189,4,1,0,60,0,0
51787,-95.3462589245592,4,1,0,60,0,0
52008,-93.841395060187,4,1,0,60,0,0
52228,-92.3669316174934,4,1,0,60,0,0
52283,-92.0019499496783,4,1,0,60,0,0
52339,-91.6318139874499,4,1,0,60,0,0
52394,-91.269737087109,4,1,0,60,0,0
52449,-90.9090909090909,4,1,0,60,0,0
52890,-100,4,1,0,60,0,0
53111,-98.4216854637549,4,1,0,60,0,0
53221,-97.6454089676311,4,1,0,60,0,0
53331,-96.8752551587544,4,1,0,60,0,0
53441,-96.1111757459564,4,1,0,60,0,0
53552,-95.3462589245592,4,1,0,60,0,0
53772,-93.8481506207378,4,1,0,60,0,0
53993,-92.3669316174934,4,1,0,60,0,0
54048,-92.0019499496783,4,1,0,60,0,0
54103,-91.6384104821778,4,1,0,60,0,0
54158,-91.2763075162351,4,1,0,60,0,0
54214,-90.9090909090909,4,1,0,60,0,0
54655,-100,4,1,0,60,0,0
54875,-98.4275925158692,4,1,0,60,0,0
54986,-97.6436503664067,4,1,0,60,0,0
55096,-96.8729306151464,4,1,0,60,0,0
55206,-96.1082943002668,4,1,0,60,0,0
55316,-95.349693404057,4,1,0,60,0,0
55537,-93.8436468596697,4,1,0,60,0,0
55758,-92.3613882910261,4,1,0,60,0,0
55813,-91.9961532157173,4,1,0,60,0,0
55868,-91.6323624307413,4,1,0,60,0,0
55923,-91.2700102247777,4,1,0,60,0,0
55978,-90.9090909090909,4,1,0,60,0,0
56419,-100,4,1,0,60,0,0
56640,-97.0025588599246,4,1,0,60,0,0
56750,-95.5442792204367,4,1,0,60,0,0
56861,-94.0949642537314,4,1,0,60,0,0
56971,-92.6803956880948,4,1,0,60,0,0
57081,-91.2870929175277,4,1,0,60,0,0
57191,-89.9147362445258,4,1,0,60,0,0
57302,-88.5508160388388,4,1,0,60,0,0
57522,-85.908386657789,4,1,0,60,0,0
57578,-85.2484531594414,4,1,0,60,0,0
57633,-84.6052389281234,4,1,0,60,0,0
57688,-83.9668778587344,4,1,0,60,0,0
57743,-83.3333333333333,4,1,0,60,0,0
58184,-100,4,1,0,60,0,0
58405,-97.0025588599246,4,1,0,60,0,0
58515,-95.5442792204367,4,1,0,60,0,0
58625,-94.1079225026937,4,1,0,60,0,0
58736,-92.6803956880948,4,1,0,60,0,0
58846,-91.2870929175277,4,1,0,60,0,0
58956,-89.9147362445258,4,1,0,60,0,0
59066,-88.56301077773,4,1,0,60,0,0
59287,-85.908386657789,4,1,0,60,0,0
59342,-85.2601931147988,4,1,0,60,0,0
59397,-84.6168903034998,4,1,0,60,0,0
59453,-83.9668778587344,4,1,0,60,0,0
59508,-83.3333333333333,4,1,0,60,0,0
59949,-100,4,1,0,60,0,0
60169,-96.781272860278,4,1,0,60,0,0
60280,-95.2346674344947,4,1,0,60,0,0
60390,-93.75,4,1,0,60,0,0
60500,-92.3109126430366,4,1,0,60,0,0
60611,-90.90284457881,4,1,0,60,0,0
60721,-89.549208068228,4,1,0,60,0,0
60831,-88.2352941176471,4,1,0,60,0,0
61052,-85.70873283234,4,1,0,60,0,0
61107,-85.1022771130837,4,1,0,60,0,0
61162,-84.5043433827287,4,1,0,60,0,0
61217,-83.9147532665229,4,1,0,60,0,0
61272,-83.3333333333333,4,1,0,60,0,0
61714,-100,4,1,0,60,0,0
61934,-96.781272860278,4,1,0,60,0,0
62044,-95.2483801295896,4,1,0,60,0,0
62155,-93.75,4,1,0,60,0,0
62265,-92.3109126430366,4,1,0,60,0,0
62375,-90.915338097856,4,1,0,60,0,0
62486,-89.549208068228,4,1,0,60,0,0
62596,-88.2352941176471,4,1,0,60,0,0
62816,-85.7198393157963,4,1,0,60,0,0
62872,-85.1022771130837,4,1,0,60,0,0
62927,-84.5043433827287,4,1,0,60,0,0
62982,-83.9147532665229,4,1,0,60,0,0
63037,-83.3333333333333,4,1,0,60,0,0
63478,-100,4,1,0,60,0,0
63699,-97.0025588599246,4,1,0,60,0,0
63809,-95.5442792204367,4,1,0,60,0,0
63919,-94.1079225026937,4,1,0,60,0,0
64030,-92.6803956880948,4,1,0,60,0,0
64140,-91.2870929175277,4,1,0,60,0,0
64250,-89.9147362445258,4,1,0,60,0,0
64361,-88.5508160388388,4,1,0,60,0,0
64581,-85.908386657789,4,1,0,60,0,0
64636,-85.2601931147988,4,1,0,60,0,0
64691,-84.6168903034998,4,1,0,60,0,0
64747,-83.9668778587344,4,1,0,60,0,0
64802,-83.3333333333333,4,1,0,60,0,0
65243,-100,4,1,0,60,0,0
65464,-97.0025588599246,4,1,0,60,0,0
65574,-95.5442792204367,4,1,0,60,0,0
65684,-94.1079225026937,4,1,0,60,0,0
65794,-92.693159130334,4,1,0,60,0,0
65905,-91.2870929175277,4,1,0,60,0,0
66015,-89.9147362445258,4,1,0,60,0,0
66125,-88.56301077773,4,1,0,60,0,0
66346,-85.908386657789,4,1,0,60,0,0
66401,-85.2601931147988,4,1,0,60,0,0
66456,-84.6168903034998,4,1,0,60,0,0
66511,-83.978441322481,4,1,0,60,0,0
66566,-83.3333333333333,4,1,0,60,0,0
67008,-100,4,1,0,60,0,0
67228,-97.0163849791817,4,1,0,60,0,0
67339,-95.5449718557955,4,1,0,60,0,0
67449,-94.1088314470028,4,1,0,60,0,0
67559,-92.6942777238694,4,1,0,60,0,0
67669,-91.3009862160335,4,1,0,60,0,0
67780,-89.9162565198568,4,1,0,60,0,0
67890,-88.5647215632039,4,1,0,60,0,0
68111,-85.9104619856821,4,1,0,60,0,0
68166,-85.2623554886479,4,1,0,60,0,0
68221,-84.6191382917268,4,1,0,60,0,0
68276,-83.9807735101541,4,1,0,60,0,0
68331,-83.3472245374229,4,1,0,60,0,0
68772,-100,4,1,0,60,0,0
68993,-97.0025588599246,4,1,0,60,0,0
69103,-95.5442792204367,4,1,0,60,0,0
69214,-94.0949642537314,4,1,0,60,0,0
69324,-92.6803956880948,4,1,0,60,0,0
69434,-91.2870929175277,4,1,0,60,0,0
69544,-89.9147362445258,4,1,0,60,0,0
69655,-88.5508160388388,4,1,0,60,0,0
69875,-85.908386657789,4,1,0,60,0,0
69930,-85.2601931147988,4,1,0,60,0,0
69986,-84.6052389281234,4,1,0,60,0,0
70041,-83.9668778587344,4,1,0,60,0,0
70096,-83.3333333333333,4,1,0,60,0,0
70161,-83.3333333333333,4,1,0,40,0,0
70537,-57.1428571428571,4,1,0,40,0,0
71419,-62.2972995736172,4,1,0,40,0,0
72302,-67.9233374400376,4,1,0,40,0,0
73184,-74.0502087594834,4,1,0,40,0,0
74067,-80.7376459573811,4,1,0,40,0,0
74949,-88.0204030488233,4,1,0,40,0,0
75831,-95.9600848031539,4,1,0,40,0,0
76714,-104.626191913133,4,1,0,40,0,0
77596,-114.063761365037,4,1,0,5,0,0
79361,-135.582848675353,4,1,0,5,0,0
81125,-161.145912819998,4,1,0,5,0,0
82890,-191.547443737223,4,1,0,5,0,0
84214,-50,4,1,0,80,0,0
84655,-83.3333333333333,4,1,0,80,0,0
85537,-50,4,1,0,80,0,0
86419,-83.3333333333333,4,1,0,80,0,0
87301,-50,4,1,0,80,0,0
88184,-83.3333333333333,4,1,0,80,0,0
88625,-74.3197834552914,4,1,0,80,0,0
88699,-72.9058454186796,4,1,0,80,0,0
88772,-71.5373743536713,4,1,0,80,0,0
88846,-70.1763718058256,4,1,0,80,0,0
89066,-50.0319130737589,4,1,0,80,0,0
89508,-59.0966779179537,4,1,0,80,0,0
89581,-57.9874102960723,4,1,0,80,0,0
89655,-56.8841965722116,4,1,0,80,0,0
89728,-55.8164580854239,4,1,0,80,0,0
89949,-52.704627669473,4,1,0,80,0,0
90390,-47.0039581858439,4,1,0,80,0,0
90464,-46.1097052526359,4,1,0,80,0,0
90537,-45.2442081571434,4,1,0,80,0,0
90611,-44.3834345666465,4,1,0,80,0,0
90831,-34.7765296271199,4,1,0,80,0,0
91272,-37.3857239184227,4,1,0,80,0,0
91383,-36.3239163416901,4,1,0,80,0,0
91493,-35.3014276946522,4,1,0,80,0,0
91603,-34.3077212698693,4,1,0,80,0,0
91714,-83.3333333333333,4,1,0,80,0,0
92596,-50,4,1,0,80,0,0
93478,-83.3333333333333,4,1,0,80,0,0
94360,-50,4,1,0,80,0,0
95243,-83.3333333333333,4,1,0,80,0,0
95684,-74.317372756715,4,1,0,80,0,0
95758,-72.9030837709253,4,1,0,80,0,0
95831,-71.5342804423569,4,1,0,80,0,0
95905,-70.172954803637,4,1,0,80,0,0
96125,-49.9669675240533,4,1,0,80,0,0
96566,-59.1062677442555,4,1,0,80,0,0
96640,-57.9814521007386,4,1,0,80,0,0
96714,-56.8780421436265,4,1,0,80,0,0
96787,-55.8101195074142,4,1,0,80,0,0
97008,-52.6977858407339,4,1,0,80,0,0
97449,-46.9963319253523,4,1,0,80,0,0
97522,-46.1139448953048,4,1,0,80,0,0
97596,-45.2363782922678,4,1,0,80,0,0
97669,-44.3870355487784,4,1,0,80,0,0
97890,-34.7407137152898,4,1,0,80,0,0
98331,-37.3772332731823,4,1,0,80,0,0
98405,-36.6659297464739,4,1,0,80,0,0
98478,-35.977502809148,4,1,0,80,0,0
98552,-35.2928367065698,4,1,0,80,0,0
98772,-83.3333333333333,4,1,0,80,0,0
99654,-50,4,1,0,80,0,0
100537,-83.3333333333333,4,1,0,80,0,0
101419,-50,4,1,0,80,0,0
102302,-83.3333333333333,4,1,0,80,0,0
102743,-74.317372756715,4,1,0,80,0,0
102816,-72.9030837709253,4,1,0,80,0,0
102890,-71.5342804423569,4,1,0,80,0,0
102964,-70.172954803637,4,1,0,80,0,0
103184,-49.9669675240533,4,1,0,80,0,0
103625,-59.1062677442555,4,1,0,80,0,0
103699,-57.9814521007386,4,1,0,80,0,0
103772,-56.8780421436265,4,1,0,80,0,0
103846,-55.8101195074142,4,1,0,80,0,0
104066,-52.6977858407339,4,1,0,80,0,0
104508,-46.9963319253523,4,1,0,80,0,0
104581,-46.1139448953048,4,1,0,80,0,0
104655,-45.2363782922678,4,1,0,80,0,0
104728,-44.3870355487784,4,1,0,80,0,0
104949,-34.7407137152898,4,1,0,80,0,0
105390,-37.3772332731823,4,1,0,80,0,0
105464,-36.6659297464739,4,1,0,80,0,0
105537,-35.977502809148,4,1,0,80,0,0
105611,-35.2928367065698,4,1,0,80,0,0
105831,-83.3333333333333,4,1,0,80,0,0
106713,-50,4,1,0,80,0,0
107596,-83.3333333333333,4,1,0,80,0,0
108478,-50,4,1,0,80,0,0
109361,-83.3333333333333,4,1,0,80,0,0
109802,-74.317372756715,4,1,0,80,0,0
109875,-72.9030837709253,4,1,0,80,0,0
109949,-71.5342804423569,4,1,0,80,0,0
110022,-70.172954803637,4,1,0,80,0,0
110243,-49.9669675240533,4,1,0,80,0,0
110684,-59.1062677442555,4,1,0,80,0,0
110758,-57.9814521007386,4,1,0,80,0,0
110831,-56.8780421436265,4,1,0,80,0,0
110905,-55.8101195074142,4,1,0,80,0,0
111125,-52.6977858407339,4,1,0,80,0,0
111567,-46.9963319253523,4,1,0,80,0,0
111640,-46.1139448953048,4,1,0,80,0,0
111714,-45.2363782922678,4,1,0,80,0,0
111787,-44.3870355487784,4,1,0,80,0,0
112008,-34.7407137152898,4,1,0,80,0,0
112449,-37.3772332731823,4,1,0,80,0,0
112523,-36.6659297464739,4,1,0,80,0,0
112596,-35.977502809148,4,1,0,80,0,0
112670,-35.2928367065698,4,1,0,80,0,0
112890,-83.3333333333333,4,1,0,80,0,0
113331,-87.6645330875851,4,1,0,80,0,0
113772,-50,4,1,0,80,0,0
114214,-97.0251141956199,4,1,0,80,0,0
114655,-102.067936004744,4,1,0,80,0,0
115096,-107.372855436833,4,1,0,80,0,0
115537,-50,4,1,0,80,0,0
115978,-118.824184647849,4,1,0,80,0,0
116419,-125,4,1,0,80,0,0
116861,-105.933700452122,4,1,0,80,0,0
116934,-103.077349250649,4,1,0,80,0,0
117008,-100.26046742141,4,1,0,80,0,0
117081,-97.5570868601996,4,1,0,80,0,0
117302,-50.1009153837344,4,1,0,80,0,0
117743,-76.1390815731883,4,1,0,80,0,0
117816,-74.0860997911642,4,1,0,80,0,0
117890,-72.0614863351713,4,1,0,80,0,0
117964,-70.0922012020047,4,1,0,80,0,0
118184,-64.5497224367903,4,1,0,80,0,0
118625,-54.7244145920184,4,1,0,80,0,0
118699,-53.2289142691961,4,1,0,80,0,0
118772,-51.7936724851652,4,1,0,80,0,0
118846,-50.3782630285418,4,1,0,80,0,0
119066,-32.9172472435579,4,1,0,80,0,0
119508,-39.3180526571315,4,1,0,80,0,0
119618,-37.7315233996795,4,1,0,80,0,0
119728,-36.2090124471701,4,1,0,80,0,0
119839,-34.7349281754377,4,1,0,80,0,0
119949,-83.3333333333333,4,1,0,80,0,0
120390,-87.6645330875851,4,1,0,80,0,0
120831,-50,4,1,0,80,0,0
121272,-97.0139671175531,4,1,0,80,0,0
121714,-102.067936004744,4,1,0,80,0,0
122155,-107.372855436833,4,1,0,80,0,0
122596,-50,4,1,0,80,0,0
123037,-118.824184647849,4,1,0,80,0,0
123478,-125,4,1,0,80,0,0
123919,-105.973373172919,4,1,0,80,0,0
123993,-103.077349250649,4,1,0,80,0,0
124066,-100.298015486983,4,1,0,80,0,0
124140,-97.5570868601996,4,1,0,80,0,0
124361,-50.0382413413496,4,1,0,80,0,0
124802,-76.1390815731883,4,1,0,80,0,0
124875,-74.0860997911642,4,1,0,80,0,0
124949,-72.0614863351713,4,1,0,80,0,0
125022,-70.1184510952535,4,1,0,80,0,0
125243,-64.5497224367903,4,1,0,80,0,0
125684,-54.7244145920184,4,1,0,80,0,0
125758,-53.2289142691961,4,1,0,80,0,0
125831,-51.7936724851652,4,1,0,80,0,0
125905,-50.3782630285418,4,1,0,80,0,0
126125,-32.8901808881534,4,1,0,80,0,0
126566,-39.3327774719796,4,1,0,80,0,0
126677,-37.7315233996795,4,1,0,80,0,0
126787,-36.2090124471701,4,1,0,80,0,0
126897,-34.7479365863732,4,1,0,80,0,0
127008,-83.3333333333333,4,1,0,80,0,0
127449,-87.6645330875851,4,1,0,80,0,0
127890,-50,4,1,0,80,0,0
128331,-97.0139671175531,4,1,0,80,0,0
128772,-102.056209564016,4,1,0,80,0,0
129214,-107.372855436833,4,1,0,80,0,0
129655,-50,4,1,0,80,0,0
130096,-118.824184647849,4,1,0,80,0,0
130537,-125,4,1,0,80,0,0
130978,-105.973373172919,4,1,0,80,0,0
131052,-103.077349250649,4,1,0,80,0,0
131125,-100.298015486983,4,1,0,80,0,0
131199,-97.5570868601996,4,1,0,80,0,0
131419,-50.0486805844042,4,1,0,80,0,0
131861,-76.1390815731883,4,1,0,80,0,0
131934,-74.0860997911642,4,1,0,80,0,0
132008,-72.0614863351713,4,1,0,80,0,0
132081,-70.1184510952535,4,1,0,80,0,0
132302,-64.5497224367903,4,1,0,80,0,0
132743,-54.7244145920184,4,1,0,80,0,0
132816,-53.2488487739392,4,1,0,80,0,0
132890,-51.7936724851652,4,1,0,80,0,0
132964,-50.3782630285418,4,1,0,80,0,0
133184,-32.8901808881534,4,1,0,80,0,0
133625,-39.3327774719796,4,1,0,80,0,0
133736,-37.7315233996795,4,1,0,80,0,0
133846,-36.2090124471701,4,1,0,80,0,0
133956,-34.7479365863732,4,1,0,80,0,0
134066,-83.3333333333333,4,1,0,80,0,0
134508,-87.6645330875851,4,1,0,80,0,0
134949,-50,4,1,0,80,0,0
135390,-97.0139671175531,4,1,0,80,0,0
135831,-102.056209564016,4,1,0,80,0,0
136272,-107.360519521418,4,1,0,80,0,0
136714,-50,4,1,0,80,0,0
137155,-118.824184647849,4,1,0,80,0,0
137596,-125,4,1,0,80,0,0
138037,-105.968414675843,4,1,0,80,0,0
138111,-103.071716980473,4,1,0,80,0,0
138184,-100.291758273204,4,1,0,80,0,0
138258,-97.5502347169323,4,1,0,80,0,0
138478,-50,4,1,0,80,0,0
138699,-54.5334171363307,4,1,0,80,0,0
138809,-56.9408293260406,4,1,0,80,0,0
138919,-59.4545182494581,4,1,0,80,0,0
139030,-62.1035599545116,4,1,0,80,0,0
139140,-64.8451608867456,4,1,0,80,0,0
139250,-67.7077915260871,4,1,0,80,0,0
139361,-70.7245641581875,4,1,0,80,0,0
139471,-73.8467447734365,4,1,0,80,0,0
139581,-77.1067560266012,4,1,0,80,0,0
139691,-80.510682538365,4,1,0,80,0,0
139802,-84.0978978085585,4,1,0,80,0,0
139912,-87.810452695907,4,1,0,80,0,0
140022,-91.6869006668015,4,1,0,80,0,0
140133,-95.7720809159186,4,1,0,80,0,0
140685,-50,4,1,0,80,0,0
141126,-83.3333333333333,4,1,0,60,0,0
141200,-85.9162558571773,4,1,0,60,0,0
141273,-88.542705536112,4,1,0,60,0,0
141347,-91.2870929175277,4,1,0,60,0,0
141420,-94.0777284438556,4,1,0,60,0,0
141494,-96.9936742493322,4,1,0,60,0,0
141568,-100,4,1,0,60,0,0
141678,-95.5541548904982,4,1,0,60,0,0
141788,-91.3059651683732,4,1,0,60,0,0
141862,-88.5548807652176,4,1,0,60,0,0
141935,-85.9222028751954,4,1,0,60,0,0
142009,-50,4,1,0,60,0,0
142450,-100,4,1,0,60,0,0
142891,-83.3333333333333,4,1,0,60,0,0
142965,-85.9222028751954,4,1,0,60,0,0
143038,-88.5548807652176,4,1,0,60,0,0
143112,-91.3059651683732,4,1,0,60,0,0
143185,-94.1036028881028,4,1,0,60,0,0
143259,-97.0270663036608,4,1,0,60,0,0
143332,-100,4,1,0,60,0,0
143442,-95.5541548904982,4,1,0,60,0,0
143553,-91.2682245674334,4,1,0,60,0,0
143626,-88.5548807652176,4,1,0,60,0,0
143700,-85.8866876099594,4,1,0,60,0,0
143773,-50,4,1,0,60,0,0
144215,-100,4,1,0,60,0,0
144656,-83.3333333333333,4,1,0,60,0,0
144729,-85.8866876099594,4,1,0,60,0,0
144803,-88.5548807652176,4,1,0,60,0,0
144876,-91.2682245674334,4,1,0,60,0,0
144950,-94.1036028881028,4,1,0,60,0,0
145023,-96.986960930666,4,1,0,60,0,0
145097,-100,4,1,0,60,0,0
145207,-95.5541548904982,4,1,0,60,0,0
145317,-91.3059651683732,4,1,0,60,0,0
145391,-88.5548807652176,4,1,0,60,0,0
145465,-85.8866876099594,4,1,0,60,0,0
145538,-50,4,1,0,60,0,0
145979,-100,4,1,0,60,0,0
146420,-83.3333333333333,4,1,0,60,0,0
146494,-85.9162558571773,4,1,0,60,0,0
146567,-88.542705536112,4,1,0,60,0,0
146641,-91.2870929175277,4,1,0,60,0,0
146715,-94.1165427787227,4,1,0,60,0,0
146788,-96.9936742493322,4,1,0,60,0,0
146862,-100,4,1,0,60,0,0
146972,-95.5541548904982,4,1,0,60,0,0
147082,-91.3059651683732,4,1,0,60,0,0
147156,-88.5548807652176,4,1,0,60,0,0
147229,-85.9222028751954,4,1,0,60,0,0
147303,-50,4,1,0,60,0,0
147744,-100,4,1,0,60,0,0
148185,-83.3333333333333,4,1,0,60,0,0
148259,-85.9222028751954,4,1,0,60,0,0
148332,-88.5548807652176,4,1,0,60,0,0
148406,-91.3059651683732,4,1,0,60,0,0
148479,-94.1036028881028,4,1,0,60,0,0
148553,-97.0270663036608,4,1,0,60,0,0
148626,-100,4,1,0,60,0,0
148737,-95.5245756169608,4,1,0,60,0,0
148847,-91.2870929175277,4,1,0,60,0,0
148920,-88.5792362461914,4,1,0,60,0,0
148994,-85.9162558571773,4,1,0,60,0,0
149067,-50,4,1,0,60,0,0
149509,-100,4,1,0,60,0,0
149950,-83.3333333333333,4,1,0,60,0,0
150023,-85.8866876099594,4,1,0,60,0,0
150097,-88.5548807652176,4,1,0,60,0,0
150170,-91.2682245674334,4,1,0,60,0,0
150244,-94.1036028881028,4,1,0,60,0,0
150317,-96.986960930666,4,1,0,60,0,0
150391,-100,4,1,0,60,0,0
150501,-95.5541548904982,4,1,0,60,0,0
150612,-91.2682245674334,4,1,0,60,0,0
150685,-88.5548807652176,4,1,0,60,0,0
150759,-85.8866876099594,4,1,0,60,0,0
150832,-50,4,1,0,60,0,0
151273,-100,4,1,0,60,0,0
151715,-83.3333333333333,4,1,0,60,0,0
151788,-85.8866876099594,4,1,0,60,0,0
151862,-88.5548807652176,4,1,0,60,0,0
151935,-91.2682245674334,4,1,0,60,0,0
152009,-94.1036028881028,4,1,0,60,0,0
152082,-96.986960930666,4,1,0,60,0,0
152156,-100,4,1,0,60,0,0
152266,-95.5541548904982,4,1,0,60,0,0
152376,-91.3059651683732,4,1,0,60,0,0
152450,-88.5548807652176,4,1,0,60,0,0
152523,-85.9222028751954,4,1,0,60,0,0
152597,-50,4,1,0,60,0,0
153038,-100,4,1,0,60,0,0
153479,-83.3333333333333,4,1,0,60,0,0
153553,-85.9222028751954,4,1,0,60,0,0
153626,-88.5548807652176,4,1,0,60,0,0
153700,-91.3059651683732,4,1,0,60,0,0
153773,-94.1036028881028,4,1,0,60,0,0
153847,-97.0270663036608,4,1,0,60,0,0
153920,-100,4,1,0,60,0,0
154031,-95.5245756169608,4,1,0,60,0,0
154141,-91.2870929175277,4,1,0,60,0,0
154215,-88.542705536112,4,1,0,60,0,0
154288,-85.9162558571773,4,1,0,60,0,0
154362,-50,4,1,0,60,0,0
154803,-100,4,1,0,60,0,0
155244,-83.3333333333333,4,1,0,60,0,0
155317,-85.8866876099594,4,1,0,60,0,0
155391,-88.5548807652176,4,1,0,60,0,0
155465,-91.3059651683732,4,1,0,60,0,0
155538,-94.1036028881028,4,1,0,60,0,0
155612,-97.0270663036608,4,1,0,60,0,0
155685,-100,4,1,0,60,0,0
155759,-96.986960930666,4,1,0,60,0,0
155832,-94.1036028881028,4,1,0,60,0,0
155906,-91.2682245674334,4,1,0,60,0,0
155979,-88.5548807652176,4,1,0,60,0,0
156053,-85.8866876099594,4,1,0,60,0,0
156126,-50,4,1,0,60,0,0
156567,-100,4,1,0,60,0,0
157009,-83.3333333333333,4,1,0,60,0,0
157082,-85.8866876099594,4,1,0,60,0,0
157156,-88.5548807652176,4,1,0,60,0,0
157229,-91.2682245674334,4,1,0,60,0,0
157303,-94.1036028881028,4,1,0,60,0,0
157376,-96.986960930666,4,1,0,60,0,0
157450,-100,4,1,0,60,0,0
157523,-97.0270663036608,4,1,0,60,0,0
157597,-94.1036028881028,4,1,0,60,0,0
157670,-91.3059651683732,4,1,0,60,0,0
157744,-88.5548807652176,4,1,0,60,0,0
157817,-85.9222028751954,4,1,0,60,0,0
157891,-50,4,1,0,60,0,0
158332,-100,4,1,0,60,0,0
158773,-83.3333333333333,4,1,0,60,0,0
158847,-85.9162558571773,4,1,0,60,0,0
158920,-88.542705536112,4,1,0,60,0,0
158994,-91.2870929175277,4,1,0,60,0,0
159067,-94.0777284438556,4,1,0,60,0,0
159141,-96.9936742493322,4,1,0,60,0,0
159215,-100,4,1,0,60,0,0
159288,-97.0270663036608,4,1,0,60,0,0
159362,-94.1036028881028,4,1,0,60,0,0
159435,-91.3059651683732,4,1,0,60,0,0
159509,-88.5548807652176,4,1,0,60,0,0
159582,-85.9222028751954,4,1,0,60,0,0
159656,-50,4,1,0,60,0,0
160097,-100,4,1,0,60,0,0
160538,-83.3333333333333,4,1,0,60,0,0
160612,-85.9222028751954,4,1,0,60,0,0
160685,-88.5548807652176,4,1,0,60,0,0
160759,-91.3059651683732,4,1,0,60,0,0
160832,-94.1036028881028,4,1,0,60,0,0
160906,-97.0270663036608,4,1,0,60,0,0
160979,-100,4,1,0,60,0,0
161053,-96.986960930666,4,1,0,60,0,0
161126,-94.1036028881028,4,1,0,60,0,0
161200,-91.2682245674334,4,1,0,60,0,0
161273,-88.5548807652176,4,1,0,60,0,0
161347,-85.8866876099594,4,1,0,60,0,0
161420,-50,4,1,0,60,0,0
161861,-100,4,1,0,60,0,0
162303,-83.3333333333333,4,1,0,60,0,0
162376,-85.8866876099594,4,1,0,60,0,0
162450,-88.5548807652176,4,1,0,60,0,0
162523,-91.2682245674334,4,1,0,60,0,0
162597,-94.1036028881028,4,1,0,60,0,0
162670,-96.986960930666,4,1,0,60,0,0
162744,-100,4,1,0,60,0,0
162817,-97.0270663036608,4,1,0,60,0,0
162891,-94.1036028881028,4,1,0,60,0,0
162965,-91.2682245674334,4,1,0,60,0,0
163038,-88.5548807652176,4,1,0,60,0,0
163112,-85.8866876099594,4,1,0,60,0,0
163185,-50,4,1,0,60,0,0
163626,-100,4,1,0,60,0,0
164067,-83.3333333333333,4,1,0,60,0,0
164141,-85.9162558571773,4,1,0,60,0,0
164215,-88.5792362461914,4,1,0,60,0,0
164288,-91.2870929175277,4,1,0,60,0,0
164362,-94.1165427787227,4,1,0,60,0,0
164435,-96.9936742493322,4,1,0,60,0,0
164509,-100,4,1,0,60,0,0
164582,-97.0270663036608,4,1,0,60,0,0
164656,-94.1036028881028,4,1,0,60,0,0
164729,-91.3059651683732,4,1,0,60,0,0
164803,-88.5548807652176,4,1,0,60,0,0
164876,-85.9222028751954,4,1,0,60,0,0
164950,-50,4,1,0,60,0,0
165391,-100,4,1,0,60,0,0
165832,-83.3333333333333,4,1,0,60,0,0
165906,-85.9222028751954,4,1,0,60,0,0
165979,-88.5548807652176,4,1,0,60,0,0
166053,-91.3059651683732,4,1,0,60,0,0
166126,-94.1036028881028,4,1,0,60,0,0
166200,-97.0270663036608,4,1,0,60,0,0
166273,-100,4,1,0,60,0,0
166347,-96.9936742493322,4,1,0,60,0,0
166420,-94.1165427787227,4,1,0,60,0,0
166494,-91.2870929175277,4,1,0,60,0,0
166567,-88.5792362461914,4,1,0,60,0,0
166641,-85.9162558571773,4,1,0,60,0,0
166715,-50,4,1,0,60,0,0
167156,-100,4,1,0,60,0,0
167597,-83.3333333333333,4,1,0,60,0,0
167670,-85.8866876099594,4,1,0,60,0,0
167744,-88.5548807652176,4,1,0,60,0,0
167817,-91.2682245674334,4,1,0,60,0,0
167891,-94.1036028881028,4,1,0,60,0,0
167965,-97.0270663036608,4,1,0,60,0,0
168038,-100,4,1,0,60,0,0
168112,-96.986960930666,4,1,0,60,0,0
168185,-94.1036028881028,4,1,0,60,0,0
168259,-91.2682245674334,4,1,0,60,0,0
168332,-88.5548807652176,4,1,0,60,0,0
168406,-85.8866876099594,4,1,0,60,0,0
168479,-50,4,1,0,60,0,0
168920,-100,4,1,0,60,0,0
169362,-66.6666666666667,4,1,0,60,0,0
170023,-71.1378901620772,4,1,0,60,0,0
170244,-72.6987306024472,4,1,0,60,0,0
170685,-75.9164464344383,4,1,0,60,0,0
171126,-79.2765814681079,4,1,0,60,0,0
171347,-81.0159933911745,4,1,0,60,0,0
172009,-86.4580929881533,4,1,0,60,0,0
172450,-90.2848114508602,4,1,0,60,0,0
172891,-94.2809041582063,4,1,0,60,0,0
173553,-100.614049615608,4,1,0,60,0,0
173773,-102.811530785289,4,1,0,60,0,0
174215,-107.372612412212,4,1,0,60,0,0
174656,-112.125027647222,4,1,0,60,0,0
174876,-114.573916622928,4,1,0,60,0,0
175538,-122.270207680761,4,1,0,60,0,0
175979,-127.682004830104,4,1,0,60,0,0
176310,-131.900711579437,4,1,0,60,0,0
176420,-133.333333333333,4,1,0,60,0,0
176862,-83.1070173351939,4,1,0,60,0,0
177303,-122.259702345795,4,1,0,60,0,0
177744,-78.4850398009649,4,1,0,60,0,0
178185,-112.116769718462,4,1,0,60,0,0
178626,-73.9973867389944,4,1,0,60,0,0
179067,-102.81531699259,4,1,0,60,0,0
179509,-69.6495124500827,4,1,0,60,0,0
179950,-94.2762753907693,4,1,0,60,0,0
180391,-65.4598661281439,4,1,0,60,0,0
180832,-86.4549091409164,4,1,0,60,0,0
181273,-61.4303314458449,4,1,0,60,0,0
181715,-79.2746359342587,4,1,0,60,0,0
182156,-57.5618456853164,4,1,0,60,0,0
183038,-53.8667907472704,4,1,0,60,0,0
183479,-66.6666666666667,4,1,0,60,0,0
183590,-67.5220918211407,4,1,0,60,0,0
183700,-68.3806384269938,4,1,0,60,0,0
183810,-69.2501014937347,4,1,0,60,0,0
183920,-70.1306198246821,4,1,0,60,0,0
184031,-71.0304922691354,4,1,0,60,0,0
184141,-71.9336483533883,4,1,0,60,0,0
184251,-72.8482881101664,4,1,0,60,0,0
184362,-73.7830319818135,4,1,0,60,0,0
184472,-74.7211867393014,4,1,0,60,0,0
184582,-75.6712701791077,4,1,0,60,0,0
184692,-76.6334339749949,4,1,0,60,0,0
184803,-77.6167464814339,4,1,0,60,0,0
184913,-78.6036471009454,4,1,0,60,0,0
185023,-79.6030962087272,4,1,0,60,0,0
185134,-80.6245135717915,4,1,0,60,0,0
185244,-81.6496580927726,4,1,0,60,0,0
185354,-82.6878373750482,4,1,0,60,0,0
185465,-83.7488362159433,4,1,0,60,0,0
185575,-84.8137066477986,4,1,0,60,0,0
185685,-85.8921169577928,4,1,0,60,0,0
185795,-86.9842393061197,4,1,0,60,0,0
185906,-88.1003669012983,4,1,0,60,0,0
186016,-89.2205672525832,4,1,0,60,0,0
186126,-90.3550110045615,4,1,0,60,0,0
186237,-91.5143902432526,4,1,0,60,0,0
186347,-92.6780000635495,4,1,0,60,0,0
186457,-93.8564052380009,4,1,0,60,0,0
186567,-77.0712909441233,4,1,0,60,0,0
186678,-78.2168576565502,4,1,0,60,0,0
186788,-79.371236467301,4,1,0,60,0,0
186898,-80.5450512684268,4,1,0,60,0,0
187008,-66.6666666666667,4,1,0,60,0,0
187119,-67.5220918211407,4,1,0,60,0,0
187229,-68.3806384269938,4,1,0,60,0,0
187339,-69.2501014937347,4,1,0,60,0,0
187449,-70.1306198246821,4,1,0,60,0,0
187560,-71.0304922691354,4,1,0,60,0,0
187670,-71.9336483533883,4,1,0,60,0,0
187780,-72.8482881101664,4,1,0,60,0,0
187891,-73.7830319818135,4,1,0,60,0,0
188001,-74.7211867393014,4,1,0,60,0,0
188111,-75.6712701791077,4,1,0,60,0,0
188221,-76.6334339749949,4,1,0,60,0,0
188332,-77.6167464814339,4,1,0,60,0,0
188442,-78.6036471009454,4,1,0,60,0,0
188552,-79.6030962087272,4,1,0,60,0,0
188663,-80.6245135717915,4,1,0,60,0,0
188773,-81.6496580927726,4,1,0,60,0,0
188883,-82.6878373750482,4,1,0,60,0,0
188994,-83.7488362159433,4,1,0,60,0,0
189104,-84.8137066477986,4,1,0,60,0,0
189214,-85.8921169577928,4,1,0,60,0,0
189324,-86.9842393061197,4,1,0,60,0,0
189435,-88.1003669012983,4,1,0,60,0,0
189545,-89.2205672525832,4,1,0,60,0,0
189655,-71.301247771836,4,1,0,60,0,0
189766,-72.2806168048037,4,1,0,60,0,0
189876,-73.265319517049,4,1,0,60,0,0
189986,-74.2643445567042,4,1,0,60,0,0
190096,-75.2779251884496,4,1,0,60,0,0
190207,-76.3157166152093,4,1,0,60,0,0
190317,-77.359264101633,4,1,0,60,0,0
190427,-78.4180966021312,4,1,0,60,0,0
190538,-66.6666666666667,4,1,0,60,0,0
190649,-67.5220918211407,4,1,0,60,0,0
190759,-68.3806384269938,4,1,0,60,0,0
190869,-69.2501014937347,4,1,0,60,0,0
190979,-70.1306198246821,4,1,0,60,0,0
191090,-71.0304922691354,4,1,0,60,0,0
191200,-71.9336483533883,4,1,0,60,0,0
191310,-72.8482881101664,4,1,0,60,0,0
191421,-73.7830319818135,4,1,0,60,0,0
191531,-74.7211867393014,4,1,0,60,0,0
191641,-75.6712701791077,4,1,0,60,0,0
191751,-76.6334339749949,4,1,0,60,0,0
191862,-77.6167464814339,4,1,0,60,0,0
191972,-78.6036471009454,4,1,0,60,0,0
192082,-79.6030962087272,4,1,0,60,0,0
192193,-80.6245135717915,4,1,0,60,0,0
192303,-81.6496580927726,4,1,0,60,0,0
192413,-82.6878373750482,4,1,0,60,0,0
192524,-83.7488362159433,4,1,0,60,0,0
192634,-84.8137066477986,4,1,0,60,0,0
192744,-85.8921169577928,4,1,0,60,0,0
192854,-86.9842393061197,4,1,0,60,0,0
192965,-88.1003669012983,4,1,0,60,0,0
193075,-89.2205672525832,4,1,0,60,0,0
193185,-90.3550110045615,4,1,0,60,0,0
193296,-91.5143902432526,4,1,0,60,0,0
193406,-92.6780000635495,4,1,0,60,0,0
193516,-93.8564052380009,4,1,0,60,0,0
193626,-77.0712909441233,4,1,0,60,0,0
193737,-78.2168576565502,4,1,0,60,0,0
193847,-79.371236467301,4,1,0,60,0,0
193957,-80.5450512684268,4,1,0,60,0,0
194067,-66.6666666666667,4,1,0,60,0,0
194178,-67.5220918211407,4,1,0,60,0,0
194288,-68.3806384269938,4,1,0,60,0,0
194398,-69.2501014937347,4,1,0,60,0,0
194508,-70.1306198246821,4,1,0,60,0,0
194619,-71.0304922691354,4,1,0,60,0,0
194729,-71.9336483533883,4,1,0,60,0,0
194839,-72.8482881101664,4,1,0,60,0,0
194950,-73.7830319818135,4,1,0,60,0,0
195060,-74.7211867393014,4,1,0,60,0,0
195170,-75.6712701791077,4,1,0,60,0,0
195280,-76.6334339749949,4,1,0,60,0,0
195391,-77.6167464814339,4,1,0,60,0,0
195501,-78.6036471009454,4,1,0,60,0,0
195611,-79.6030962087272,4,1,0,60,0,0
195722,-80.6245135717915,4,1,0,60,0,0
195832,-71.5563506261181,4,1,0,60,0,0
195943,-72.5427886803315,4,1,0,60,0,0
196053,-73.5346966694026,4,1,0,60,0,0
196163,-74.5411319721254,4,1,0,60,0,0
196273,-75.56233397465,4,1,0,60,0,0
196384,-76.6080364753142,4,1,0,60,0,0
196494,-77.6596487655778,4,1,0,60,0,0
196604,-78.7267768015512,4,1,0,60,0,0
196715,-79.8195971698402,4,1,0,60,0,0
196825,-80.91868545072,4,1,0,60,0,0
196935,-82.0340841048568,4,1,0,60,0,0
197045,-83.1660678812294,4,1,0,60,0,0
197156,-84.3254393886743,4,1,0,60,0,0
197266,-85.4915972225797,4,1,0,60,0,0
197376,-86.6752009258975,4,1,0,60,0,0
197487,-87.8875519771436,4,1,0,60,0,0
197596,-58.9101620029455,4,1,0,60,0,0
197707,-59.5771178657718,4,1,0,60,0,0
197817,-60.2445111165474,4,1,0,60,0,0
197927,-60.9183611729664,4,1,0,60,0,0
198037,-61.5987076215344,4,1,0,60,0,0
198148,-62.2918642496554,4,1,0,60,0,0
198258,-62.9853810552317,4,1,0,60,0,0
198368,-63.6855116241662,4,1,0,60,0,0
198479,-64.3987502582712,4,1,0,60,0,0
198589,-65.1122841342163,4,1,0,60,0,0
198699,-65.8325462075707,4,1,0,60,0,0
198809,-66.5595737862664,4,1,0,60,0,0
198920,-67.3001062878037,4,1,0,60,0,0
199030,-68.0408375794833,4,1,0,60,0,0
199140,-68.7884442465489,4,1,0,60,0,0
199251,-69.5498530122842,4,1,0,60,0,0
199361,-70.3113802774029,4,1,0,60,0,0
199471,-71.0798888522043,4,1,0,60,0,0
199582,-71.8624954945846,4,1,0,60,0,0
199692,-72.6451331914209,4,1,0,60,0,0
199802,-73.4348537412988,4,1,0,60,0,0
199912,-74.2316898371564,4,1,0,60,0,0
200023,-75.043015443281,4,1,0,60,0,0
200133,-75.8542438836487,4,1,0,60,0,0
200243,-76.6726828303182,4,1,0,60,0,0
200354,-77.5059021301985,4,1,0,60,0,0
200464,-78.3389187818586,4,1,0,60,0,0
200574,-79.1792353914199,4,1,0,60,0,0
200684,-66.8896321070234,4,1,0,60,0,0
200795,-67.7508256948168,4,1,0,60,0,0
200905,-68.6152361095433,4,1,0,60,0,0
201015,-69.4907134416701,4,1,0,60,0,0
201125,-58.9101620029455,4,1,0,60,0,0
201236,-59.5771178657718,4,1,0,60,0,0
201346,-60.2445111165474,4,1,0,60,0,0
201456,-60.9183611729664,4,1,0,60,0,0
201566,-61.5987076215344,4,1,0,60,0,0
201677,-62.2918642496554,4,1,0,60,0,0
201787,-62.9853810552317,4,1,0,60,0,0
201897,-63.6855116241662,4,1,0,60,0,0
202008,-64.3987502582712,4,1,0,60,0,0
202118,-65.1122841342163,4,1,0,60,0,0
202228,-65.8325462075707,4,1,0,60,0,0
202338,-66.5595737862664,4,1,0,60,0,0
202449,-67.3001062878037,4,1,0,60,0,0
202559,-68.0408375794833,4,1,0,60,0,0
202669,-68.7884442465489,4,1,0,60,0,0
202780,-69.5498530122842,4,1,0,60,0,0
202890,-70.3113802774029,4,1,0,60,0,0
203000,-71.0798888522043,4,1,0,60,0,0
203111,-71.8624954945846,4,1,0,60,0,0
203221,-72.6451331914209,4,1,0,60,0,0
203331,-73.4348537412988,4,1,0,60,0,0
203441,-74.2316898371564,4,1,0,60,0,0
203552,-75.043015443281,4,1,0,60,0,0
203662,-75.8542438836487,4,1,0,60,0,0
203772,-62.5,4,1,0,60,0,0
203883,-63.2512360525966,4,1,0,60,0,0
203993,-64.0040037862091,4,1,0,60,0,0
204103,-64.7651109847853,4,1,0,60,0,0
204213,-65.5346352356234,4,1,0,60,0,0
204324,-66.3197666003392,4,1,0,60,0,0
204434,-67.1064374776243,4,1,0,60,0,0
204544,-67.9017610574646,4,1,0,60,0,0
204655,-58.9101620029455,4,1,0,60,0,0
204766,-59.5771178657718,4,1,0,60,0,0
204876,-60.2445111165474,4,1,0,60,0,0
204986,-60.9183611729664,4,1,0,60,0,0
205096,-61.5987076215344,4,1,0,60,0,0
205207,-62.2918642496554,4,1,0,60,0,0
205317,-62.9853810552317,4,1,0,60,0,0
205427,-63.6855116241662,4,1,0,60,0,0
205538,-64.3987502582712,4,1,0,60,0,0
205648,-65.1122841342163,4,1,0,60,0,0
205758,-65.8325462075707,4,1,0,60,0,0
205868,-66.5595737862664,4,1,0,60,0,0
205979,-67.3001062878037,4,1,0,60,0,0
206089,-68.0408375794833,4,1,0,60,0,0
206199,-68.7884442465489,4,1,0,60,0,0
206310,-69.5498530122842,4,1,0,60,0,0
206420,-70.3113802774029,4,1,0,60,0,0
206530,-71.0798888522043,4,1,0,60,0,0
206641,-71.8624954945846,4,1,0,60,0,0
206751,-72.6451331914209,4,1,0,60,0,0
206861,-73.4348537412988,4,1,0,60,0,0
206971,-74.2316898371564,4,1,0,60,0,0
207082,-75.043015443281,4,1,0,60,0,0
207192,-75.8542438836487,4,1,0,60,0,0
207302,-76.6726828303182,4,1,0,60,0,0
207413,-77.5059021301985,4,1,0,60,0,0
207523,-78.3389187818586,4,1,0,60,0,0
207633,-79.1792353914199,4,1,0,60,0,0
207743,-66.8896321070234,4,1,0,60,0,0
207854,-67.7508256948168,4,1,0,60,0,0
207964,-68.6152361095433,4,1,0,60,0,0
208074,-69.4907134416701,4,1,0,60,0,0
208184,-58.9101620029455,4,1,0,60,0,0
208295,-59.5771178657718,4,1,0,60,0,0
208405,-60.2445111165474,4,1,0,60,0,0
208515,-60.9183611729664,4,1,0,60,0,0
208625,-61.5987076215344,4,1,0,60,0,0
208736,-62.2918642496554,4,1,0,60,0,0
208846,-62.9853810552317,4,1,0,60,0,0
208956,-63.6855116241662,4,1,0,60,0,0
209067,-64.3987502582712,4,1,0,60,0,0
209177,-65.1122841342163,4,1,0,60,0,0
209287,-65.8325462075707,4,1,0,60,0,0
209397,-66.5595737862664,4,1,0,60,0,0
209508,-67.3001062878037,4,1,0,60,0,0
209618,-68.0408375794833,4,1,0,60,0,0
209728,-68.7884442465489,4,1,0,60,0,0
209839,-69.5498530122842,4,1,0,60,0,0
209949,-62.6959247648903,4,1,0,60,0,0
210060,-63.4519066288049,4,1,0,60,0,0
210170,-64.2094869986578,4,1,0,60,0,0
210280,-64.9755183175418,4,1,0,60,0,0
210390,-65.7500806131081,4,1,0,60,0,0
210501,-66.5404138360942,4,1,0,60,0,0
210611,-67.3323592153194,4,1,0,60,0,0
210721,-68.1330788595059,4,1,0,60,0,0
210832,-68.950055069397,4,1,0,60,0,0
210942,-69.7686502150939,4,1,0,60,0,0
211052,-70.5962664822256,4,1,0,60,0,0
211162,-71.4329866613902,4,1,0,60,0,0
211273,-72.2866263663896,4,1,0,60,0,0
211383,-73.1418888429807,4,1,0,60,0,0
211493,-74.0065065042631,4,1,0,60,0,0
211604,-74.8885530668379,4,1,0,60,0,0
211714,-75.8150113722517,4,1,0,60,0,0
211742,-75.8150113722517,4,1,0,60,0,0
211743,-58.8235294117647,4,1,0,60,0,0
212375,-86.8203189742606,4,1,0,60,0,0
212596,-88.0184142584888,4,1,0,60,0,0
213037,-90.458823090589,4,1,0,60,0,0
213478,-92.9668949829473,4,1,0,60,0,0
213699,-94.2498112378556,4,1,0,60,0,0
214361,-98.1996737839006,4,1,0,60,0,0
214802,-100.918357049147,4,1,0,60,0,0
215243,-103.720280882816,4,1,0,60,0,0
215272,-58.8235294117647,4,1,0,60,0,0
215905,-108.073057386793,4,1,0,60,0,0
216125,-109.551825120331,4,1,0,60,0,0
216566,-112.589271816555,4,1,0,60,0,0
217008,-115.718111175174,4,1,0,60,0,0
217228,-117.307712543321,4,1,0,60,0,0
217890,-122.223895759516,4,1,0,60,0,0
218331,-125.612360256249,4,1,0,60,0,0
218772,-129.092690891956,4,1,0,60,0,0
218801,-58.8235294117647,4,1,0,60,0,0
219434,-134.498991257566,4,1,0,60,0,0
219655,-136.361769219495,4,1,0,60,0,0
220096,-140.142551556549,4,1,0,60,0,0
220537,-144.028160306183,4,1,0,60,0,0
220758,-146.015707250235,4,1,0,60,0,0
221419,-152.125563344612,4,1,0,60,0,0
221861,-156.347717323327,4,1,0,60,0,0
222302,-160.683962451678,4,1,0,60,0,0
222331,-58.8235294117647,4,1,0,60,0,0
222964,-167.420056922819,4,1,0,60,0,0
223184,-169.72222029315,4,1,0,60,0,0
223625,-174.427958392347,4,1,0,60,0,0
224066,-179.264168335596,4,1,0,60,0,0
224287,-181.737961996474,4,1,0,60,0,0
224949,-189.354316447019,4,1,0,60,0,0
225390,-194.60437633672,4,1,0,60,0,0
225804,-194.60437633672,4,1,0,40,0,0
225832,-200,4,1,0,40,0,0
225859,-200,4,1,0,40,0,1
226742,-200,4,1,0,40,0,0
227183,-200,4,1,0,40,0,1
228175,-200,4,1,0,40,0,0
228947,-200,4,1,0,40,0,1
230271,-200,4,1,0,40,0,0
230712,-200,4,1,0,40,0,1
231705,-200,4,1,0,40,0,0
232918,-200,4,1,0,40,0,1
233800,-200,4,1,0,40,0,0
234242,-200,4,1,0,40,0,1
235234,-200,4,1,0,40,0,0
236006,-200,4,1,0,40,0,1
237330,-200,4,1,0,40,0,0
237771,-200,4,1,0,40,0,1
238764,-200,4,1,0,40,0,0
239508,-200,4,1,0,60,0,0
239536,-200,4,1,0,60,0,1
239618,-191.108309780996,4,1,0,60,0,1
239728,-182.611930336746,4,1,0,60,0,1
239839,-174.421161337946,4,1,0,60,0,1
239949,-166.666666666667,4,1,0,60,0,1
240804,-166.666666666667,4,1,0,80,0,1
240832,-40,4,1,0,80,0,1
240859,-40,4,1,0,80,0,0
240887,-250,4,1,0,60,0,0
241300,-250,4,1,0,60,0,1
242293,-250,4,1,0,60,0,0
242569,-250,4,1,0,80,0,0
242596,-40,4,1,0,80,0,0
242651,-250,4,1,0,60,0,0
243065,-250,4,1,0,60,0,1
244333,-250,4,1,0,80,0,1
244361,-40,4,1,0,80,0,1
244389,-40,4,1,0,80,0,0
244416,-250,4,1,0,60,0,0
244830,-250,4,1,0,60,0,1
245822,-250,4,1,0,60,0,0
246098,-250,4,1,0,80,0,0
246126,-40,4,1,0,80,0,0
246181,-250,4,1,0,60,0,0
247036,-250,4,1,0,60,0,1
247863,-250,4,1,0,80,0,1
247890,-40,4,1,0,80,0,1
247918,-40,4,1,0,80,0,0
247946,-250,4,1,0,60,0,0
248359,-250,4,1,0,60,0,1
249352,-250,4,1,0,60,0,0
249628,-250,4,1,0,80,0,0
249655,-40,4,1,0,80,0,0
249710,-250,4,1,0,60,0,0
250124,-250,4,1,0,60,0,1
251392,-250,4,1,0,80,0,1
251420,-40,4,1,0,80,0,1
251447,-40,4,1,0,80,0,0
251475,-250,4,1,0,60,0,0
251889,-250,4,1,0,60,0,1
252302,-250,4,1,0,5,0,1
252330,-250,4,1,0,5,0,0
254039,-250,4,1,0,40,0,0
254067,-133.333333333333,4,1,0,40,0,0
255859,-138.852792866956,4,1,0,40,0,0
255896,-133.333333333333,4,1,0,40,0,0
257624,-144.600735652154,4,1,0,40,0,0
257661,-133.333333333333,4,1,0,40,0,0
259389,-150.586619969385,4,1,0,40,0,0
259425,-133.333333333333,4,1,0,40,0,0
261153,-156.816691734079,4,1,0,40,0,0
261190,-133.333333333333,4,1,0,40,0,0
262918,-163.30826711575,4,1,0,40,0,0
262955,-133.333333333333,4,1,0,40,0,0
264683,-170.068567404636,4,1,0,40,0,0
264719,-133.333333333333,4,1,0,40,0,0
266447,-177.104646573323,4,1,0,40,0,0
266484,-133.333333333333,4,1,0,40,0,0
268212,-184.436061048158,4,1,0,40,0,0
268249,-133.333333333333,4,1,0,40,0,0
269977,-192.070966364379,4,1,0,40,0,0
270014,-133.333333333333,4,1,0,40,0,0
271742,-200.021925812619,4,1,0,40,0,0
271778,-133.333333333333,4,1,0,40,0,0
273506,-208.297235747713,4,1,0,40,0,0
273543,-133.333333333333,4,1,0,40,0,0
275271,-216.919896975275,4,1,0,40,0,0
275308,-133.333333333333,4,1,0,40,0,0
277036,-225.899501425721,4,1,0,40,0,0
277072,-133.333333333333,4,1,0,40,0,0
278800,-235.245418783961,4,1,0,40,0,0
278837,-133.333333333333,4,1,0,40,0,0
280565,-244.983625554823,4,1,0,40,0,0
280602,-133.333333333333,4,1,0,40,0,0
282275,-133.333333333333,4,1,0,60,0,0
282302,-83.3333333333333,4,1,0,60,0,0
282412,-83.8082664322884,4,1,0,60,0,0
282633,-84.7706477293917,4,1,0,60,0,0
282743,-85.2537723665103,4,1,0,60,0,0
282964,-86.2327525975275,4,1,0,60,0,0
283294,-87.715543682635,4,1,0,60,0,0
283515,-88.722792756014,4,1,0,60,0,0
283625,-89.2284414469527,4,1,0,60,0,0
283846,-90.2530633234547,4,1,0,60,0,0
284066,-91.284734828844,4,1,0,60,0,0
284177,-91.8097276498927,4,1,0,60,0,0
284287,-92.3329693914965,4,1,0,60,0,0
284397,-92.8591931909624,4,1,0,60,0,0
284508,-93.3932409688854,4,1,0,60,0,0
284728,-94.4608074531192,4,1,0,60,0,0
284949,-50,4,1,0,60,0,0
285096,-53.5714285714286,4,1,0,60,0,0
285243,-57.6923076923077,4,1,0,60,0,0
285390,-62.5,4,1,0,60,0,0
285537,-68.1818181818182,4,1,0,60,0,0
285684,-75,4,1,0,60,0,0
285831,-83.3333333333333,4,1,0,60,0,0
285941,-83.8081315077783,4,1,0,60,0,0
286162,-84.7702370677867,4,1,0,60,0,0
286272,-85.2532221134714,4,1,0,60,0,0
286493,-86.2319171103452,4,1,0,60,0,0
286824,-87.7188006750443,4,1,0,60,0,0
287044,-88.7212176717002,4,1,0,60,0,0
287155,-89.2313223423052,4,1,0,60,0,0
287375,-90.2510238596728,4,1,0,60,0,0
287596,-91.2870929175277,4,1,0,60,0,0
287706,-91.8072082583393,4,1,0,60,0,0
287816,-92.3302869969227,4,1,0,60,0,0
287927,-92.8611420941748,4,1,0,60,0,0
288037,-93.390225703093,4,1,0,60,0,0
288258,-94.4623323565035,4,1,0,60,0,0
288478,-95.5418118611162,4,1,0,60,0,0
288809,-97.1892244962323,4,1,0,60,0,0
288919,-97.7429676926308,4,1,0,60,0,0
289030,-98.3049431213642,4,1,0,60,0,0
289250,-99.4283345161599,4,1,0,60,0,0
289361,-83.3333333333333,4,1,0,60,0,0
289471,-83.8082664322884,4,1,0,60,0,0
289691,-84.766268268574,4,1,0,60,0,0
289802,-85.2537723665103,4,1,0,60,0,0
290022,-86.2282976007648,4,1,0,60,0,0
290353,-87.715543682635,4,1,0,60,0,0
290574,-88.722792756014,4,1,0,60,0,0
290684,-89.2284414469527,4,1,0,60,0,0
290905,-90.2530633234547,4,1,0,60,0,0
291125,-91.284734828844,4,1,0,60,0,0
291236,-91.8097276498927,4,1,0,60,0,0
291346,-92.3329693914965,4,1,0,60,0,0
291456,-92.8591931909624,4,1,0,60,0,0
291566,-93.3884160436262,4,1,0,60,0,0
291787,-94.4608074531192,4,1,0,60,0,0
292008,-50,4,1,0,60,0,0
292155,-53.5714285714286,4,1,0,60,0,0
292302,-57.6923076923077,4,1,0,60,0,0
292449,-62.5,4,1,0,60,0,0
292596,-68.1818181818182,4,1,0,60,0,0
292743,-75,4,1,0,60,0,0
292890,-83.3333333333333,4,1,0,60,0,0
293000,-83.8082664322884,4,1,0,60,0,0
293221,-84.7706477293917,4,1,0,60,0,0
293331,-85.2537723665103,4,1,0,60,0,0
293552,-86.2327525975275,4,1,0,60,0,0
293883,-87.7200755181695,4,1,0,60,0,0
294103,-88.722792756014,4,1,0,60,0,0
294214,-89.2330514465567,4,1,0,60,0,0
294434,-90.2530633234547,4,1,0,60,0,0
294655,-91.2894510671261,4,1,0,60,0,0
294765,-91.8097276498927,4,1,0,60,0,0
294875,-92.3329693914965,4,1,0,60,0,0
294986,-92.8639907738507,4,1,0,60,0,0
295096,-93.3932409688854,4,1,0,60,0,0
295316,-94.4608074531192,4,1,0,60,0,0
295537,-95.545513273584,4,1,0,60,0,0
295868,-97.1934605740669,4,1,0,60,0,0
295978,-97.7473852712102,4,1,0,60,0,0
296089,-98.3095458081268,4,1,0,60,0,0
296309,-99.4333099595387,4,1,0,60,0,0
296419,-83.3333333333333,4,1,0,60,0,0
296530,-83.8124602396808,4,1,0,60,0,0
296750,-84.7702370677867,4,1,0,60,0,0
296861,-85.2576254850263,4,1,0,60,0,0
297081,-86.2319171103452,4,1,0,60,0,0
297412,-87.7188006750443,4,1,0,60,0,0
297633,-88.7258001669599,4,1,0,60,0,0
297743,-89.2313223423052,4,1,0,60,0,0
297964,-90.2556853701871,4,1,0,60,0,0
298184,-91.2870929175277,4,1,0,60,0,0
298294,-91.8072082583393,4,1,0,60,0,0
298405,-92.3350559024178,4,1,0,60,0,0
298515,-92.8611420941748,4,1,0,60,0,0
298625,-93.390225703093,4,1,0,60,0,0
298846,-94.4623323565035,4,1,0,60,0,0
299066,-50,4,1,0,60,0,0
299214,-53.5931051226026,4,1,0,60,0,0
299361,-57.7124183006536,4,1,0,60,0,0
299508,-62.5177003681677,4,1,0,60,0,0
299655,-68.1958603645351,4,1,0,60,0,0
299802,-75.0084947332654,4,1,0,60,0,0
299949,-83.3333333333333,4,1,0,60,0,0
300059,-83.8082664322884,4,1,0,60,0,0
300280,-84.7706477293917,4,1,0,60,0,0
300390,-85.2537723665103,4,1,0,60,0,0
300611,-86.2327525975275,4,1,0,60,0,0
300941,-87.715543682635,4,1,0,60,0,0
301162,-88.722792756014,4,1,0,60,0,0
301272,-89.2284414469527,4,1,0,60,0,0
301493,-90.2530633234547,4,1,0,60,0,0
301714,-91.2894510671261,4,1,0,60,0,0
301824,-91.8097276498927,4,1,0,60,0,0
301934,-92.3329693914965,4,1,0,60,0,0
302044,-92.8591931909624,4,1,0,60,0,0
302155,-93.3932409688854,4,1,0,60,0,0
302375,-94.4608074531192,4,1,0,60,0,0
302596,-95.545513273584,4,1,0,60,0,0
302927,-97.1934605740669,4,1,0,60,0,0
303037,-97.7473852712102,4,1,0,60,0,0
303147,-98.3044668944295,4,1,0,60,0,0
303368,-99.4333099595387,4,1,0,60,0,0
303478,-83.3333333333333,4,1,0,60,0,0
303589,-83.8124602396808,4,1,0,60,0,0
303809,-84.7702370677867,4,1,0,60,0,0
303919,-85.2532221134714,4,1,0,60,0,0
304140,-86.2319171103452,4,1,0,60,0,0
304471,-87.7188006750443,4,1,0,60,0,0
304691,-88.7212176717002,4,1,0,60,0,0
304802,-89.2313223423052,4,1,0,60,0,0
305022,-90.2510238596728,4,1,0,60,0,0
305243,-91.2870929175277,4,1,0,60,0,0
305353,-91.8072082583393,4,1,0,60,0,0
305464,-92.3350559024178,4,1,0,60,0,0
305574,-92.8611420941748,4,1,0,60,0,0
305684,-93.390225703093,4,1,0,60,0,0
305905,-94.4623323565035,4,1,0,60,0,0
306125,-50,4,1,0,60,0,0
306272,-53.5670953652026,4,1,0,60,0,0
306419,-57.6822576430624,4,1,0,60,0,0
306566,-62.4823096518539,4,1,0,60,0,0
306714,-68.1958603645351,4,1,0,60,0,0
306861,-75.0084947332654,4,1,0,60,0,0
307008,-83.3333333333333,4,1,0,60,0,0
307118,-83.8082664322884,4,1,0,60,0,0
307339,-84.7706477293917,4,1,0,60,0,0
307449,-85.2537723665103,4,1,0,60,0,0
307669,-86.2282976007648,4,1,0,60,0,0
308000,-87.715543682635,4,1,0,60,0,0
308221,-88.722792756014,4,1,0,60,0,0
308331,-89.2284414469527,4,1,0,60,0,0
308552,-90.2530633234547,4,1,0,60,0,0
308772,-91.284734828844,4,1,0,60,0,0
308883,-91.8097276498927,4,1,0,60,0,0
308993,-92.3329693914965,4,1,0,60,0,0
309103,-92.8591931909624,4,1,0,60,0,0
309214,-93.3932409688854,4,1,0,60,0,0
309434,-94.4608074531192,4,1,0,60,0,0
309655,-95.545513273584,4,1,0,60,0,0
309986,-97.1934605740669,4,1,0,60,0,0
310096,-97.7473852712102,4,1,0,60,0,0
310206,-98.3044668944295,4,1,0,60,0,0
310427,-99.4333099595387,4,1,0,60,0,0
310537,-71.4285714285714,4,1,0,60,0,0
310647,-71.967529908127,4,1,0,60,0,0
310868,-73.0626702834696,4,1,0,60,0,0
310978,-73.6139587231051,4,1,0,60,0,0
311199,-74.7341530453139,4,1,0,60,0,0
311419,-40.0703653713776,4,1,0,60,0,0
311640,-77.0206760047754,4,1,0,60,0,0
311750,-77.6018292548497,4,1,0,60,0,0
311861,-78.1927108396056,4,1,0,60,0,0
312081,-79.3771560993766,4,1,0,60,0,0
312302,-80.5850498347218,4,1,0,60,0,0
312412,-81.1930977777955,4,1,0,60,0,0
312522,-81.8057336971977,4,1,0,60,0,0
312633,-82.4286249619175,4,1,0,60,0,0
312743,-83.0505834512561,4,1,0,60,0,0
312964,-84.3143762651729,4,1,0,60,0,0
313184,-42.6293801688123,4,1,0,60,0,0
313331,-45.7003579861376,4,1,0,60,0,0
313478,-49.2481449865388,4,1,0,60,0,0
313625,-53.3931336430135,4,1,0,60,0,0
313772,-58.299972793346,4,1,0,60,0,0
313919,-64.1999614800231,4,1,0,60,0,0
314066,-71.4285714285714,4,1,0,60,0,0
314177,-71.9722934796014,4,1,0,60,0,0
314397,-73.0622021122002,4,1,0,60,0,0
314508,-73.6183595375932,4,1,0,60,0,0
314728,-74.7331952847759,4,1,0,60,0,0
314949,-40.0714498859856,4,1,0,60,0,0
315169,-77.0190314027633,4,1,0,60,0,0
315280,-77.6053086428804,4,1,0,60,0,0
315390,-78.1907066846144,4,1,0,60,0,0
315611,-79.3802064306413,4,1,0,60,0,0
315831,-80.582296402538,4,1,0,60,0,0
315941,-81.1901506761361,4,1,0,60,0,0
316052,-81.8081789296229,4,1,0,60,0,0
316162,-82.4252803699844,4,1,0,60,0,0
316272,-83.0470367750778,4,1,0,60,0,0
316493,-84.310414909652,4,1,0,60,0,0
316714,-42.6290227573974,4,1,0,60,0,0
317044,-87.5446147032857,4,1,0,60,0,0
317155,-88.2110138277691,4,1,0,60,0,0
317265,-88.8764136007636,4,1,0,60,0,0
317486,-90.2284728912918,4,1,0,60,0,0
317596,-71.4285714285714,4,1,0,60,0,0
317706,-71.967529908127,4,1,0,60,0,0
317927,-73.0626702834696,4,1,0,60,0,0
318037,-73.6139587231051,4,1,0,60,0,0
318258,-74.7341530453139,4,1,0,60,0,0
318478,-40.0703653713776,4,1,0,60,0,0
318699,-77.0206760047754,4,1,0,60,0,0
318809,-77.6018292548497,4,1,0,60,0,0
318919,-78.1873675495326,4,1,0,60,0,0
319140,-79.3771560993766,4,1,0,60,0,0
319361,-80.5850498347218,4,1,0,60,0,0
319471,-81.1930977777955,4,1,0,60,0,0
319581,-81.8057336971977,4,1,0,60,0,0
319691,-82.4229922111309,4,1,0,60,0,0
319802,-83.0505834512561,4,1,0,60,0,0
320022,-84.3086146517837,4,1,0,60,0,0
320243,-42.6293801688123,4,1,0,60,0,0
320390,-45.7003579861376,4,1,0,60,0,0
320537,-49.2481449865388,4,1,0,60,0,0
320684,-53.3931336430135,4,1,0,60,0,0
320831,-58.299972793346,4,1,0,60,0,0
320978,-64.1999614800231,4,1,0,60,0,0
321125,-71.4285714285714,4,1,0,60,0,0
321236,-71.9722934796014,4,1,0,60,0,0
321456,-73.0622021122002,4,1,0,60,0,0
321566,-73.6133302603798,4,1,0,60,0,0
321787,-74.7331952847759,4,1,0,60,0,0
322008,-40.0714498859856,4,1,0,60,0,0
322228,-77.0190314027633,4,1,0,60,0,0
322339,-77.6053086428804,4,1,0,60,0,0
322449,-78.1907066846144,4,1,0,60,0,0
322669,-79.3747835298065,4,1,0,60,0,0
322890,-80.582296402538,4,1,0,60,0,0
323000,-81.1901506761361,4,1,0,60,0,0
323111,-81.8081789296229,4,1,0,60,0,0
323221,-82.4252803699844,4,1,0,60,0,0
323331,-83.0470367750778,4,1,0,60,0,0
323552,-84.310414909652,4,1,0,60,0,0
323772,-42.6275722940022,4,1,0,60,0,0
324103,-87.5446147032857,4,1,0,60,0,0
324214,-88.2110138277691,4,1,0,60,0,0
324324,-88.8764136007636,4,1,0,60,0,0
324544,-90.2223088853894,4,1,0,60,0,0
324655,-71.4285714285714,4,1,0,60,0,0
324765,-71.967529908127,4,1,0,60,0,0
324986,-73.0626702834696,4,1,0,60,0,0
325096,-73.6139587231051,4,1,0,60,0,0
325316,-74.7290460953976,4,1,0,60,0,0
325537,-40.0703653713776,4,1,0,60,0,0
325758,-77.0206760047754,4,1,0,60,0,0
325868,-77.6018292548497,4,1,0,60,0,0
325978,-78.1873675495326,4,1,0,60,0,0
326199,-79.3771560993766,4,1,0,60,0,0
326419,-80.5795430644336,4,1,0,60,0,0
326530,-81.1930977777955,4,1,0,60,0,0
326640,-81.8057336971977,4,1,0,60,0,0
326750,-82.4229922111309,4,1,0,60,0,0
326861,-83.0505834512561,4,1,0,60,0,0
327081,-84.3086146517837,4,1,0,60,0,0
327302,-42.6293801688123,4,1,0,60,0,0
327449,-45.7003579861376,4,1,0,60,0,0
327596,-49.2481449865388,4,1,0,60,0,0
327743,-53.3931336430135,4,1,0,60,0,0
327890,-58.299972793346,4,1,0,60,0,0
328037,-64.1999614800231,4,1,0,60,0,0
328184,-71.4285714285714,4,1,0,60,0,0
328294,-71.9673766542623,4,1,0,60,0,0
328515,-73.0622021122002,4,1,0,60,0,0
328625,-73.6133302603798,4,1,0,60,0,0
328846,-74.7331952847759,4,1,0,60,0,0
329066,-40.0700040037752,4,1,0,60,0,0
329287,-77.0190314027633,4,1,0,60,0,0
329397,-77.6000069951278,4,1,0,60,0,0
329508,-78.1907066846144,4,1,0,60,0,0
329728,-79.3747835298065,4,1,0,60,0,0
329949,-80.582296402538,4,1,0,60,0,0
330059,-81.1901506761361,4,1,0,60,0,0
330169,-81.8025901605612,4,1,0,60,0,0
330280,-82.4252803699844,4,1,0,60,0,0
330390,-83.0470367750778,4,1,0,60,0,0
330611,-84.310414909652,4,1,0,60,0,0
330831,-42.6275722940022,4,1,0,60,0,0
331162,-87.5446147032857,4,1,0,60,0,0
331272,-88.204987645651,4,1,0,60,0,0
331383,-88.8764136007636,4,1,0,60,0,0
331603,-90.2223088853894,4,1,0,60,0,0
331714,-71.4285714285714,4,1,0,60,0,0
331824,-71.967529908127,4,1,0,60,0,0
332044,-73.0576775541393,4,1,0,60,0,0
332155,-73.6139587231051,4,1,0,60,0,0
332375,-74.7290460953976,4,1,0,60,0,0
332596,-40.0703653713776,4,1,0,60,0,0
332816,-77.0154128055706,4,1,0,60,0,0
332927,-77.6018292548497,4,1,0,60,0,0
333037,-78.1873675495326,4,1,0,60,0,0
333258,-79.3771560993766,4,1,0,60,0,0
333478,-80.5795430644336,4,1,0,60,0,0
333589,-81.1930977777955,4,1,0,60,0,0
333699,-81.8057336971977,4,1,0,60,0,0
333809,-82.4229922111309,4,1,0,60,0,0
333919,-83.0449081990064,4,1,0,60,0,0
334140,-84.3086146517837,4,1,0,60,0,0
334361,-42.6293801688123,4,1,0,60,0,0
334508,-45.7003579861376,4,1,0,60,0,0
334655,-49.2481449865388,4,1,0,60,0,0
334802,-53.3931336430135,4,1,0,60,0,0
334949,-58.299972793346,4,1,0,60,0,0
335096,-64.1999614800231,4,1,0,60,0,0
335243,-71.4285714285714,4,1,0,60,0,0
335353,-71.967529908127,4,1,0,60,0,0
335574,-73.0626702834696,4,1,0,60,0,0
335684,-73.6139587231051,4,1,0,60,0,0
335905,-74.7341530453139,4,1,0,60,0,0
336236,-76.4438749600977,4,1,0,60,0,0
336456,-77.6018292548497,4,1,0,60,0,0
336566,-78.1873675495326,4,1,0,60,0,0
336787,-79.3771560993766,4,1,0,60,0,0
337008,-80.5850498347218,4,1,0,60,0,0
337118,-81.1930977777955,4,1,0,60,0,0
337228,-81.8057336971977,4,1,0,60,0,0
337339,-82.4286249619175,4,1,0,60,0,0
337449,-83.0505834512561,4,1,0,60,0,0
337669,-84.3086146517837,4,1,0,60,0,0
337890,-85.5915511095479,4,1,0,60,0,0
338441,-88.8758440981269,4,1,0,60,0,0
338662,-90.2282807510003,4,1,0,60,0,0
338772,-62.5,4,1,0,60,0,0
338883,-63.0679458160012,4,1,0,60,0,0
339103,-64.2089009107756,4,1,0,60,0,0
339214,-64.7923757367326,4,1,0,60,0,0
339434,-65.9645272987168,4,1,0,60,0,0
339655,-37.5036504681324,4,1,0,60,0,0
339875,-68.3784021921081,4,1,0,60,0,0
339986,-68.9997658309858,4,1,0,60,0,0
340096,-69.6211017878906,4,1,0,60,0,0
340316,-70.8806092882688,4,1,0,60,0,0
340537,-72.1687836487032,4,1,0,60,0,0
340647,-72.8186562925736,4,1,0,60,0,0
340758,-73.4803691112648,4,1,0,60,0,0
340868,-74.1420524504126,4,1,0,60,0,0
340978,-74.809694181531,4,1,0,60,0,0
341199,-76.1692751857612,4,1,0,60,0,0
341419,-40.5350628293474,4,1,0,60,0,0
341566,-43.0540169446568,4,1,0,60,0,0
341714,-45.9274855455852,4,1,0,60,0,0
341861,-49.1881723335192,4,1,0,60,0,0
342008,-52.9472362502084,4,1,0,60,0,0
342155,-57.3283930065853,4,1,0,60,0,0
342302,-62.5,4,1,0,60,0,0
342412,-63.0629664152945,4,1,0,60,0,0
342633,-64.2093917184271,4,1,0,60,0,0
342743,-64.7877554157705,4,1,0,60,0,0
342964,-65.9655357576066,4,1,0,60,0,0
343184,-37.5023703397916,4,1,0,60,0,0
343405,-68.3801439445453,4,1,0,60,0,0
343515,-68.9960755367659,4,1,0,60,0,0
343625,-69.617555109795,4,1,0,60,0,0
343846,-70.8831366587902,4,1,0,60,0,0
344067,-72.1717252877471,4,1,0,60,0,0
344177,-72.8218094072809,4,1,0,60,0,0
344287,-73.4777491352374,4,1,0,60,0,0
344397,-74.1395972157906,4,1,0,60,0,0
344508,-74.8135053740279,4,1,0,60,0,0
344728,-76.1673350316017,4,1,0,60,0,0
344949,-40.5357588719164,4,1,0,60,0,0
345169,-78.9553707631754,4,1,0,60,0,0
345280,-79.6730529531539,4,1,0,60,0,0
345390,-80.3907050014196,4,1,0,60,0,0
345500,-81.114821273702,4,1,0,60,0,0
345721,-82.5894122873067,4,1,0,60,0,0
345831,-62.5,4,1,0,60,0,0
345941,-63.0628062188163,4,1,0,60,0,0
346162,-64.2089009107756,4,1,0,60,0,0
346272,-64.7870956105508,4,1,0,60,0,0
346493,-65.9645272987168,4,1,0,60,0,0
346714,-37.5036504681324,4,1,0,60,0,0
346934,-68.3784021921081,4,1,0,60,0,0
347044,-68.9941428318912,4,1,0,60,0,0
347155,-69.6211017878906,4,1,0,60,0,0
347375,-70.8806092882688,4,1,0,60,0,0
347596,-72.1687836487032,4,1,0,60,0,0
347706,-72.8186562925736,4,1,0,60,0,0
347816,-73.4743809742906,4,1,0,60,0,0
347927,-74.1420524504126,4,1,0,60,0,0
348037,-74.809694181531,4,1,0,60,0,0
348258,-76.1692751857612,4,1,0,60,0,0
348478,-40.5350628293474,4,1,0,60,0,0
348625,-43.0540169446568,4,1,0,60,0,0
348772,-45.9067837540935,4,1,0,60,0,0
348919,-49.1644274487838,4,1,0,60,0,0
349066,-52.9197244338698,4,1,0,60,0,0
349214,-57.3283930065853,4,1,0,60,0,0
349361,-62.5,4,1,0,60,0,0
349471,-63.0629664152945,4,1,0,60,0,0
349691,-64.2041576186844,4,1,0,60,0,0
349802,-64.7877554157705,4,1,0,60,0,0
350022,-65.9601585038359,4,1,0,60,0,0
350243,-37.5023703397916,4,1,0,60,0,0
350464,-68.3801439445453,4,1,0,60,0,0
350574,-68.9960755367659,4,1,0,60,0,0
350684,-69.617555109795,4,1,0,60,0,0
350905,-70.8831366587902,4,1,0,60,0,0
351125,-72.1658421295572,4,1,0,60,0,0
351236,-72.8218094072809,4,1,0,60,0,0
351346,-73.4777491352374,4,1,0,60,0,0
351456,-74.1395972157906,4,1,0,60,0,0
351566,-74.8074068682058,4,1,0,60,0,0
351787,-76.1673350316017,4,1,0,60,0,0
352008,-40.5357588719164,4,1,0,60,0,0
352228,-78.9553707631754,4,1,0,60,0,0
352339,-79.6730529531539,4,1,0,60,0,0
352449,-80.3907050014196,4,1,0,60,0,0
352559,-81.114821273702,4,1,0,60,0,0
352780,-82.5894122873067,4,1,0,60,0,0
352890,-62.5,4,1,0,60,0,0
353221,-64.2095608008298,4,1,0,60,0,0
353552,-65.9658831717674,4,1,0,60,0,0
353773,-37.5023703397916,4,1,0,60,0,0
353993,-68.3807439824945,4,1,0,60,0,0
354103,-68.9960755367659,4,1,0,60,0,0
354214,-69.6232305246093,4,1,0,60,0,0
354434,-70.8831366587902,4,1,0,60,0,0
354655,-72.1717252877471,4,1,0,60,0,0
354765,-72.8218094072809,4,1,0,60,0,0
354875,-73.4777491352374,4,1,0,60,0,0
354986,-74.1456412799307,4,1,0,60,0,0
355096,-74.8135053740279,4,1,0,60,0,0
355316,-76.1673350316017,4,1,0,60,0,0
355537,-40.5350628293474,4,1,0,60,0,0
355684,-43.0570505920344,4,1,0,60,0,0
355831,-45.9136822773186,4,1,0,60,0,0
355978,-49.176297024834,4,1,0,60,0,0
356125,-52.9380624669137,4,1,0,60,0,0
356272,-57.323015190599,4,1,0,60,0,0
356419,-62.5,4,1,0,60,0,0
356530,-63.0679458160012,4,1,0,60,0,0
356750,-64.2089009107756,4,1,0,60,0,0
356861,-64.7923757367326,4,1,0,60,0,0
357081,-65.9645272987168,4,1,0,60,0,0
357302,-37.5036504681324,4,1,0,60,0,0
357522,-68.3784021921081,4,1,0,60,0,0
357633,-68.9997658309858,4,1,0,60,0,0
357743,-69.6211017878906,4,1,0,60,0,0
357964,-70.8863860337358,4,1,0,60,0,0
358184,-72.1687836487032,4,1,0,60,0,0
358294,-72.8186562925736,4,1,0,60,0,0
358405,-73.4803691112648,4,1,0,60,0,0
358515,-74.1420524504126,4,1,0,60,0,0
358625,-74.809694181531,4,1,0,60,0,0
358846,-76.1692751857612,4,1,0,60,0,0
359066,-40.5344637117801,4,1,0,60,0,0
359287,-78.9565778247402,4,1,0,60,0,0
359397,-79.6675738729997,4,1,0,60,0,0
359508,-80.3915237170339,4,1,0,60,0,0
359618,-81.115441308843,4,1,0,60,0,0
359839,-82.5896220866128,4,1,0,60,0,0
359949,-62.5,4,1,0,60,0,0
360059,-63.0629664152945,4,1,0,60,0,0
360280,-64.2093917184271,4,1,0,60,0,0
360390,-64.7877554157705,4,1,0,60,0,0
360611,-65.9655357576066,4,1,0,60,0,0
360831,-37.5023703397916,4,1,0,60,0,0
361052,-68.3801439445453,4,1,0,60,0,0
361162,-68.9960755367659,4,1,0,60,0,0
361272,-69.617555109795,4,1,0,60,0,0
361493,-70.8831366587902,4,1,0,60,0,0
361714,-72.1717252877471,4,1,0,60,0,0
361824,-72.8218094072809,4,1,0,60,0,0
361934,-73.4777491352374,4,1,0,60,0,0
362044,-74.1395972157906,4,1,0,60,0,0
362155,-74.8135053740279,4,1,0,60,0,0
362375,-76.1673350316017,4,1,0,60,0,0
362596,-40.5350628293474,4,1,0,60,0,0
362743,-43.0570505920344,4,1,0,60,0,0
362890,-45.9136822773186,4,1,0,60,0,0
363037,-49.176297024834,4,1,0,60,0,0
363184,-52.9380624669137,4,1,0,60,0,0
363331,-57.323015190599,4,1,0,60,0,0
363478,-62.5,4,1,0,60,0,0
363589,-63.0679458160012,4,1,0,60,0,0
363809,-64.2089009107756,4,1,0,60,0,0
363919,-64.7870956105508,4,1,0,60,0,0
364140,-65.9645272987168,4,1,0,60,0,0
364361,-37.5036504681324,4,1,0,60,0,0
364581,-68.3784021921081,4,1,0,60,0,0
364691,-68.9941428318912,4,1,0,60,0,0
364802,-69.6211017878906,4,1,0,60,0,0
365022,-70.8806092882688,4,1,0,60,0,0
365243,-72.1687836487032,4,1,0,60,0,0
365353,-72.8186562925736,4,1,0,60,0,0
365464,-73.4803691112648,4,1,0,60,0,0
365574,-74.1420524504126,4,1,0,60,0,0
365684,-74.809694181531,4,1,0,60,0,0
365905,-76.1692751857612,4,1,0,60,0,0
366125,-77.5472449525586,4,1,0,60,0,0
366456,-79.6675738729997,4,1,0,60,0,0
366566,-80.3849723692194,4,1,0,60,0,0
366677,-81.115441308843,4,1,0,60,0,0
366897,-82.5828916091304,4,1,0,60,0,0
367008,-55.5555555555556,4,1,0,60,0,0
367118,-56.1219519291854,4,1,0,60,0,0
367339,-57.27740853249,4,1,0,60,0,0
367449,-57.8613594291969,4,1,0,60,0,0
367559,-58.4512637839686,4,1,0,60,0,0
367669,-59.0471822931124,4,1,0,60,0,0
367890,-35.2497851204591,4,1,0,60,0,0
368111,-61.503575498161,4,1,0,60,0,0
368221,-62.1306127364546,4,1,0,60,0,0
368331,-62.7640427038705,4,1,0,60,0,0
368552,-64.0562487854371,4,1,0,60,0,0
368772,-65.369031014126,4,1,0,60,0,0
368883,-66.0415667533613,4,1,0,60,0,0
368993,-66.7148694238842,4,1,0,60,0,0
369103,-67.3950365058439,4,1,0,60,0,0
369214,-68.0884163830438,4,1,0,60,0,0
369434,-69.4838347021313,4,1,0,60,0,0
369655,-38.6443559918074,4,1,0,60,0,0
369802,-40.7097058723751,4,1,0,60,0,0
369949,-43.0082862631534,4,1,0,60,0,0
370096,-45.5819677735488,4,1,0,60,0,0
370243,-48.4832813484817,4,1,0,60,0,0
370390,-51.7790415699405,4,1,0,60,0,0
370537,-55.5555555555556,4,1,0,60,0,0
370647,-56.121790662036,4,1,0,60,0,0
370868,-57.2769132755646,4,1,0,60,0,0
370978,-57.8606928591389,4,1,0,60,0,0
371089,-58.4558111150179,4,1,0,60,0,0
371199,-59.051606298778,4,1,0,60,0,0
371419,-35.2493100565998,4,1,0,60,0,0
371640,-61.5018033880629,4,1,0,60,0,0
371750,-62.1286440314862,4,1,0,60,0,0
371861,-62.7676597163857,4,1,0,60,0,0
372081,-64.0536652101575,4,1,0,60,0,0
372302,-65.3720450460613,4,1,0,60,0,0
372412,-66.0383320900364,4,1,0,60,0,0
372522,-66.7114100860867,4,1,0,60,0,0
372633,-67.3975611854921,4,1,0,60,0,0
372743,-68.0844927597111,4,1,0,60,0,0
372964,-69.4858368061079,4,1,0,60,0,0
373184,-38.643631114864,4,1,0,60,0,0
373405,-72.3689759069723,4,1,0,60,0,0
373515,-73.1065772929865,4,1,0,60,0,0
373625,-73.8516964833889,4,1,0,60,0,0
373736,-74.6112880235714,4,1,0,60,0,0
373956,-76.139949865183,4,1,0,60,0,0
374066,-55.5555555555556,4,1,0,60,0,0
374177,-56.1219519291854,4,1,0,60,0,0
374397,-57.2721270101326,4,1,0,60,0,0
374508,-57.8613594291969,4,1,0,60,0,0
374618,-58.4512637839686,4,1,0,60,0,0
374728,-59.0471822931124,4,1,0,60,0,0
374949,-35.2497851204591,4,1,0,60,0,0
375169,-61.4979042829755,4,1,0,60,0,0
375280,-62.1306127364546,4,1,0,60,0,0
375390,-62.7640427038705,4,1,0,60,0,0
375611,-64.0562487854371,4,1,0,60,0,0
375831,-65.369031014126,4,1,0,60,0,0
375941,-66.0354770921797,4,1,0,60,0,0
376052,-66.7148694238842,4,1,0,60,0,0
376162,-67.3950365058439,4,1,0,60,0,0
376272,-68.0821379828399,4,1,0,60,0,0
376493,-69.4838347021313,4,1,0,60,0,0
376714,-38.6443559918074,4,1,0,60,0,0
376861,-40.7097058723751,4,1,0,60,0,0
377008,-43.0082862631534,4,1,0,60,0,0
377155,-45.5819677735488,4,1,0,60,0,0
377302,-48.4832813484817,4,1,0,60,0,0
377449,-51.7790415699405,4,1,0,60,0,0
377596,-55.5555555555556,4,1,0,60,0,0
377706,-56.1219519291854,4,1,0,60,0,0
377927,-57.27740853249,4,1,0,60,0,0
378037,-57.8613594291969,4,1,0,60,0,0
378147,-58.4512637839686,4,1,0,60,0,0
378258,-59.0526275075597,4,1,0,60,0,0
378478,-35.2497851204591,4,1,0,60,0,0
378699,-61.503575498161,4,1,0,60,0,0
378809,-62.1306127364546,4,1,0,60,0,0
378919,-62.7640427038705,4,1,0,60,0,0
379140,-64.0562487854371,4,1,0,60,0,0
379361,-65.3750592169675,4,1,0,60,0,0
379471,-66.0415667533613,4,1,0,60,0,0
379581,-66.7148694238842,4,1,0,60,0,0
379691,-67.3950365058439,4,1,0,60,0,0
379802,-68.0884163830438,4,1,0,60,0,0
380022,-69.4838347021313,4,1,0,60,0,0
380243,-38.6450873378651,4,1,0,60,0,0
380464,-72.3743980244551,4,1,0,60,0,0
380574,-73.1122647629796,4,1,0,60,0,0
380684,-73.8576541523126,4,1,0,60,0,0
380794,-74.6106428868927,4,1,0,60,0,0
381015,-76.1467505424006,4,1,0,60,0,0
381125,-55.5555555555556,4,1,0,60,0,0
381236,-56.1269646364509,4,1,0,60,0,0
381456,-57.2769132755646,4,1,0,60,0,0
381566,-57.8606928591389,4,1,0,60,0,0
381677,-58.4558111150179,4,1,0,60,0,0
381787,-59.051606298778,4,1,0,60,0,0
382008,-35.2512108618208,4,1,0,60,0,0
382228,-61.5018033880629,4,1,0,60,0,0
382339,-62.1343717891158,4,1,0,60,0,0
382449,-62.7676597163857,4,1,0,60,0,0
382669,-64.0536652101575,4,1,0,60,0,0
382890,-65.3720450460613,4,1,0,60,0,0
383000,-66.0383320900364,4,1,0,60,0,0
383111,-66.7175603376181,4,1,0,60,0,0
383221,-67.3975611854921,4,1,0,60,0,0
383331,-68.0844927597111,4,1,0,60,0,0
383552,-69.4858368061079,4,1,0,60,0,0
383772,-38.6443559918074,4,1,0,60,0,0
383919,-40.7072419981456,4,1,0,60,0,0
384066,-43.0027867072007,4,1,0,60,0,0
384214,-45.5912370234715,4,1,0,60,0,0
384361,-48.4902721265285,4,1,0,60,0,0
384508,-51.7830280568422,4,1,0,60,0,0
384655,-55.5555555555556,4,1,0,60,0,0
384765,-56.1219519291854,4,1,0,60,0,0
384986,-57.27740853249,4,1,0,60,0,0
385096,-57.8613594291969,4,1,0,60,0,0
385206,-58.4512637839686,4,1,0,60,0,0
385316,-59.0471822931124,4,1,0,60,0,0
385537,-35.2497851204591,4,1,0,60,0,0
385758,-61.503575498161,4,1,0,60,0,0
385868,-62.1306127364546,4,1,0,60,0,0
385978,-62.7640427038705,4,1,0,60,0,0
386199,-64.0562487854371,4,1,0,60,0,0
386419,-65.369031014126,4,1,0,60,0,0
386530,-66.0415667533613,4,1,0,60,0,0
386640,-66.7148694238842,4,1,0,60,0,0
386750,-67.3950365058439,4,1,0,60,0,0
386861,-68.0884163830438,4,1,0,60,0,0
387081,-69.4838347021313,4,1,0,60,0,0
387302,-38.6450873378651,4,1,0,60,0,0
387522,-72.3677244159406,4,1,0,60,0,0
387633,-73.1122647629796,4,1,0,60,0,0
387743,-73.8576541523126,4,1,0,60,0,0
387853,-74.6106428868927,4,1,0,60,0,0
388074,-76.1467505424006,4,1,0,60,0,0
388184,-55.5555555555556,4,1,0,60,0,0
388294,-56.121790662036,4,1,0,60,0,0
388515,-57.2769132755646,4,1,0,60,0,0
388625,-57.8606928591389,4,1,0,60,0,0
388736,-58.4558111150179,4,1,0,60,0,0
388846,-59.051606298778,4,1,0,60,0,0
389066,-35.2493100565998,4,1,0,60,0,0
389287,-61.5018033880629,4,1,0,60,0,0
389397,-62.1286440314862,4,1,0,60,0,0
389508,-62.7676597163857,4,1,0,60,0,0
389728,-64.0536652101575,4,1,0,60,0,0
389949,-65.3720450460613,4,1,0,60,0,0
390059,-66.0383320900364,4,1,0,60,0,0
390169,-66.7114100860867,4,1,0,60,0,0
390280,-67.3975611854921,4,1,0,60,0,0
390390,-68.0844927597111,4,1,0,60,0,0
390611,-69.4858368061079,4,1,0,60,0,0
390831,-38.6443559918074,4,1,0,60,0,0
390978,-40.7072419981456,4,1,0,60,0,0
391125,-43.0027867072007,4,1,0,60,0,0
391272,-45.5727022919611,4,1,0,60,0,0
391419,-48.4693058377519,4,1,0,60,0,0
391566,-51.7591183388125,4,1,0,60,0,0
391714,-55.5555555555556,4,1,0,60,0,0
391824,-56.1219519291854,4,1,0,60,0,0
392044,-57.2721270101326,4,1,0,60,0,0
392155,-57.8613594291969,4,1,0,60,0,0
392265,-58.4512637839686,4,1,0,60,0,0
392375,-59.0471822931124,4,1,0,60,0,0
392596,-35.2497851204591,4,1,0,60,0,0
392816,-61.4979042829755,4,1,0,60,0,0
392927,-62.1306127364546,4,1,0,60,0,0
393037,-62.7640427038705,4,1,0,60,0,0
393258,-64.0562487854371,4,1,0,60,0,0
393478,-65.369031014126,4,1,0,60,0,0
393589,-66.0415667533613,4,1,0,60,0,0
393699,-66.7148694238842,4,1,0,60,0,0
393809,-67.3950365058439,4,1,0,60,0,0
393919,-68.0821379828399,4,1,0,60,0,0
394140,-69.4838347021313,4,1,0,60,0,0
394361,-38.6450873378651,4,1,0,60,0,0
394581,-72.3677244159406,4,1,0,60,0,0
394691,-73.1055231161272,4,1,0,60,0,0
394802,-73.8576541523126,4,1,0,60,0,0
394912,-74.6106428868927,4,1,0,60,0,0
395133,-76.1467505424006,4,1,0,60,0,0

[HitObjects]
256,192,42330,5,8,0:0:0:0:
256,192,42550,1,0,0:0:0:0:
256,192,42661,1,8,0:0:0:0:
256,192,42771,1,0,0:0:0:0:
256,192,42881,1,0,0:0:0:0:
256,192,42992,1,8,0:0:0:0:
256,192,43212,1,8,0:0:0:0:
256,192,43433,1,0,0:0:0:0:
256,192,43488,1,0,0:0:0:0:
256,192,43543,1,0,0:0:0:0:
256,192,43598,1,0,0:0:0:0:
256,192,43653,1,8,0:0:0:0:
256,192,44094,1,8,0:0:0:0:
256,192,44315,1,8,0:0:0:0:
256,192,44425,1,8,0:0:0:0:
256,192,44536,1,0,0:0:0:0:
256,192,44646,1,0,0:0:0:0:
256,192,44756,1,8,0:0:0:0:
256,192,44977,1,8,0:0:0:0:
256,192,45197,1,0,0:0:0:0:
256,192,45253,1,0,0:0:0:0:
256,192,45308,1,0,0:0:0:0:
256,192,45363,1,0,0:0:0:0:
256,192,45418,1,8,0:0:0:0:
256,192,45859,1,8,0:0:0:0:
256,192,46080,1,0,0:0:0:0:
256,192,46190,1,0,0:0:0:0:
256,192,46300,1,8,0:0:0:0:
256,192,46411,1,0,0:0:0:0:
256,192,46521,1,8,0:0:0:0:
256,192,46742,1,8,0:0:0:0:
256,192,46962,1,0,0:0:0:0:
256,192,47017,1,0,0:0:0:0:
256,192,47072,1,0,0:0:0:0:
256,192,47128,1,0,0:0:0:0:
256,192,47183,1,8,0:0:0:0:
256,192,47624,1,8,0:0:0:0:
256,192,47844,1,0,0:0:0:0:
256,192,47955,1,0,0:0:0:0:
256,192,48065,1,8,0:0:0:0:
256,192,48175,1,8,0:0:0:0:
256,192,48286,1,8,0:0:0:0:
256,192,48506,1,8,0:0:0:0:
256,192,48727,1,0,0:0:0:0:
256,192,48782,1,0,0:0:0:0:
256,192,48837,1,0,0:0:0:0:
256,192,48892,1,0,0:0:0:0:
256,192,48947,1,8,0:0:0:0:
256,192,49389,1,8,0:0:0:0:
256,192,49609,1,0,0:0:0:0:
256,192,49719,1,8,0:0:0:0:
256,192,49830,1,0,0:0:0:0:
256,192,49940,1,8,0:0:0:0:
256,192,50050,1,0,0:0:0:0:
256,192,50271,1,8,0:0:0:0:
256,192,50492,1,0,0:0:0:0:
256,192,50547,1,0,0:0:0:0:
256,192,50602,1,0,0:0:0:0:
256,192,50657,1,0,0:0:0:0:
256,192,50712,1,8,0:0:0:0:
256,192,51153,1,8,0:0:0:0:
256,192,51374,1,8,0:0:0:0:
256,192,51484,1,8,0:0:0:0:
256,192,51594,1,0,0:0:0:0:
256,192,51705,1,0,0:0:0:0:
256,192,51815,1,8,0:0:0:0:
256,192,52036,1,8,0:0:0:0:
256,192,52256,1,0,0:0:0:0:
256,192,52311,1,0,0:0:0:0:
256,192,52367,1,0,0:0:0:0:
256,192,52422,1,0,0:0:0:0:
256,192,52477,1,8,0:0:0:0:
256,192,52918,1,8,0:0:0:0:
256,192,53139,1,0,0:0:0:0:
256,192,53249,1,0,0:0:0:0:
256,192,53359,1,8,0:0:0:0:
256,192,53469,1,0,0:0:0:0:
256,192,53580,1,8,0:0:0:0:
256,192,53800,1,8,0:0:0:0:
256,192,54021,1,0,0:0:0:0:
256,192,54076,1,0,0:0:0:0:
256,192,54131,1,0,0:0:0:0:
256,192,54186,1,0,0:0:0:0:
256,192,54242,1,8,0:0:0:0:
256,192,54683,1,8,0:0:0:0:
256,192,54903,1,0,0:0:0:0:
256,192,55014,1,0,0:0:0:0:
256,192,55124,1,8,0:0:0:0:
256,192,55234,1,8,0:0:0:0:
256,192,55344,1,8,0:0:0:0:
256,192,55565,1,8,0:0:0:0:
256,192,55786,1,0,0:0:0:0:
256,192,55841,1,0,0:0:0:0:
256,192,55896,1,0,0:0:0:0:
256,192,55951,1,0,0:0:0:0:
256,192,56006,1,8,0:0:0:0:
256,192,56447,1,8,0:0:0:0:
256,192,56668,1,0,0:0:0:0:
256,192,56778,1,8,0:0:0:0:
256,192,56889,1,0,0:0:0:0:
256,192,56999,1,0,0:0:0:0:
256,192,57109,1,8,0:0:0:0:
256,192,57219,1,8,0:0:0:0:
256,192,57330,1,0,0:0:0:0:
256,192,57550,1,0,0:0:0:0:
256,192,57606,1,0,0:0:0:0:
256,192,57661,1,0,0:0:0:0:
256,192,57716,1,0,0:0:0:0:
256,192,57771,1,8,0:0:0:0:
256,192,58212,1,8,0:0:0:0:
256,192,58433,1,8,0:0:0:0:
256,192,58543,1,8,0:0:0:0:
256,192,58653,1,0,0:0:0:0:
256,192,58764,1,0,0:0:0:0:
256,192,58874,1,8,0:0:0:0:
256,192,58984,1,0,0:0:0:0:
256,192,59094,1,8,0:0:0:0:
256,192,59315,1,0,0:0:0:0:
256,192,59370,1,0,0:0:0:0:
256,192,59425,1,0,0:0:0:0:
256,192,59481,1,0,0:0:0:0:
256,192,59536,1,8,0:0:0:0:
256,192,59977,1,8,0:0:0:0:
256,192,60197,1,0,0:0:0:0:
256,192,60308,1,8,0:0:0:0:
256,192,60418,1,8,0:0:0:0:
256,192,60528,1,0,0:0:0:0:
256,192,60639,1,8,0:0:0:0:
256,192,60749,1,0,0:0:0:0:
256,192,60859,1,8,0:0:0:0:
256,192,61080,1,0,0:0:0:0:
256,192,61135,1,0,0:0:0:0:
256,192,61190,1,0,0:0:0:0:
256,192,61245,1,0,0:0:0:0:
256,192,61300,1,8,0:0:0:0:
256,192,61742,1,8,0:0:0:0:
256,192,61962,1,8,0:0:0:0:
256,192,62072,1,8,0:0:0:0:
256,192,62183,1,0,0:0:0:0:
256,192,62293,1,8,0:0:0:0:
256,192,62403,1,0,0:0:0:0:
256,192,62514,1,0,0:0:0:0:
256,192,62624,1,8,0:0:0:0:
256,192,62844,1,0,0:0:0:0:
256,192,62900,1,0,0:0:0:0:
256,192,62955,1,0,0:0:0:0:
256,192,63010,1,0,0:0:0:0:
256,192,63065,1,8,0:0:0:0:
256,192,63506,1,8,0:0:0:0:
256,192,63727,1,0,0:0:0:0:
256,192,63837,1,0,0:0:0:0:
256,192,63947,1,8,0:0:0:0:
256,192,64058,1,0,0:0:0:0:
256,192,64168,1,8,0:0:0:0:
256,192,64278,1,8,0:0:0:0:
256,192,64389,1,0,0:0:0:0:
256,192,64609,1,0,0:0:0:0:
256,192,64664,1,0,0:0:0:0:
256,192,64719,1,0,0:0:0:0:
256,192,64775,1,0,0:0:0:0:
256,192,64830,1,8,0:0:0:0:
256,192,65271,1,8,0:0:0:0:
256,192,65492,1,8,0:0:0:0:
256,192,65602,1,8,0:0:0:0:
256,192,65712,1,0,0:0:0:0:
256,192,65822,1,0,0:0:0:0:
256,192,65933,1,8,0:0:0:0:
256,192,66043,1,0,0:0:0:0:
256,192,66153,1,8,0:0:0:0:
256,192,66374,1,0,0:0:0:0:
256,192,66429,1,0,0:0:0:0:
256,192,66484,1,0,0:0:0:0:
256,192,66539,1,0,0:0:0:0:
256,192,66595,1,8,0:0:0:0:
256,192,67036,1,8,0:0:0:0:
256,192,67256,1,0,0:0:0:0:
256,192,67367,1,8,0:0:0:0:
256,192,67477,1,8,0:0:0:0:
256,192,67587,1,0,0:0:0:0:
256,192,67697,1,8,0:0:0:0:
256,192,67808,1,0,0:0:0:0:
256,192,67918,1,8,0:0:0:0:
256,192,68139,1,0,0:0:0:0:
256,192,68194,1,0,0:0:0:0:
256,192,68249,1,0,0:0:0:0:
256,192,68304,1,0,0:0:0:0:
256,192,68359,1,8,0:0:0:0:
256,192,68800,1,8,0:0:0:0:
256,192,69021,1,8,0:0:0:0:
256,192,69131,1,8,0:0:0:0:
256,192,69242,1,0,0:0:0:0:
256,192,69352,1,8,0:0:0:0:
256,192,69462,1,0,0:0:0:0:
256,192,69572,1,0,0:0:0:0:
256,192,69683,1,8,0:0:0:0:
256,192,69903,1,0,0:0:0:0:
256,192,69958,1,0,0:0:0:0:
256,192,70014,1,0,0:0:0:0:
256,192,70069,1,0,0:0:0:0:
256,192,70124,1,8,0:0:0:0:
256,192,71447,12,0,71668,0:0:0:0:
256,192,73212,12,0,73653,0:0:0:0:
256,192,74977,12,0,75418,0:0:0:0:
256,192,76742,12,0,77403,0:0:0:0:
256,192,84242,12,0,84462,0:0:0:0:
256,192,84683,5,4,0:0:0:0:
256,192,85565,1,12,0:0:0:0:
256,192,86447,1,4,0:0:0:0:
256,192,87330,1,12,0:0:0:0:
256,192,88212,1,4,0:0:0:0:
256,192,88653,1,8,0:0:0:0:
256,192,88727,1,8,0:0:0:0:
256,192,88800,1,8,0:0:0:0:
256,192,88874,1,0,0:0:0:0:
256,192,89094,1,12,0:0:0:0:
256,192,89536,1,8,0:0:0:0:
256,192,89609,1,8,0:0:0:0:
256,192,89683,1,0,0:0:0:0:
256,192,89756,1,0,0:0:0:0:
256,192,89977,1,4,0:0:0:0:
256,192,90418,1,8,0:0:0:0:
256,192,90492,1,8,0:0:0:0:
256,192,90565,1,8,0:0:0:0:
256,192,90639,1,0,0:0:0:0:
256,192,90859,1,12,0:0:0:0:
256,192,91300,1,8,0:0:0:0:
256,192,91411,1,8,0:0:0:0:
256,192,91521,1,8,0:0:0:0:
256,192,91631,1,8,0:0:0:0:
256,192,91742,1,4,0:0:0:0:
256,192,92624,1,12,0:0:0:0:
256,192,93506,1,4,0:0:0:0:
256,192,94389,1,12,0:0:0:0:
256,192,95271,1,4,0:0:0:0:
256,192,95712,1,8,0:0:0:0:
256,192,95786,1,8,0:0:0:0:
256,192,95859,1,8,0:0:0:0:
256,192,95933,1,0,0:0:0:0:
256,192,96153,1,12,0:0:0:0:
256,192,96594,1,8,0:0:0:0:
256,192,96668,1,0,0:0:0:0:
256,192,96742,1,0,0:0:0:0:
256,192,96815,1,8,0:0:0:0:
256,192,97036,1,4,0:0:0:0:
256,192,97477,1,8,0:0:0:0:
256,192,97550,1,8,0:0:0:0:
256,192,97624,1,8,0:0:0:0:
256,192,97697,1,0,0:0:0:0:
256,192,97918,1,12,0:0:0:0:
256,192,98359,1,8,0:0:0:0:
256,192,98433,1,0,0:0:0:0:
256,192,98506,1,0,0:0:0:0:
256,192,98580,1,8,0:0:0:0:
256,192,98800,1,4,0:0:0:0:
256,192,99683,1,12,0:0:0:0:
256,192,100565,1,4,0:0:0:0:
256,192,101447,1,12,0:0:0:0:
256,192,102330,1,4,0:0:0:0:
256,192,102771,1,8,0:0:0:0:
256,192,102844,1,8,0:0:0:0:
256,192,102918,1,8,0:0:0:0:
256,192,102992,1,0,0:0:0:0:
256,192,103212,1,12,0:0:0:0:
256,192,103653,1,8,0:0:0:0:
256,192,103727,1,8,0:0:0:0:
256,192,103800,1,0,0:0:0:0:
256,192,103874,1,0,0:0:0:0:
256,192,104094,1,4,0:0:0:0:
256,192,104536,1,8,0:0:0:0:
256,192,104609,1,8,0:0:0:0:
256,192,104683,1,8,0:0:0:0:
256,192,104756,1,0,0:0:0:0:
256,192,104977,1,12,0:0:0:0:
256,192,105418,1,8,0:0:0:0:
256,192,105492,1,8,0:0:0:0:
256,192,105565,1,0,0:0:0:0:
256,192,105639,1,0,0:0:0:0:
256,192,105859,1,4,0:0:0:0:
256,192,106742,1,12,0:0:0:0:
256,192,107624,1,4,0:0:0:0:
256,192,108506,1,12,0:0:0:0:
256,192,109389,1,4,0:0:0:0:
256,192,109830,1,8,0:0:0:0:
256,192,109903,1,8,0:0:0:0:
256,192,109977,1,8,0:0:0:0:
256,192,110050,1,0,0:0:0:0:
256,192,110271,1,12,0:0:0:0:
256,192,110712,1,8,0:0:0:0:
256,192,110786,1,0,0:0:0:0:
256,192,110859,1,0,0:0:0:0:
256,192,110933,1,8,0:0:0:0:
256,192,111153,1,4,0:0:0:0:
256,192,111595,1,8,0:0:0:0:
256,192,111668,1,8,0:0:0:0:
256,192,111742,1,8,0:0:0:0:
256,192,111815,1,0,0:0:0:0:
256,192,112036,1,12,0:0:0:0:
256,192,112477,12,8,112697,0:0:0:0:
256,192,112918,5,4,0:0:0:0:
256,192,113359,1,8,0:0:0:0:
256,192,113800,1,12,0:0:0:0:
256,192,114242,1,8,0:0:0:0:
256,192,114683,1,0,0:0:0:0:
256,192,115124,1,8,0:0:0:0:
256,192,115565,1,12,0:0:0:0:
256,192,116006,1,8,0:0:0:0:
256,192,116447,1,4,0:0:0:0:
256,192,116889,1,8,0:0:0:0:
256,192,116962,1,8,0:0:0:0:
256,192,117036,1,8,0:0:0:0:
256,192,117109,1,0,0:0:0:0:
256,192,117330,1,12,0:0:0:0:
256,192,117771,1,8,0:0:0:0:
256,192,117844,1,8,0:0:0:0:
256,192,117918,1,0,0:0:0:0:
256,192,117992,1,0,0:0:0:0:
256,192,118212,1,4,0:0:0:0:
256,192,118653,1,8,0:0:0:0:
256,192,118727,1,8,0:0:0:0:
256,192,118800,1,8,0:0:0:0:
256,192,118874,1,0,0:0:0:0:
256,192,119094,1,12,0:0:0:0:
256,192,119536,1,8,0:0:0:0:
256,192,119646,1,8,0:0:0:0:
256,192,119756,1,8,0:0:0:0:
256,192,119867,1,8,0:0:0:0:
256,192,119977,1,4,0:0:0:0:
256,192,120418,1,8,0:0:0:0:
256,192,120859,1,12,0:0:0:0:
256,192,121300,1,8,0:0:0:0:
256,192,121742,1,0,0:0:0:0:
256,192,122183,1,8,0:0:0:0:
256,192,122624,1,12,0:0:0:0:
256,192,123065,1,8,0:0:0:0:
256,192,123506,1,4,0:0:0:0:
256,192,123947,1,8,0:0:0:0:
256,192,124021,1,8,0:0:0:0:
256,192,124094,1,8,0:0:0:0:
256,192,124168,1,0,0:0:0:0:
256,192,124389,1,12,0:0:0:0:
256,192,124830,1,8,0:0:0:0:
256,192,124903,1,0,0:0:0:0:
256,192,124977,1,0,0:0:0:0:
256,192,125050,1,8,0:0:0:0:
256,192,125271,1,4,0:0:0:0:
256,192,125712,1,8,0:0:0:0:
256,192,125786,1,8,0:0:0:0:
256,192,125859,1,8,0:0:0:0:
256,192,125933,1,0,0:0:0:0:
256,192,126153,1,12,0:0:0:0:
256,192,126594,1,8,0:0:0:0:
256,192,126705,1,8,0:0:0:0:
256,192,126815,1,8,0:0:0:0:
256,192,126925,1,8,0:0:0:0:
256,192,127036,1,4,0:0:0:0:
256,192,127477,1,8,0:0:0:0:
256,192,127918,1,12,0:0:0:0:
256,192,128359,1,8,0:0:0:0:
256,192,128800,1,0,0:0:0:0:
256,192,129242,1,8,0:0:0:0:
256,192,129683,1,12,0:0:0:0:
256,192,130124,1,8,0:0:0:0:
256,192,130565,1,4,0:0:0:0:
256,192,131006,1,8,0:0:0:0:
256,192,131080,1,8,0:0:0:0:
256,192,131153,1,8,0:0:0:0:
256,192,131227,1,0,0:0:0:0:
256,192,131447,1,12,0:0:0:0:
256,192,131889,1,8,0:0:0:0:
256,192,131962,1,8,0:0:0:0:
256,192,132036,1,0,0:0:0:0:
256,192,132109,1,0,0:0:0:0:
256,192,132330,1,4,0:0:0:0:
256,192,132771,1,8,0:0:0:0:
256,192,132844,1,8,0:0:0:0:
256,192,132918,1,8,0:0:0:0:
256,192,132992,1,0,0:0:0:0:
256,192,133212,1,12,0:0:0:0:
256,192,133653,1,8,0:0:0:0:
256,192,133764,1,8,0:0:0:0:
256,192,133874,1,8,0:0:0:0:
256,192,133984,1,8,0:0:0:0:
256,192,134094,1,4,0:0:0:0:
256,192,134536,1,0,0:0:0:0:
256,192,134977,1,12,0:0:0:0:
256,192,135418,1,0,0:0:0:0:
256,192,135859,1,0,0:0:0:0:
256,192,136300,1,0,0:0:0:0:
256,192,136742,1,12,0:0:0:0:
256,192,137183,1,0,0:0:0:0:
256,192,137624,1,4,0:0:0:0:
256,192,138065,1,8,0:0:0:0:
256,192,138139,1,8,0:0:0:0:
256,192,138212,1,8,0:0:0:0:
256,192,138286,1,0,0:0:0:0:
256,192,138506,1,12,0:0:0:0:
256,192,138727,1,8,0:0:0:0:
256,192,138837,1,0,0:0:0:0:
256,192,138947,1,8,0:0:0:0:
256,192,139058,1,8,0:0:0:0:
256,192,139168,1,0,0:0:0:0:
256,192,139278,1,8,0:0:0:0:
256,192,139389,1,0,0:0:0:0:
256,192,139499,1,0,0:0:0:0:
256,192,139609,1,8,0:0:0:0:
256,192,139719,1,8,0:0:0:0:
256,192,139830,1,0,0:0:0:0:
256,192,139940,1,0,0:0:0:0:
256,192,140050,1,0,0:0:0:0:
256,192,140161,1,0,0:0:0:0:
256,192,140712,12,0,140933,0:0:0:0:
256,192,141153,5,0,0:0:0:0:
256,192,141227,1,0,0:0:0:0:
256,192,141300,1,8,0:0:0:0:
256,192,141374,1,0,0:0:0:0:
256,192,141447,1,8,0:0:0:0:
256,192,141521,1,8,0:0:0:0:
256,192,141595,1,0,0:0:0:0:
256,192,141705,1,8,0:0:0:0:
256,192,141815,1,0,0:0:0:0:
256,192,141889,1,0,0:0:0:0:
256,192,141962,1,0,0:0:0:0:
256,192,142036,1,12,0:0:0:0:
256,192,142477,1,0,0:0:0:0:
256,192,142918,1,0,0:0:0:0:
256,192,142992,1,8,0:0:0:0:
256,192,143065,1,8,0:0:0:0:
256,192,143139,1,0,0:0:0:0:
256,192,143212,1,8,0:0:0:0:
256,192,143286,1,8,0:0:0:0:
256,192,143359,1,0,0:0:0:0:
256,192,143469,1,0,0:0:0:0:
256,192,143580,1,8,0:0:0:0:
256,192,143653,1,0,0:0:0:0:
256,192,143727,1,0,0:0:0:0:
256,192,143800,1,12,0:0:0:0:
256,192,144242,1,0,0:0:0:0:
256,192,144683,1,0,0:0:0:0:
256,192,144756,1,0,0:0:0:0:
256,192,144830,1,0,0:0:0:0:
256,192,144903,1,8,0:0:0:0:
256,192,144977,1,0,0:0:0:0:
256,192,145050,1,0,0:0:0:0:
256,192,145124,1,8,0:0:0:0:
256,192,145234,1,8,0:0:0:0:
256,192,145344,1,0,0:0:0:0:
256,192,145418,1,0,0:0:0:0:
256,192,145492,1,0,0:0:0:0:
256,192,145565,1,12,0:0:0:0:
256,192,146006,1,0,0:0:0:0:
256,192,146447,1,0,0:0:0:0:
256,192,146521,1,8,0:0:0:0:
256,192,146594,1,8,0:0:0:0:
256,192,146668,1,0,0:0:0:0:
256,192,146742,1,0,0:0:0:0:
256,192,146815,1,0,0:0:0:0:
256,192,146889,1,8,0:0:0:0:
256,192,146999,1,8,0:0:0:0:
256,192,147109,1,0,0:0:0:0:
256,192,147183,1,0,0:0:0:0:
256,192,147256,1,0,0:0:0:0:
256,192,147330,1,12,0:0:0:0:
256,192,147771,1,0,0:0:0:0:
256,192,147881,1,0,0:0:0:0:
256,192,148102,1,0,0:0:0:0:
256,192,148212,1,0,0:0:0:0:
256,192,148286,1,8,0:0:0:0:
256,192,148359,1,0,0:0:0:0:
256,192,148433,1,0,0:0:0:0:
256,192,148506,1,8,0:0:0:0:
256,192,148580,1,0,0:0:0:0:
256,192,148653,1,8,0:0:0:0:
256,192,148764,1,8,0:0:0:0:
256,192,148874,1,0,0:0:0:0:
256,192,148947,1,0,0:0:0:0:
256,192,149021,1,0,0:0:0:0:
256,192,149094,1,12,0:0:0:0:
256,192,149536,1,0,0:0:0:0:
256,192,149977,1,0,0:0:0:0:
256,192,150050,1,0,0:0:0:0:
256,192,150124,1,8,0:0:0:0:
256,192,150197,1,8,0:0:0:0:
256,192,150271,1,0,0:0:0:0:
256,192,150344,1,8,0:0:0:0:
256,192,150418,1,0,0:0:0:0:
256,192,150528,1,0,0:0:0:0:
256,192,150639,1,8,0:0:0:0:
256,192,150712,1,8,0:0:0:0:
256,192,150786,1,0,0:0:0:0:
256,192,150859,1,12,0:0:0:0:
256,192,151300,1,0,0:0:0:0:
256,192,151742,1,0,0:0:0:0:
256,192,151815,1,8,0:0:0:0:
256,192,151889,1,8,0:0:0:0:
256,192,151962,1,0,0:0:0:0:
256,192,152036,1,8,0:0:0:0:
256,192,152109,1,0,0:0:0:0:
256,192,152183,1,8,0:0:0:0:
256,192,152293,1,8,0:0:0:0:
256,192,152403,1,0,0:0:0:0:
256,192,152477,1,0,0:0:0:0:
256,192,152550,1,0,0:0:0:0:
256,192,152624,1,12,0:0:0:0:
256,192,153065,1,0,0:0:0:0:
256,192,153506,1,0,0:0:0:0:
256,192,153580,1,0,0:0:0:0:
256,192,153653,1,0,0:0:0:0:
256,192,153727,1,8,0:0:0:0:
256,192,153800,1,8,0:0:0:0:
256,192,153874,1,0,0:0:0:0:
256,192,153947,1,8,0:0:0:0:
256,192,154058,1,0,0:0:0:0:
256,192,154168,1,8,0:0:0:0:
256,192,154242,1,0,0:0:0:0:
256,192,154315,1,0,0:0:0:0:
256,192,154389,1,12,0:0:0:0:
256,192,154830,1,0,0:0:0:0:
256,192,154940,1,0,0:0:0:0:
256,192,155050,1,0,0:0:0:0:
256,192,155161,1,0,0:0:0:0:
256,192,155271,1,0,0:0:0:0:
256,192,155344,1,8,0:0:0:0:
256,192,155418,1,0,0:0:0:0:
256,192,155492,1,0,0:0:0:0:
256,192,155565,1,8,0:0:0:0:
256,192,155639,1,0,0:0:0:0:
256,192,155712,1,8,0:0:0:0:
256,192,155786,1,8,0:0:0:0:
256,192,155859,1,0,0:0:0:0:
256,192,155933,1,0,0:0:0:0:
256,192,156006,1,8,0:0:0:0:
256,192,156080,1,0,0:0:0:0:
256,192,156153,1,12,0:0:0:0:
256,192,156594,1,0,0:0:0:0:
256,192,157036,1,0,0:0:0:0:
256,192,157109,1,0,0:0:0:0:
256,192,157183,1,0,0:0:0:0:
256,192,157256,1,8,0:0:0:0:
256,192,157330,1,0,0:0:0:0:
256,192,157403,1,0,0:0:0:0:
256,192,157477,1,8,0:0:0:0:
256,192,157550,1,8,0:0:0:0:
256,192,157624,1,0,0:0:0:0:
256,192,157697,1,8,0:0:0:0:
256,192,157771,1,0,0:0:0:0:
256,192,157844,1,0,0:0:0:0:
256,192,157918,1,12,0:0:0:0:
256,192,158359,1,0,0:0:0:0:
256,192,158800,1,0,0:0:0:0:
256,192,158874,1,8,0:0:0:0:
256,192,158947,1,8,0:0:0:0:
256,192,159021,1,0,0:0:0:0:
256,192,159094,1,0,0:0:0:0:
256,192,159168,1,0,0:0:0:0:
256,192,159242,1,8,0:0:0:0:
256,192,159315,1,0,0:0:0:0:
256,192,159389,1,0,0:0:0:0:
256,192,159462,1,8,0:0:0:0:
256,192,159536,1,8,0:0:0:0:
256,192,159609,1,0,0:0:0:0:
256,192,159683,1,12,0:0:0:0:
256,192,160124,1,0,0:0:0:0:
256,192,160565,1,0,0:0:0:0:
256,192,160639,1,8,0:0:0:0:
256,192,160712,1,8,0:0:0:0:
256,192,160786,1,0,0:0:0:0:
256,192,160859,1,8,0:0:0:0:
256,192,160933,1,8,0:0:0:0:
256,192,161006,1,0,0:0:0:0:
256,192,161080,1,0,0:0:0:0:
256,192,161153,1,8,0:0:0:0:
256,192,161227,1,0,0:0:0:0:
256,192,161300,1,8,0:0:0:0:
256,192,161374,1,0,0:0:0:0:
256,192,161447,1,12,0:0:0:0:
256,192,161889,1,0,0:0:0:0:
256,192,161999,1,0,0:0:0:0:
256,192,162219,1,0,0:0:0:0:
256,192,162330,1,0,0:0:0:0:
256,192,162403,1,8,0:0:0:0:
256,192,162477,1,8,0:0:0:0:
256,192,162550,1,0,0:0:0:0:
256,192,162624,1,8,0:0:0:0:
256,192,162697,1,0,0:0:0:0:
256,192,162771,1,8,0:0:0:0:
256,192,162844,1,8,0:0:0:0:
256,192,162918,1,0,0:0:0:0:
256,192,162992,1,8,0:0:0:0:
256,192,163065,1,0,0:0:0:0:
256,192,163139,1,0,0:0:0:0:
256,192,163212,1,12,0:0:0:0:
256,192,163653,1,0,0:0:0:0:
256,192,164094,1,0,0:0:0:0:
256,192,164168,1,0,0:0:0:0:
256,192,164242,1,8,0:0:0:0:
256,192,164315,1,0,0:0:0:0:
256,192,164389,1,8,0:0:0:0:
256,192,164462,1,8,0:0:0:0:
256,192,164536,1,0,0:0:0:0:
256,192,164609,1,8,0:0:0:0:
256,192,164683,1,0,0:0:0:0:
256,192,164756,1,8,0:0:0:0:
256,192,164830,1,8,0:0:0:0:
256,192,164903,1,0,0:0:0:0:
256,192,164977,1,12,0:0:0:0:
256,192,165418,1,0,0:0:0:0:
256,192,165859,1,0,0:0:0:0:
256,192,165933,1,8,0:0:0:0:
256,192,166006,1,0,0:0:0:0:
256,192,166080,1,8,0:0:0:0:
256,192,166153,1,8,0:0:0:0:
256,192,166227,1,0,0:0:0:0:
256,192,166300,1,8,0:0:0:0:
256,192,166374,1,0,0:0:0:0:
256,192,166447,1,8,0:0:0:0:
256,192,166521,1,8,0:0:0:0:
256,192,166594,1,0,0:0:0:0:
256,192,166668,1,0,0:0:0:0:
256,192,166742,1,12,0:0:0:0:
256,192,167183,1,0,0:0:0:0:
256,192,167624,1,0,0:0:0:0:
256,192,167697,1,0,0:0:0:0:
256,192,167771,1,0,0:0:0:0:
256,192,167844,1,8,0:0:0:0:
256,192,167918,1,0,0:0:0:0:
256,192,167992,1,8,0:0:0:0:
256,192,168065,1,8,0:0:0:0:
256,192,168139,1,0,0:0:0:0:
256,192,168212,1,0,0:0:0:0:
256,192,168286,1,8,0:0:0:0:
256,192,168359,1,8,0:0:0:0:
256,192,168433,1,0,0:0:0:0:
256,192,168506,1,12,0:0:0:0:
256,192,168947,12,8,169168,0:0:0:0:
256,192,169389,5,4,0:0:0:0:
256,192,170050,1,8,0:0:0:0:
256,192,170271,1,4,0:0:0:0:
256,192,170712,1,8,0:0:0:0:
256,192,171153,1,4,0:0:0:0:
256,192,171374,1,8,0:0:0:0:
256,192,172036,1,4,0:0:0:0:
256,192,172477,1,4,0:0:0:0:
256,192,172918,1,4,0:0:0:0:
256,192,173580,1,8,0:0:0:0:
256,192,173800,1,4,0:0:0:0:
256,192,174242,1,8,0:0:0:0:
256,192,174683,1,4,0:0:0:0:
256,192,174903,1,8,0:0:0:0:
256,192,175565,1,4,0:0:0:0:
256,192,176006,1,4,0:0:0:0:
256,192,176337,1,0,0:0:0:0:
256,192,176447,1,0,0:0:0:0:
256,192,176889,1,12,0:0:0:0:
256,192,177330,1,0,0:0:0:0:
256,192,177771,1,12,0:0:0:0:
256,192,178212,1,0,0:0:0:0:
256,192,178653,1,12,0:0:0:0:
256,192,179094,1,0,0:0:0:0:
256,192,179536,1,12,0:0:0:0:
256,192,179977,1,0,0:0:0:0:
256,192,180418,1,12,0:0:0:0:
256,192,180859,1,0,0:0:0:0:
256,192,181300,1,12,0:0:0:0:
256,192,181742,1,0,0:0:0:0:
256,192,182183,1,12,0:0:0:0:
256,192,183065,1,12,0:0:0:0:
256,192,183506,1,0,0:0:0:0:
256,192,183617,1,0,0:0:0:0:
256,192,183727,1,8,0:0:0:0:
256,192,183837,1,0,0:0:0:0:
256,192,183947,1,8,0:0:0:0:
256,192,184058,1,8,0:0:0:0:
256,192,184168,1,0,0:0:0:0:
256,192,184278,1,8,0:0:0:0:
256,192,184389,1,0,0:0:0:0:
256,192,184499,1,0,0:0:0:0:
256,192,184609,1,8,0:0:0:0:
256,192,184719,1,0,0:0:0:0:
256,192,184830,1,8,0:0:0:0:
256,192,184940,1,8,0:0:0:0:
256,192,185050,1,0,0:0:0:0:
256,192,185161,1,0,0:0:0:0:
256,192,185271,1,8,0:0:0:0:
256,192,185381,1,0,0:0:0:0:
256,192,185492,1,0,0:0:0:0:
256,192,185602,1,0,0:0:0:0:
256,192,185712,1,8,0:0:0:0:
256,192,185822,1,0,0:0:0:0:
256,192,185933,1,0,0:0:0:0:
256,192,186043,1,8,0:0:0:0:
256,192,186153,1,0,0:0:0:0:
256,192,186264,1,8,0:0:0:0:
256,192,186374,1,0,0:0:0:0:
256,192,186484,1,0,0:0:0:0:
256,192,186594,1,8,0:0:0:0:
256,192,186705,1,0,0:0:0:0:
256,192,186815,1,8,0:0:0:0:
256,192,186925,1,8,0:0:0:0:
256,192,187036,1,0,0:0:0:0:
256,192,187146,1,8,0:0:0:0:
256,192,187256,1,0,0:0:0:0:
256,192,187367,1,0,0:0:0:0:
256,192,187477,1,8,0:0:0:0:
256,192,187587,1,8,0:0:0:0:
256,192,187697,1,0,0:0:0:0:
256,192,187808,1,8,0:0:0:0:
256,192,187918,1,0,0:0:0:0:
256,192,188028,1,0,0:0:0:0:
256,192,188139,1,8,0:0:0:0:
256,192,188249,1,0,0:0:0:0:
256,192,188359,1,8,0:0:0:0:
256,192,188469,1,8,0:0:0:0:
256,192,188580,1,0,0:0:0:0:
256,192,188690,1,0,0:0:0:0:
256,192,188800,1,8,0:0:0:0:
256,192,188911,1,0,0:0:0:0:
256,192,189021,1,0,0:0:0:0:
256,192,189131,1,8,0:0:0:0:
256,192,189242,1,8,0:0:0:0:
256,192,189352,1,0,0:0:0:0:
256,192,189462,1,0,0:0:0:0:
256,192,189572,1,0,0:0:0:0:
256,192,189683,1,8,0:0:0:0:
256,192,189793,1,8,0:0:0:0:
256,192,189903,1,0,0:0:0:0:
256,192,190014,1,8,0:0:0:0:
256,192,190124,1,0,0:0:0:0:
256,192,190234,1,0,0:0:0:0:
256,192,190345,1,8,0:0:0:0:
256,192,190455,1,8,0:0:0:0:
256,192,190565,1,0,0:0:0:0:
256,192,190675,1,0,0:0:0:0:
256,192,190786,1,8,0:0:0:0:
256,192,190896,1,0,0:0:0:0:
256,192,191006,1,8,0:0:0:0:
256,192,191117,1,8,0:0:0:0:
256,192,191227,1,0,0:0:0:0:
256,192,191337,1,8,0:0:0:0:
256,192,191447,1,0,0:0:0:0:
256,192,191558,1,0,0:0:0:0:
256,192,191668,1,8,0:0:0:0:
256,192,191778,1,0,0:0:0:0:
256,192,191889,1,8,0:0:0:0:
256,192,191999,1,8,0:0:0:0:
256,192,192109,1,0,0:0:0:0:
256,192,192219,1,0,0:0:0:0:
256,192,192330,1,8,0:0:0:0:
256,192,192440,1,0,0:0:0:0:
256,192,192550,1,0,0:0:0:0:
256,192,192661,1,0,0:0:0:0:
256,192,192771,1,8,0:0:0:0:
256,192,192881,1,0,0:0:0:0:
256,192,192992,1,0,0:0:0:0:
256,192,193102,1,8,0:0:0:0:
256,192,193212,1,0,0:0:0:0:
256,192,193322,1,8,0:0:0:0:
256,192,193433,1,0,0:0:0:0:
256,192,193543,1,0,0:0:0:0:
256,192,193653,1,8,0:0:0:0:
256,192,193764,1,0,0:0:0:0:
256,192,193874,1,8,0:0:0:0:
256,192,193984,1,8,0:0:0:0:
256,192,194094,1,0,0:0:0:0:
256,192,194205,1,8,0:0:0:0:
256,192,194315,1,0,0:0:0:0:
256,192,194425,1,0,0:0:0:0:
256,192,194536,1,8,0:0:0:0:
256,192,194646,1,8,0:0:0:0:
256,192,194756,1,0,0:0:0:0:
256,192,194867,1,8,0:0:0:0:
256,192,194977,1,0,0:0:0:0:
256,192,195087,1,0,0:0:0:0:
256,192,195197,1,8,0:0:0:0:
256,192,195308,1,0,0:0:0:0:
256,192,195418,1,8,0:0:0:0:
256,192,195528,1,8,0:0:0:0:
256,192,195639,1,0,0:0:0:0:
256,192,195749,1,0,0:0:0:0:
256,192,195859,1,8,0:0:0:0:
256,192,195969,1,0,0:0:0:0:
256,192,196080,1,0,0:0:0:0:
256,192,196190,1,8,0:0:0:0:
256,192,196300,1,8,0:0:0:0:
256,192,196411,1,0,0:0:0:0:
256,192,196521,1,0,0:0:0:0:
256,192,196631,1,0,0:0:0:0:
256,192,196742,1,8,0:0:0:0:
256,192,196852,1,8,0:0:0:0:
256,192,196962,1,0,0:0:0:0:
256,192,197072,1,8,0:0:0:0:
256,192,197183,1,0,0:0:0:0:
256,192,197293,1,0,0:0:0:0:
256,192,197403,1,8,0:0:0:0:
256,192,197514,1,8,0:0:0:0:
256,192,197624,1,0,0:0:0:0:
256,192,197734,1,0,0:0:0:0:
256,192,197844,1,8,0:0:0:0:
256,192,197955,1,0,0:0:0:0:
256,192,198065,1,8,0:0:0:0:
256,192,198175,1,8,0:0:0:0:
256,192,198286,1,8,0:0:0:0:
256,192,198396,1,8,0:0:0:0:
256,192,198506,1,0,0:0:0:0:
256,192,198617,1,0,0:0:0:0:
256,192,198727,1,8,0:0:0:0:
256,192,198837,1,0,0:0:0:0:
256,192,198947,1,8,0:0:0:0:
256,192,199058,1,8,0:0:0:0:
256,192,199168,1,0,0:0:0:0:
256,192,199278,1,0,0:0:0:0:
256,192,199389,1,8,0:0:0:0:
256,192,199499,1,0,0:0:0:0:
256,192,199609,1,0,0:0:0:0:
256,192,199719,1,0,0:0:0:0:
256,192,199830,1,8,0:0:0:0:
256,192,199940,1,8,0:0:0:0:
256,192,200050,1,0,0:0:0:0:
256,192,200161,1,8,0:0:0:0:
256,192,200271,1,0,0:0:0:0:
256,192,200381,1,8,0:0:0:0:
256,192,200492,1,8,0:0:0:0:
256,192,200602,1,0,0:0:0:0:
256,192,200712,1,8,0:0:0:0:
256,192,200822,1,0,0:0:0:0:
256,192,200933,1,8,0:0:0:0:
256,192,201043,1,8,0:0:0:0:
256,192,201153,1,0,0:0:0:0:
256,192,201264,1,8,0:0:0:0:
256,192,201374,1,0,0:0:0:0:
256,192,201484,1,0,0:0:0:0:
256,192,201594,1,8,0:0:0:0:
256,192,201705,1,8,0:0:0:0:
256,192,201815,1,8,0:0:0:0:
256,192,201925,1,8,0:0:0:0:
256,192,202036,1,0,0:0:0:0:
256,192,202146,1,0,0:0:0:0:
256,192,202256,1,8,0:0:0:0:
256,192,202367,1,0,0:0:0:0:
256,192,202477,1,8,0:0:0:0:
256,192,202587,1,8,0:0:0:0:
256,192,202697,1,0,0:0:0:0:
256,192,202808,1,0,0:0:0:0:
256,192,202918,1,8,0:0:0:0:
256,192,203028,1,0,0:0:0:0:
256,192,203139,1,0,0:0:0:0:
256,192,203249,1,8,0:0:0:0:
256,192,203359,1,8,0:0:0:0:
256,192,203469,1,0,0:0:0:0:
256,192,203580,1,0,0:0:0:0:
256,192,203690,1,0,0:0:0:0:
256,192,203800,1,8,0:0:0:0:
256,192,203911,1,8,0:0:0:0:
256,192,204021,1,0,0:0:0:0:
256,192,204131,1,8,0:0:0:0:
256,192,204242,1,0,0:0:0:0:
256,192,204352,1,0,0:0:0:0:
256,192,204462,1,8,0:0:0:0:
256,192,204572,1,8,0:0:0:0:
256,192,204683,1,0,0:0:0:0:
256,192,204793,1,0,0:0:0:0:
256,192,204903,1,8,0:0:0:0:
256,192,205014,1,0,0:0:0:0:
256,192,205124,1,8,0:0:0:0:
256,192,205234,1,8,0:0:0:0:
256,192,205344,1,8,0:0:0:0:
256,192,205455,1,8,0:0:0:0:
256,192,205565,1,0,0:0:0:0:
256,192,205675,1,0,0:0:0:0:
256,192,205786,1,8,0:0:0:0:
256,192,205896,1,0,0:0:0:0:
256,192,206006,1,8,0:0:0:0:
256,192,206117,1,8,0:0:0:0:
256,192,206227,1,0,0:0:0:0:
256,192,206337,1,0,0:0:0:0:
256,192,206447,1,8,0:0:0:0:
256,192,206558,1,0,0:0:0:0:
256,192,206668,1,0,0:0:0:0:
256,192,206778,1,0,0:0:0:0:
256,192,206889,1,8,0:0:0:0:
256,192,206999,1,8,0:0:0:0:
256,192,207109,1,0,0:0:0:0:
256,192,207219,1,8,0:0:0:0:
256,192,207330,1,0,0:0:0:0:
256,192,207440,1,8,0:0:0:0:
256,192,207550,1,8,0:0:0:0:
256,192,207661,1,0,0:0:0:0:
256,192,207771,1,8,0:0:0:0:
256,192,207881,1,0,0:0:0:0:
256,192,207992,1,8,0:0:0:0:
256,192,208102,1,8,0:0:0:0:
256,192,208212,1,0,0:0:0:0:
256,192,208322,1,8,0:0:0:0:
256,192,208433,1,0,0:0:0:0:
256,192,208543,1,0,0:0:0:0:
256,192,208653,1,8,0:0:0:0:
256,192,208764,1,8,0:0:0:0:
256,192,208874,1,8,0:0:0:0:
256,192,208984,1,8,0:0:0:0:
256,192,209094,1,0,0:0:0:0:
256,192,209205,1,0,0:0:0:0:
256,192,209315,1,8,0:0:0:0:
256,192,209425,1,0,0:0:0:0:
256,192,209536,1,8,0:0:0:0:
256,192,209646,1,8,0:0:0:0:
256,192,209756,1,0,0:0:0:0:
256,192,209867,1,0,0:0:0:0:
256,192,209977,1,8,0:0:0:0:
256,192,210087,1,0,0:0:0:0:
256,192,210197,1,0,0:0:0:0:
256,192,210308,1,8,0:0:0:0:
256,192,210418,1,8,0:0:0:0:
256,192,210528,1,0,0:0:0:0:
256,192,210639,1,0,0:0:0:0:
256,192,210749,1,0,0:0:0:0:
256,192,210859,1,8,0:0:0:0:
256,192,210969,1,8,0:0:0:0:
256,192,211080,1,0,0:0:0:0:
256,192,211190,1,8,0:0:0:0:
256,192,211300,1,0,0:0:0:0:
256,192,211411,1,0,0:0:0:0:
256,192,211521,1,8,0:0:0:0:
256,192,211631,1,8,0:0:0:0:
256,192,211743,1,4,0:0:0:0:
256,192,212403,1,8,0:0:0:0:
256,192,212624,1,0,0:0:0:0:
256,192,213065,1,8,0:0:0:0:
256,192,213506,1,0,0:0:0:0:
256,192,213727,1,8,0:0:0:0:
256,192,214389,1,0,0:0:0:0:
256,192,214830,1,8,0:0:0:0:
256,192,215272,1,4,0:0:0:0:
256,192,215933,1,8,0:0:0:0:
256,192,216153,1,0,0:0:0:0:
256,192,216594,1,8,0:0:0:0:
256,192,217036,1,0,0:0:0:0:
256,192,217256,1,8,0:0:0:0:
256,192,217918,1,0,0:0:0:0:
256,192,218359,1,8,0:0:0:0:
256,192,218801,1,4,0:0:0:0:
256,192,219462,1,8,0:0:0:0:
256,192,219683,1,0,0:0:0:0:
256,192,220124,1,8,0:0:0:0:
256,192,220565,1,0,0:0:0:0:
256,192,220786,1,8,0:0:0:0:
256,192,221447,1,0,0:0:0:0:
256,192,221889,1,8,0:0:0:0:
256,192,222331,1,4,0:0:0:0:
256,192,222992,1,8,0:0:0:0:
256,192,223212,1,0,0:0:0:0:
256,192,223653,1,8,0:0:0:0:
256,192,224094,1,0,0:0:0:0:
256,192,224315,1,8,0:0:0:0:
256,192,224977,1,0,0:0:0:0:
256,192,225418,1,8,0:0:0:0:
256,192,225859,1,0,0:0:0:0:
256,192,226190,1,0,0:0:0:0:
256,192,226521,1,8,0:0:0:0:
256,192,226852,1,0,0:0:0:0:
256,192,227183,1,8,0:0:0:0:
256,192,227403,1,0,0:0:0:0:
256,192,227624,1,8,0:0:0:0:
256,192,227955,1,0,0:0:0:0:
256,192,228286,1,8,0:0:0:0:
256,192,228617,1,8,0:0:0:0:
256,192,228947,1,0,0:0:0:0:
256,192,229168,1,0,0:0:0:0:
256,192,229389,1,8,0:0:0:0:
256,192,229719,1,0,0:0:0:0:
256,192,230050,1,8,0:0:0:0:
256,192,230381,1,0,0:0:0:0:
256,192,230712,1,8,0:0:0:0:
256,192,230933,1,8,0:0:0:0:
256,192,231153,1,0,0:0:0:0:
256,192,231484,1,8,0:0:0:0:
256,192,231815,1,8,0:0:0:0:
256,192,232146,1,0,0:0:0:0:
256,192,232477,1,0,0:0:0:0:
256,192,232697,1,8,0:0:0:0:
256,192,232918,1,0,0:0:0:0:
256,192,233249,1,0,0:0:0:0:
256,192,233580,1,8,0:0:0:0:
256,192,233911,1,8,0:0:0:0:
256,192,234242,1,0,0:0:0:0:
256,192,234462,1,0,0:0:0:0:
256,192,234683,1,8,0:0:0:0:
256,192,235014,1,0,0:0:0:0:
256,192,235344,1,8,0:0:0:0:
256,192,235675,1,0,0:0:0:0:
256,192,236006,1,8,0:0:0:0:
256,192,236227,1,8,0:0:0:0:
256,192,236447,1,0,0:0:0:0:
256,192,236778,1,0,0:0:0:0:
256,192,237109,1,8,0:0:0:0:
256,192,237440,1,0,0:0:0:0:
256,192,237771,1,8,0:0:0:0:
256,192,237992,1,0,0:0:0:0:
256,192,238212,1,8,0:0:0:0:
256,192,238543,1,0,0:0:0:0:
256,192,238874,1,8,0:0:0:0:
256,192,239205,1,8,0:0:0:0:
256,192,239536,1,0,0:0:0:0:
256,192,239646,1,0,0:0:0:0:
256,192,239756,1,0,0:0:0:0:
256,192,239867,1,0,0:0:0:0:
256,192,239977,1,0,0:0:0:0:
256,192,240859,1,12,0:0:0:0:
256,192,241300,1,0,0:0:0:0:
256,192,242624,1,12,0:0:0:0:
256,192,243065,1,0,0:0:0:0:
256,192,243506,1,0,0:0:0:0:
256,192,244389,1,12,0:0:0:0:
256,192,244830,1,0,0:0:0:0:
256,192,246153,1,12,0:0:0:0:
256,192,247036,1,0,0:0:0:0:
256,192,247918,1,12,0:0:0:0:
256,192,248359,1,0,0:0:0:0:
256,192,249683,1,12,0:0:0:0:
256,192,250124,1,0,0:0:0:0:
256,192,250565,1,0,0:0:0:0:
256,192,251447,1,12,0:0:0:0:
256,192,251889,1,0,0:0:0:0:
256,192,254094,5,0,0:0:0:0:
256,192,254389,1,0,0:0:0:0:
256,192,254536,1,0,0:0:0:0:
256,192,254756,1,0,0:0:0:0:
256,192,255308,1,0,0:0:0:0:
256,192,255639,1,0,0:0:0:0:
256,192,256080,1,0,0:0:0:0:
256,192,256300,1,0,0:0:0:0:
256,192,256742,1,0,0:0:0:0:
256,192,257293,1,0,0:0:0:0:
256,192,257514,1,0,0:0:0:0:
256,192,257918,1,0,0:0:0:0:
256,192,258065,1,0,0:0:0:0:
256,192,258286,1,0,0:0:0:0:
256,192,258837,1,0,0:0:0:0:
256,192,259168,1,0,0:0:0:0:
256,192,259609,1,0,0:0:0:0:
256,192,259830,1,0,0:0:0:0:
256,192,260271,1,0,0:0:0:0:
256,192,260822,1,0,0:0:0:0:
256,192,261043,1,0,0:0:0:0:
256,192,261447,1,0,0:0:0:0:
256,192,261594,1,0,0:0:0:0:
256,192,261815,1,0,0:0:0:0:
256,192,262367,1,0,0:0:0:0:
256,192,262697,1,0,0:0:0:0:
256,192,263139,1,0,0:0:0:0:
256,192,263359,1,0,0:0:0:0:
256,192,263800,1,0,0:0:0:0:
256,192,264352,1,0,0:0:0:0:
256,192,264572,1,0,0:0:0:0:
256,192,264977,1,0,0:0:0:0:
256,192,265124,1,0,0:0:0:0:
256,192,265344,1,0,0:0:0:0:
256,192,265896,1,0,0:0:0:0:
256,192,266227,1,0,0:0:0:0:
256,192,266668,1,0,0:0:0:0:
256,192,266889,1,0,0:0:0:0:
256,192,267330,1,0,0:0:0:0:
256,192,267881,1,0,0:0:0:0:
256,192,268102,1,0,0:0:0:0:
256,192,268322,1,8,0:0:0:0:
256,192,268653,1,8,0:0:0:0:
256,192,268874,1,8,0:0:0:0:
256,192,269205,1,8,0:0:0:0:
256,192,269756,1,8,0:0:0:0:
256,192,270087,1,8,0:0:0:0:
256,192,270308,1,8,0:0:0:0:
256,192,270859,1,8,0:0:0:0:
256,192,271631,1,8,0:0:0:0:
256,192,271852,1,8,0:0:0:0:
256,192,272183,1,8,0:0:0:0:
256,192,272403,1,8,0:0:0:0:
256,192,272734,1,8,0:0:0:0:
256,192,273286,1,8,0:0:0:0:
256,192,273617,1,8,0:0:0:0:
256,192,273837,1,8,0:0:0:0:
256,192,274389,1,8,0:0:0:0:
256,192,275161,1,8,0:0:0:0:
256,192,275381,1,8,0:0:0:0:
256,192,275712,1,8,0:0:0:0:
256,192,275933,1,8,0:0:0:0:
256,192,276264,1,8,0:0:0:0:
256,192,276815,1,8,0:0:0:0:
256,192,277146,1,8,0:0:0:0:
256,192,277367,1,8,0:0:0:0:
256,192,277918,1,8,0:0:0:0:
256,192,278690,1,8,0:0:0:0:
256,192,278911,1,8,0:0:0:0:
256,192,279242,1,8,0:0:0:0:
256,192,279462,1,8,0:0:0:0:
256,192,279793,1,8,0:0:0:0:
256,192,280344,1,8,0:0:0:0:
256,192,280675,1,8,0:0:0:0:
256,192,280896,1,8,0:0:0:0:
256,192,281447,1,8,0:0:0:0:
256,192,282330,1,0,0:0:0:0:
256,192,282440,1,8,0:0:0:0:
256,192,282661,1,8,0:0:0:0:
256,192,282771,1,8,0:0:0:0:
256,192,282992,1,8,0:0:0:0:
256,192,283322,1,8,0:0:0:0:
256,192,283543,1,8,0:0:0:0:
256,192,283653,1,0,0:0:0:0:
256,192,283874,1,8,0:0:0:0:
256,192,284205,1,8,0:0:0:0:
256,192,284315,1,0,0:0:0:0:
256,192,284425,1,8,0:0:0:0:
256,192,284536,1,0,0:0:0:0:
256,192,284756,1,8,0:0:0:0:
256,192,284977,1,8,0:0:0:0:
256,192,285124,1,8,0:0:0:0:
256,192,285271,1,8,0:0:0:0:
256,192,285418,1,8,0:0:0:0:
256,192,285565,1,8,0:0:0:0:
256,192,285712,1,8,0:0:0:0:
256,192,285859,1,0,0:0:0:0:
256,192,285969,1,8,0:0:0:0:
256,192,286190,1,8,0:0:0:0:
256,192,286300,1,0,0:0:0:0:
256,192,286521,1,8,0:0:0:0:
256,192,286852,1,8,0:0:0:0:
256,192,287072,1,8,0:0:0:0:
256,192,287183,1,0,0:0:0:0:
256,192,287403,1,8,0:0:0:0:
256,192,287734,1,8,0:0:0:0:
256,192,287844,1,0,0:0:0:0:
256,192,287955,1,8,0:0:0:0:
256,192,288065,1,0,0:0:0:0:
256,192,288286,1,0,0:0:0:0:
256,192,288506,1,8,0:0:0:0:
256,192,288837,1,0,0:0:0:0:
256,192,288947,1,0,0:0:0:0:
256,192,289058,1,0,0:0:0:0:
256,192,289278,1,8,0:0:0:0:
256,192,289389,1,0,0:0:0:0:
256,192,289499,1,8,0:0:0:0:
256,192,289719,1,8,0:0:0:0:
256,192,289830,1,8,0:0:0:0:
256,192,290050,1,8,0:0:0:0:
256,192,290381,1,8,0:0:0:0:
256,192,290602,1,8,0:0:0:0:
256,192,290712,1,0,0:0:0:0:
256,192,290933,1,8,0:0:0:0:
256,192,291264,1,8,0:0:0:0:
256,192,291374,1,0,0:0:0:0:
256,192,291484,1,8,0:0:0:0:
256,192,291594,1,0,0:0:0:0:
256,192,291815,1,8,0:0:0:0:
256,192,292036,1,8,0:0:0:0:
256,192,292183,1,8,0:0:0:0:
256,192,292330,1,8,0:0:0:0:
256,192,292477,1,8,0:0:0:0:
256,192,292624,1,8,0:0:0:0:
256,192,292771,1,8,0:0:0:0:
256,192,292918,1,0,0:0:0:0:
256,192,293028,1,8,0:0:0:0:
256,192,293249,1,8,0:0:0:0:
256,192,293359,1,0,0:0:0:0:
256,192,293580,1,8,0:0:0:0:
256,192,293911,1,8,0:0:0:0:
256,192,294131,1,8,0:0:0:0:
256,192,294242,1,0,0:0:0:0:
256,192,294462,1,8,0:0:0:0:
256,192,294793,1,8,0:0:0:0:
256,192,294903,1,0,0:0:0:0:
256,192,295014,1,8,0:0:0:0:
256,192,295124,1,0,0:0:0:0:
256,192,295344,1,0,0:0:0:0:
256,192,295565,1,8,0:0:0:0:
256,192,295896,1,0,0:0:0:0:
256,192,296006,1,0,0:0:0:0:
256,192,296117,1,0,0:0:0:0:
256,192,296337,1,8,0:0:0:0:
256,192,296447,1,0,0:0:0:0:
256,192,296558,1,8,0:0:0:0:
256,192,296778,1,8,0:0:0:0:
256,192,296889,1,8,0:0:0:0:
256,192,297109,1,8,0:0:0:0:
256,192,297440,1,8,0:0:0:0:
256,192,297661,1,8,0:0:0:0:
256,192,297771,1,0,0:0:0:0:
256,192,297992,1,8,0:0:0:0:
256,192,298322,1,8,0:0:0:0:
256,192,298433,1,0,0:0:0:0:
256,192,298543,1,8,0:0:0:0:
256,192,298653,1,0,0:0:0:0:
256,192,298874,1,8,0:0:0:0:
256,192,299094,1,8,0:0:0:0:
256,192,299242,1,8,0:0:0:0:
256,192,299389,1,8,0:0:0:0:
256,192,299536,1,8,0:0:0:0:
256,192,299683,1,8,0:0:0:0:
256,192,299830,1,8,0:0:0:0:
256,192,299977,1,0,0:0:0:0:
256,192,300087,1,8,0:0:0:0:
256,192,300308,1,8,0:0:0:0:
256,192,300418,1,0,0:0:0:0:
256,192,300639,1,8,0:0:0:0:
256,192,300969,1,8,0:0:0:0:
256,192,301190,1,8,0:0:0:0:
256,192,301300,1,0,0:0:0:0:
256,192,301521,1,8,0:0:0:0:
256,192,301852,1,8,0:0:0:0:
256,192,301962,1,0,0:0:0:0:
256,192,302072,1,8,0:0:0:0:
256,192,302183,1,0,0:0:0:0:
256,192,302403,1,0,0:0:0:0:
256,192,302624,1,8,0:0:0:0:
256,192,302955,1,0,0:0:0:0:
256,192,303065,1,0,0:0:0:0:
256,192,303175,1,0,0:0:0:0:
256,192,303396,1,8,0:0:0:0:
256,192,303506,1,0,0:0:0:0:
256,192,303617,1,8,0:0:0:0:
256,192,303837,1,8,0:0:0:0:
256,192,303947,1,8,0:0:0:0:
256,192,304168,1,8,0:0:0:0:
256,192,304499,1,8,0:0:0:0:
256,192,304719,1,8,0:0:0:0:
256,192,304830,1,0,0:0:0:0:
256,192,305050,1,8,0:0:0:0:
256,192,305381,1,8,0:0:0:0:
256,192,305492,1,0,0:0:0:0:
256,192,305602,1,8,0:0:0:0:
256,192,305712,1,0,0:0:0:0:
256,192,305933,1,8,0:0:0:0:
256,192,306153,1,8,0:0:0:0:
256,192,306300,1,8,0:0:0:0:
256,192,306447,1,8,0:0:0:0:
256,192,306594,1,8,0:0:0:0:
256,192,306742,1,8,0:0:0:0:
256,192,306889,1,8,0:0:0:0:
256,192,307036,1,0,0:0:0:0:
256,192,307146,1,8,0:0:0:0:
256,192,307367,1,8,0:0:0:0:
256,192,307477,1,0,0:0:0:0:
256,192,307697,1,8,0:0:0:0:
256,192,308028,1,8,0:0:0:0:
256,192,308249,1,8,0:0:0:0:
256,192,308359,1,0,0:0:0:0:
256,192,308580,1,8,0:0:0:0:
256,192,308911,1,8,0:0:0:0:
256,192,309021,1,0,0:0:0:0:
256,192,309131,1,8,0:0:0:0:
256,192,309242,1,0,0:0:0:0:
256,192,309462,1,0,0:0:0:0:
256,192,309683,1,8,0:0:0:0:
256,192,310014,1,0,0:0:0:0:
256,192,310124,1,0,0:0:0:0:
256,192,310234,1,0,0:0:0:0:
256,192,310455,1,8,0:0:0:0:
256,192,310565,1,0,0:0:0:0:
256,192,310675,1,8,0:0:0:0:
256,192,310896,1,8,0:0:0:0:
256,192,311006,1,8,0:0:0:0:
256,192,311227,1,8,0:0:0:0:
256,192,311447,1,12,0:0:0:0:
256,192,311668,1,0,0:0:0:0:
256,192,311778,1,8,0:0:0:0:
256,192,311889,1,0,0:0:0:0:
256,192,312109,1,8,0:0:0:0:
256,192,312440,1,8,0:0:0:0:
256,192,312550,1,0,0:0:0:0:
256,192,312661,1,8,0:0:0:0:
256,192,312771,1,0,0:0:0:0:
256,192,312992,1,8,0:0:0:0:
256,192,313212,1,12,0:0:0:0:
256,192,313359,1,8,0:0:0:0:
256,192,313506,1,8,0:0:0:0:
256,192,313653,1,8,0:0:0:0:
256,192,313800,1,8,0:0:0:0:
256,192,313947,1,8,0:0:0:0:
256,192,314094,1,0,0:0:0:0:
256,192,314205,1,8,0:0:0:0:
256,192,314425,1,8,0:0:0:0:
256,192,314536,1,0,0:0:0:0:
256,192,314756,1,8,0:0:0:0:
256,192,314977,1,12,0:0:0:0:
256,192,315197,1,8,0:0:0:0:
256,192,315308,1,8,0:0:0:0:
256,192,315418,1,0,0:0:0:0:
256,192,315639,1,8,0:0:0:0:
256,192,315969,1,8,0:0:0:0:
256,192,316080,1,0,0:0:0:0:
256,192,316190,1,8,0:0:0:0:
256,192,316300,1,0,0:0:0:0:
256,192,316521,1,0,0:0:0:0:
256,192,316742,1,12,0:0:0:0:
256,192,317072,1,0,0:0:0:0:
256,192,317183,1,0,0:0:0:0:
256,192,317293,1,0,0:0:0:0:
256,192,317514,1,8,0:0:0:0:
256,192,317624,1,0,0:0:0:0:
256,192,317734,1,8,0:0:0:0:
256,192,317955,1,8,0:0:0:0:
256,192,318065,1,8,0:0:0:0:
256,192,318286,1,8,0:0:0:0:
256,192,318506,1,12,0:0:0:0:
256,192,318727,1,0,0:0:0:0:
256,192,318837,1,8,0:0:0:0:
256,192,318947,1,0,0:0:0:0:
256,192,319168,1,8,0:0:0:0:
256,192,319499,1,8,0:0:0:0:
256,192,319609,1,0,0:0:0:0:
256,192,319719,1,8,0:0:0:0:
256,192,319830,1,0,0:0:0:0:
256,192,320050,1,8,0:0:0:0:
256,192,320271,1,12,0:0:0:0:
256,192,320418,1,8,0:0:0:0:
256,192,320565,1,8,0:0:0:0:
256,192,320712,1,8,0:0:0:0:
256,192,320859,1,8,0:0:0:0:
256,192,321006,1,8,0:0:0:0:
256,192,321153,1,0,0:0:0:0:
256,192,321264,1,8,0:0:0:0:
256,192,321484,1,8,0:0:0:0:
256,192,321594,1,0,0:0:0:0:
256,192,321815,1,8,0:0:0:0:
256,192,322036,1,12,0:0:0:0:
256,192,322256,1,8,0:0:0:0:
256,192,322367,1,8,0:0:0:0:
256,192,322477,1,0,0:0:0:0:
256,192,322697,1,8,0:0:0:0:
256,192,323028,1,8,0:0:0:0:
256,192,323139,1,0,0:0:0:0:
256,192,323249,1,8,0:0:0:0:
256,192,323359,1,0,0:0:0:0:
256,192,323580,1,0,0:0:0:0:
256,192,323800,1,12,0:0:0:0:
256,192,324131,1,0,0:0:0:0:
256,192,324242,1,0,0:0:0:0:
256,192,324352,1,0,0:0:0:0:
256,192,324572,1,8,0:0:0:0:
256,192,324683,1,0,0:0:0:0:
256,192,324793,1,8,0:0:0:0:
256,192,325014,1,8,0:0:0:0:
256,192,325124,1,8,0:0:0:0:
256,192,325344,1,8,0:0:0:0:
256,192,325565,1,12,0:0:0:0:
256,192,325786,1,0,0:0:0:0:
256,192,325896,1,8,0:0:0:0:
256,192,326006,1,0,0:0:0:0:
256,192,326227,1,8,0:0:0:0:
256,192,326558,1,8,0:0:0:0:
256,192,326668,1,0,0:0:0:0:
256,192,326778,1,8,0:0:0:0:
256,192,326889,1,0,0:0:0:0:
256,192,327109,1,8,0:0:0:0:
256,192,327330,1,12,0:0:0:0:
256,192,327477,1,8,0:0:0:0:
256,192,327624,1,8,0:0:0:0:
256,192,327771,1,8,0:0:0:0:
256,192,327918,1,8,0:0:0:0:
256,192,328065,1,8,0:0:0:0:
256,192,328212,1,0,0:0:0:0:
256,192,328322,1,8,0:0:0:0:
256,192,328543,1,8,0:0:0:0:
256,192,328653,1,0,0:0:0:0:
256,192,328874,1,8,0:0:0:0:
256,192,329094,1,12,0:0:0:0:
256,192,329315,1,8,0:0:0:0:
256,192,329425,1,8,0:0:0:0:
256,192,329536,1,0,0:0:0:0:
256,192,329756,1,8,0:0:0:0:
256,192,330087,1,8,0:0:0:0:
256,192,330197,1,0,0:0:0:0:
256,192,330308,1,8,0:0:0:0:
256,192,330418,1,0,0:0:0:0:
256,192,330639,1,0,0:0:0:0:
256,192,330859,1,12,0:0:0:0:
256,192,331190,1,0,0:0:0:0:
256,192,331300,1,0,0:0:0:0:
256,192,331411,1,0,0:0:0:0:
256,192,331631,1,8,0:0:0:0:
256,192,331742,1,0,0:0:0:0:
256,192,331852,1,8,0:0:0:0:
256,192,332072,1,8,0:0:0:0:
256,192,332183,1,8,0:0:0:0:
256,192,332403,1,8,0:0:0:0:
256,192,332624,1,12,0:0:0:0:
256,192,332844,1,0,0:0:0:0:
256,192,332955,1,8,0:0:0:0:
256,192,333065,1,0,0:0:0:0:
256,192,333286,1,8,0:0:0:0:
256,192,333617,1,8,0:0:0:0:
256,192,333727,1,0,0:0:0:0:
256,192,333837,1,8,0:0:0:0:
256,192,333947,1,0,0:0:0:0:
256,192,334168,1,8,0:0:0:0:
256,192,334389,1,12,0:0:0:0:
256,192,334536,1,8,0:0:0:0:
256,192,334683,1,8,0:0:0:0:
256,192,334830,1,8,0:0:0:0:
256,192,334977,1,8,0:0:0:0:
256,192,335124,1,8,0:0:0:0:
256,192,335271,1,0,0:0:0:0:
256,192,335381,1,8,0:0:0:0:
256,192,335602,1,8,0:0:0:0:
256,192,335712,1,0,0:0:0:0:
256,192,335933,1,8,0:0:0:0:
256,192,336264,1,8,0:0:0:0:
256,192,336484,1,8,0:0:0:0:
256,192,336594,1,0,0:0:0:0:
256,192,336815,1,8,0:0:0:0:
256,192,337146,1,8,0:0:0:0:
256,192,337256,1,0,0:0:0:0:
256,192,337367,1,8,0:0:0:0:
256,192,337477,1,0,0:0:0:0:
256,192,337697,1,0,0:0:0:0:
256,192,337918,1,8,0:0:0:0:
256,192,338469,1,0,0:0:0:0:
256,192,338690,1,8,0:0:0:0:
256,192,338800,1,0,0:0:0:0:
256,192,338911,1,8,0:0:0:0:
256,192,339131,1,8,0:0:0:0:
256,192,339242,1,8,0:0:0:0:
256,192,339462,1,8,0:0:0:0:
256,192,339683,1,12,0:0:0:0:
256,192,339903,1,0,0:0:0:0:
256,192,340014,1,8,0:0:0:0:
256,192,340124,1,0,0:0:0:0:
256,192,340344,1,8,0:0:0:0:
256,192,340565,1,0,0:0:0:0:
256,192,340675,1,8,0:0:0:0:
256,192,340786,1,0,0:0:0:0:
256,192,340896,1,8,0:0:0:0:
256,192,341006,1,0,0:0:0:0:
256,192,341227,1,8,0:0:0:0:
256,192,341447,1,12,0:0:0:0:
256,192,341594,1,0,0:0:0:0:
256,192,341742,1,0,0:0:0:0:
256,192,341889,1,8,0:0:0:0:
256,192,342036,1,8,0:0:0:0:
256,192,342183,1,8,0:0:0:0:
256,192,342330,1,0,0:0:0:0:
256,192,342440,1,8,0:0:0:0:
256,192,342661,1,8,0:0:0:0:
256,192,342771,1,0,0:0:0:0:
256,192,342992,1,8,0:0:0:0:
256,192,343212,1,12,0:0:0:0:
256,192,343433,1,8,0:0:0:0:
256,192,343543,1,8,0:0:0:0:
256,192,343653,1,0,0:0:0:0:
256,192,343874,1,8,0:0:0:0:
256,192,344094,1,8,0:0:0:0:
256,192,344205,1,8,0:0:0:0:
256,192,344315,1,0,0:0:0:0:
256,192,344425,1,8,0:0:0:0:
256,192,344536,1,0,0:0:0:0:
256,192,344756,1,0,0:0:0:0:
256,192,344977,1,12,0:0:0:0:
256,192,345197,1,0,0:0:0:0:
256,192,345308,1,8,0:0:0:0:
256,192,345418,1,0,0:0:0:0:
256,192,345528,1,0,0:0:0:0:
256,192,345749,1,8,0:0:0:0:
256,192,345859,1,0,0:0:0:0:
256,192,345969,1,8,0:0:0:0:
256,192,346190,1,8,0:0:0:0:
256,192,346300,1,8,0:0:0:0:
256,192,346521,1,8,0:0:0:0:
256,192,346742,1,12,0:0:0:0:
256,192,346962,1,0,0:0:0:0:
256,192,347072,1,8,0:0:0:0:
256,192,347183,1,0,0:0:0:0:
256,192,347403,1,8,0:0:0:0:
256,192,347624,1,0,0:0:0:0:
256,192,347734,1,8,0:0:0:0:
256,192,347844,1,0,0:0:0:0:
256,192,347955,1,8,0:0:0:0:
256,192,348065,1,0,0:0:0:0:
256,192,348286,1,8,0:0:0:0:
256,192,348506,1,12,0:0:0:0:
256,192,348653,1,0,0:0:0:0:
256,192,348800,1,0,0:0:0:0:
256,192,348947,1,8,0:0:0:0:
256,192,349094,1,8,0:0:0:0:
256,192,349242,1,8,0:0:0:0:
256,192,349389,1,0,0:0:0:0:
256,192,349499,1,8,0:0:0:0:
256,192,349719,1,8,0:0:0:0:
256,192,349830,1,0,0:0:0:0:
256,192,350050,1,8,0:0:0:0:
256,192,350271,1,12,0:0:0:0:
256,192,350492,1,8,0:0:0:0:
256,192,350602,1,8,0:0:0:0:
256,192,350712,1,0,0:0:0:0:
256,192,350933,1,8,0:0:0:0:
256,192,351153,1,8,0:0:0:0:
256,192,351264,1,8,0:0:0:0:
256,192,351374,1,0,0:0:0:0:
256,192,351484,1,8,0:0:0:0:
256,192,351594,1,0,0:0:0:0:
256,192,351815,1,0,0:0:0:0:
256,192,352036,1,12,0:0:0:0:
256,192,352256,1,0,0:0:0:0:
256,192,352367,1,8,0:0:0:0:
256,192,352477,1,0,0:0:0:0:
256,192,352587,1,0,0:0:0:0:
256,192,352808,1,8,0:0:0:0:
256,192,352918,1,0,0:0:0:0:
256,192,353249,1,0,0:0:0:0:
256,192,353580,1,0,0:0:0:0:
256,192,353800,1,12,0:0:0:0:
256,192,354021,1,0,0:0:0:0:
256,192,354131,1,8,0:0:0:0:
256,192,354242,1,0,0:0:0:0:
256,192,354462,1,8,0:0:0:0:
256,192,354683,1,0,0:0:0:0:
256,192,354793,1,8,0:0:0:0:
256,192,354903,1,0,0:0:0:0:
256,192,355014,1,8,0:0:0:0:
256,192,355124,1,0,0:0:0:0:
256,192,355344,1,8,0:0:0:0:
256,192,355565,1,12,0:0:0:0:
256,192,355712,1,0,0:0:0:0:
256,192,355859,1,0,0:0:0:0:
256,192,356006,1,8,0:0:0:0:
256,192,356153,1,8,0:0:0:0:
256,192,356300,1,8,0:0:0:0:
256,192,356447,1,0,0:0:0:0:
256,192,356558,1,8,0:0:0:0:
256,192,356778,1,8,0:0:0:0:
256,192,356889,1,0,0:0:0:0:
256,192,357109,1,8,0:0:0:0:
256,192,357330,1,12,0:0:0:0:
256,192,357550,1,8,0:0:0:0:
256,192,357661,1,8,0:0:0:0:
256,192,357771,1,0,0:0:0:0:
256,192,357992,1,8,0:0:0:0:
256,192,358212,1,8,0:0:0:0:
256,192,358322,1,8,0:0:0:0:
256,192,358433,1,0,0:0:0:0:
256,192,358543,1,8,0:0:0:0:
256,192,358653,1,0,0:0:0:0:
256,192,358874,1,0,0:0:0:0:
256,192,359094,1,12,0:0:0:0:
256,192,359315,1,0,0:0:0:0:
256,192,359425,1,8,0:0:0:0:
256,192,359536,1,0,0:0:0:0:
256,192,359646,1,0,0:0:0:0:
256,192,359867,1,8,0:0:0:0:
256,192,359977,1,0,0:0:0:0:
256,192,360087,1,8,0:0:0:0:
256,192,360308,1,8,0:0:0:0:
256,192,360418,1,8,0:0:0:0:
256,192,360639,1,8,0:0:0:0:
256,192,360859,1,12,0:0:0:0:
256,192,361080,1,0,0:0:0:0:
256,192,361190,1,8,0:0:0:0:
256,192,361300,1,0,0:0:0:0:
256,192,361521,1,8,0:0:0:0:
256,192,361742,1,0,0:0:0:0:
256,192,361852,1,8,0:0:0:0:
256,192,361962,1,0,0:0:0:0:
256,192,362072,1,8,0:0:0:0:
256,192,362183,1,0,0:0:0:0:
256,192,362403,1,8,0:0:0:0:
256,192,362624,1,12,0:0:0:0:
256,192,362771,1,0,0:0:0:0:
256,192,362918,1,0,0:0:0:0:
256,192,363065,1,8,0:0:0:0:
256,192,363212,1,8,0:0:0:0:
256,192,363359,1,8,0:0:0:0:
256,192,363506,1,0,0:0:0:0:
256,192,363617,1,8,0:0:0:0:
256,192,363837,1,8,0:0:0:0:
256,192,363947,1,0,0:0:0:0:
256,192,364168,1,8,0:0:0:0:
256,192,364389,1,12,0:0:0:0:
256,192,364609,1,8,0:0:0:0:
256,192,364719,1,8,0:0:0:0:
256,192,364830,1,0,0:0:0:0:
256,192,365050,1,8,0:0:0:0:
256,192,365271,1,8,0:0:0:0:
256,192,365381,1,8,0:0:0:0:
256,192,365492,1,0,0:0:0:0:
256,192,365602,1,8,0:0:0:0:
256,192,365712,1,0,0:0:0:0:
256,192,365933,1,0,0:0:0:0:
256,192,366153,1,8,0:0:0:0:
256,192,366484,1,0,0:0:0:0:
256,192,366594,1,0,0:0:0:0:
256,192,366705,1,0,0:0:0:0:
256,192,366925,1,8,0:0:0:0:
256,192,367036,1,0,0:0:0:0:
256,192,367146,1,8,0:0:0:0:
256,192,367367,1,8,0:0:0:0:
256,192,367477,1,8,0:0:0:0:
256,192,367587,1,0,0:0:0:0:
256,192,367697,1,8,0:0:0:0:
256,192,367918,1,12,0:0:0:0:
256,192,368139,1,0,0:0:0:0:
256,192,368249,1,8,0:0:0:0:
256,192,368359,1,0,0:0:0:0:
256,192,368580,1,8,0:0:0:0:
256,192,368800,1,0,0:0:0:0:
256,192,368911,1,8,0:0:0:0:
256,192,369021,1,0,0:0:0:0:
256,192,369131,1,8,0:0:0:0:
256,192,369242,1,0,0:0:0:0:
256,192,369462,1,8,0:0:0:0:
256,192,369683,1,12,0:0:0:0:
256,192,369830,1,8,0:0:0:0:
256,192,369977,1,8,0:0:0:0:
256,192,370124,1,0,0:0:0:0:
256,192,370271,1,8,0:0:0:0:
256,192,370418,1,8,0:0:0:0:
256,192,370565,1,0,0:0:0:0:
256,192,370675,1,8,0:0:0:0:
256,192,370896,1,8,0:0:0:0:
256,192,371006,1,0,0:0:0:0:
256,192,371117,1,8,0:0:0:0:
256,192,371227,1,8,0:0:0:0:
256,192,371447,1,12,0:0:0:0:
256,192,371668,1,8,0:0:0:0:
256,192,371778,1,8,0:0:0:0:
256,192,371889,1,0,0:0:0:0:
256,192,372109,1,8,0:0:0:0:
256,192,372330,1,8,0:0:0:0:
256,192,372440,1,8,0:0:0:0:
256,192,372550,1,0,0:0:0:0:
256,192,372661,1,8,0:0:0:0:
256,192,372771,1,0,0:0:0:0:
256,192,372992,1,0,0:0:0:0:
256,192,373212,1,12,0:0:0:0:
256,192,373433,1,0,0:0:0:0:
256,192,373543,1,8,0:0:0:0:
256,192,373653,1,0,0:0:0:0:
256,192,373764,1,0,0:0:0:0:
256,192,373984,1,8,0:0:0:0:
256,192,374094,1,0,0:0:0:0:
256,192,374205,1,8,0:0:0:0:
256,192,374425,1,8,0:0:0:0:
256,192,374536,1,8,0:0:0:0:
256,192,374646,1,0,0:0:0:0:
256,192,374756,1,8,0:0:0:0:
256,192,374977,1,12,0:0:0:0:
256,192,375197,1,0,0:0:0:0:
256,192,375308,1,8,0:0:0:0:
256,192,375418,1,0,0:0:0:0:
256,192,375639,1,8,0:0:0:0:
256,192,375859,1,0,0:0:0:0:
256,192,375969,1,8,0:0:0:0:
256,192,376080,1,0,0:0:0:0:
256,192,376190,1,8,0:0:0:0:
256,192,376300,1,0,0:0:0:0:
256,192,376521,1,8,0:0:0:0:
256,192,376742,1,12,0:0:0:0:
256,192,376889,1,8,0:0:0:0:
256,192,377036,1,8,0:0:0:0:
256,192,377183,1,0,0:0:0:0:
256,192,377330,1,8,0:0:0:0:
256,192,377477,1,8,0:0:0:0:
256,192,377624,1,0,0:0:0:0:
256,192,377734,1,8,0:0:0:0:
256,192,377955,1,8,0:0:0:0:
256,192,378065,1,0,0:0:0:0:
256,192,378175,1,8,0:0:0:0:
256,192,378286,1,8,0:0:0:0:
256,192,378506,1,12,0:0:0:0:
256,192,378727,1,8,0:0:0:0:
256,192,378837,1,8,0:0:0:0:
256,192,378947,1,0,0:0:0:0:
256,192,379168,1,8,0:0:0:0:
256,192,379389,1,8,0:0:0:0:
256,192,379499,1,8,0:0:0:0:
256,192,379609,1,0,0:0:0:0:
256,192,379719,1,8,0:0:0:0:
256,192,379830,1,0,0:0:0:0:
256,192,380050,1,0,0:0:0:0:
256,192,380271,1,12,0:0:0:0:
256,192,380492,1,0,0:0:0:0:
256,192,380602,1,8,0:0:0:0:
256,192,380712,1,0,0:0:0:0:
256,192,380822,1,0,0:0:0:0:
256,192,381043,1,8,0:0:0:0:
256,192,381153,1,0,0:0:0:0:
256,192,381264,1,8,0:0:0:0:
256,192,381484,1,8,0:0:0:0:
256,192,381594,1,8,0:0:0:0:
256,192,381705,1,0,0:0:0:0:
256,192,381815,1,8,0:0:0:0:
256,192,382036,1,12,0:0:0:0:
256,192,382256,1,0,0:0:0:0:
256,192,382367,1,8,0:0:0:0:
256,192,382477,1,0,0:0:0:0:
256,192,382697,1,8,0:0:0:0:
256,192,382918,1,0,0:0:0:0:
256,192,383028,1,8,0:0:0:0:
256,192,383139,1,0,0:0:0:0:
256,192,383249,1,8,0:0:0:0:
256,192,383359,1,0,0:0:0:0:
256,192,383580,1,8,0:0:0:0:
256,192,383800,1,12,0:0:0:0:
256,192,383947,1,8,0:0:0:0:
256,192,384094,1,8,0:0:0:0:
256,192,384242,1,0,0:0:0:0:
256,192,384389,1,8,0:0:0:0:
256,192,384536,1,8,0:0:0:0:
256,192,384683,1,0,0:0:0:0:
256,192,384793,1,8,0:0:0:0:
256,192,385014,1,8,0:0:0:0:
256,192,385124,1,0,0:0:0:0:
256,192,385234,1,8,0:0:0:0:
256,192,385344,1,8,0:0:0:0:
256,192,385565,1,12,0:0:0:0:
256,192,385786,1,8,0:0:0:0:
256,192,385896,1,8,0:0:0:0:
256,192,386006,1,0,0:0:0:0:
256,192,386227,1,8,0:0:0:0:
256,192,386447,1,8,0:0:0:0:
256,192,386558,1,8,0:0:0:0:
256,192,386668,1,0,0:0:0:0:
256,192,386778,1,8,0:0:0:0:
256,192,386889,1,0,0:0:0:0:
256,192,387109,1,0,0:0:0:0:
256,192,387330,1,12,0:0:0:0:
256,192,387550,1,0,0:0:0:0:
256,192,387661,1,8,0:0:0:0:
256,192,387771,1,0,0:0:0:0:
256,192,387881,1,0,0:0:0:0:
256,192,388102,1,8,0:0:0:0:
256,192,388212,1,0,0:0:0:0:
256,192,388322,1,8,0:0:0:0:
256,192,388543,1,8,0:0:0:0:
256,192,388653,1,8,0:0:0:0:
256,192,388764,1,0,0:0:0:0:
256,192,388874,1,8,0:0:0:0:
256,192,389094,1,12,0:0:0:0:
256,192,389315,1,0,0:0:0:0:
256,192,389425,1,8,0:0:0:0:
256,192,389536,1,0,0:0:0:0:
256,192,389756,1,8,0:0:0:0:
256,192,389977,1,0,0:0:0:0:
256,192,390087,1,8,0:0:0:0:
256,192,390197,1,0,0:0:0:0:
256,192,390308,1,8,0:0:0:0:
256,192,390418,1,0,0:0:0:0:
256,192,390639,1,8,0:0:0:0:
256,192,390859,1,12,0:0:0:0:
256,192,391006,1,8,0:0:0:0:
256,192,391153,1,8,0:0:0:0:
256,192,391300,1,0,0:0:0:0:
256,192,391447,1,8,0:0:0:0:
256,192,391594,1,8,0:0:0:0:
256,192,391742,1,0,0:0:0:0:
256,192,391852,1,8,0:0:0:0:
256,192,392072,1,8,0:0:0:0:
256,192,392183,1,0,0:0:0:0:
256,192,392293,1,8,0:0:0:0:
256,192,392403,1,8,0:0:0:0:
256,192,392624,1,12,0:0:0:0:
256,192,392844,1,8,0:0:0:0:
256,192,392955,1,8,0:0:0:0:
256,192,393065,1,0,0:0:0:0:
256,192,393286,1,8,0:0:0:0:
256,192,393506,1,8,0:0:0:0:
256,192,393617,1,8,0:0:0:0:
256,192,393727,1,0,0:0:0:0:
256,192,393837,1,8,0:0:0:0:
256,192,393947,1,0,0:0:0:0:
256,192,394168,1,0,0:0:0:0:
256,192,394389,1,12,0:0:0:0:
256,192,394609,1,0,0:0:0:0:
256,192,394719,1,8,0:0:0:0:
256,192,394830,1,0,0:0:0:0:
256,192,394940,1,0,0:0:0:0:
256,192,395161,1,8,0:0:0:0:
