osu file format v14

[General]
AudioFilename: audio.mp3
AudioLeadIn: 0
PreviewTime: 546
Countdown: 1
SampleSet: None
StackLeniency: 0.7
Mode: 0
LetterboxInBreaks: 0
WidescreenStoryboard: 1

[Editor]
Bookmarks: 12834
DistanceSpacing: 2
BeatDivisor: 3
GridSize: 8
TimelineZoom: 1.6

[Metadata]
Title:XVoIR
TitleUnicode:XVoIR
Artist:XVoIR
ArtistUnicode:XVoIR
Creator:XVoIR
Version:Turbo Techno 2000
Source:
Tags:unknown artist legia to chuje fleshgod apocalypse warpledge 220 bpm polish poland polska shitcore speedcore mashup remix fast
BeatmapID:1695292
BeatmapSetID:583889

[Difficulty]
HPDrainRate:6
CircleSize:4
OverallDifficulty:9
ApproachRate:10
SliderMultiplier:2
SliderTickRate:1

[Events]
//Background and Video events
0,0,"xD!.jpg",0,0
//Break Periods
//Storyboard Layer 0 (Background)
//Storyboard Layer 1 (Fail)
//Storyboard Layer 2 (Pass)
//Storyboard Layer 3 (Foreground)
//Storyboard Sound Samples

[TimingPoints]
0,273.084765511215,4,3,0,100,1,0
3003,-50,4,3,0,100,0,0
3277,-100,4,3,0,100,0,0
6417,-66.6666666666667,4,3,0,100,0,0
6554,-50,4,3,0,100,0,0
6963,-50,4,3,0,5,0,0
7100,-100,4,3,0,100,0,0
9831,-50,4,3,0,100,0,0
9899,-50,4,3,0,5,0,0
9967,-50,4,3,0,100,0,0
10035,-50,4,3,0,5,0,0
10104,-100,4,3,0,100,0,0
11742,-50,4,3,0,100,0,0
12015,-100,4,3,0,100,0,0
15292,-1000,4,2,0,100,0,0
15702,-1000,4,2,0,5,0,0
15838,-250,4,2,0,100,0,0
18842,-50,4,2,0,100,0,0
19662,-100,4,3,0,100,0,0
25669,-1000,4,2,0,100,0,0
26079,-1000,4,2,0,5,0,0
26216,-200,4,2,0,100,0,0
29129,-66.6666666666667,4,2,0,100,0,0
29629,-1000,4,2,0,100,0,0
30448,-1000,4,2,0,5,0,0
30585,-100,4,3,0,100,0,0
34954,-1000,4,2,0,100,0,0
35501,-1000,4,2,0,5,0,0

[HitObjects]
46,222,273,5,0,0:0:0:0:
385,184,546,1,0,0:0:0:0:
66,220,819,5,0,0:0:0:0:
295,253,955,1,0,0:0:0:0:
166,169,1092,5,0,0:0:0:0:
160,131,1160,1,0,0:0:0:0:
154,94,1228,1,0,0:0:0:0:
148,57,1296,1,0,0:0:0:0:
142,20,1365,1,0,0:0:0:0:
137,266,1501,2,0,P|158:274|193:273,1,50
241,344,1638,5,0,0:0:0:0:
287,326,1706,1,0,0:0:0:0:
324,293,1774,1,0,0:0:0:0:
345,248,1842,1,0,0:0:0:0:
349,198,1911,2,0,P|348:175|339:147,1,50
253,102,2048,2,0,P|257:77|263:63,3,25
276,49,2184,6,0,L|404:67,1,100
185,184,2457,5,0,0:0:0:0:
147,178,2525,1,0,0:0:0:0:
110,173,2593,1,0,0:0:0:0:
73,168,2661,1,0,0:0:0:0:
36,163,2730,6,0,L|41:194,7,25
98,250,3003,6,0,L|90:298,7,50,2|2|2|2|2|2|2|2,0:3|0:3|0:3|0:3|0:3|0:3|0:3|0:3,0:3:0:0:
156,362,3277,6,0,P|207:358|257:326,1,100
381,318,3550,1,0,0:0:0:0:
401,272,3618,1,0,0:0:0:0:
406,223,3686,1,0,0:0:0:0:
395,174,3754,1,0,0:0:0:0:
369,132,3823,1,0,0:0:0:0:
241,26,3959,1,0,0:0:0:0:
241,26,4028,1,0,0:0:0:0:
241,26,4096,2,0,L|351:38,1,100
464,53,4369,5,0,0:0:0:0:
275,122,4505,1,0,0:0:0:0:
403,244,4642,1,0,0:0:0:0:
438,234,4710,1,0,0:0:0:0:
467,210,4778,1,0,0:0:0:0:
482,176,4846,1,0,0:0:0:0:
482,139,4915,2,0,P|476:113|468:102,7,25
404,156,5188,1,0,0:0:0:0:
396,205,5256,1,0,0:0:0:0:
388,254,5324,1,0,0:0:0:0:
380,304,5392,1,0,0:0:0:0:
373,353,5461,6,0,B|319:363|267:323|267:323|219:286|163:310,1,200
173,328,5768,2,0,L|169:358,3,25
82,213,6007,1,0,0:0:0:0:
314,149,6144,1,0,0:0:0:0:
312,137,6212,1,0,0:0:0:0:
309,124,6280,2,0,P|268:117|241:107,1,50
51,328,6417,1,0,0:0:0:0:
65,142,6554,6,0,B|70:176|96:202|131:208|131:208|165:214|199:196|215:165|215:165|230:133|265:116|300:123|300:123|334:130|361:160|363:195|363:195|365:230|344:262|311:274|311:274|278:286|241:274|220:245,1,600
417,109,7100,6,0,P|442:174|438:247,1,100
376,373,7373,1,0,0:0:0:0:
285,201,7509,1,0,0:0:0:0:
126,338,7646,6,0,P|184:321|226:298,1,100
378,235,7919,2,0,P|319:218|277:195,1,100
146,77,8192,1,0,0:0:0:0:
181,235,8329,1,0,0:0:0:0:
319,42,8465,1,0,0:0:0:0:
284,200,8602,1,0,0:0:0:0:
60,124,8738,5,0,0:0:0:0:
341,39,8875,1,0,0:0:0:0:
255,287,9011,2,0,L|246:392,1,100
131,327,9284,5,0,0:0:0:0:
384,278,9421,1,0,0:0:0:0:
384,278,9489,1,0,0:0:0:0:
384,278,9557,2,0,L|511:254,1,100
320,79,9831,6,0,B|314:111|314:111|321:149|321:149|313:189,1,100,2|0,0:0|0:0,0:0:0:0:
395,117,9967,2,0,B|401:85|401:85|394:47|394:47|399:18,1,100,2|0,0:0|0:0,0:0:0:0:
460,183,10104,6,0,P|416:207|387:214,1,50
148,178,10240,2,0,P|192:154|221:147,1,50
488,183,10377,2,0,P|436:211|402:220,1,50
119,177,10513,2,0,P|171:149|205:140,1,50
147,261,10650,2,0,P|121:270|105:274,7,25
91,272,10923,6,0,L|76:374,1,100
326,123,11196,2,0,P|323:90|314:69,1,50
213,320,11333,2,0,P|216:353|225:374,1,50
314,303,11469,6,0,L|318:273,7,25
395,254,11742,6,2,L|387:198,7,50
460,169,12015,6,0,L|417:69,1,100
277,37,12288,2,0,P|245:33|206:42,1,50
87,184,12425,2,0,P|111:180|136:182,1,50
254,221,12561,5,0,0:0:0:0:
106,287,12698,1,0,0:0:0:0:
349,335,12834,5,0,0:0:0:0:
118,291,12971,1,0,0:0:0:0:
374,341,13108,6,0,P|416:309|457:229,1,100
288,137,13381,2,0,P|283:125|285:75,1,50
477,253,13517,2,0,P|482:265|480:315,1,50
420,354,13654,6,0,P|392:364|377:366,7,25
322,318,13927,2,0,P|272:310|207:330,1,100
96,353,14200,6,0,P|126:279|134:153,1,200
73,96,14541,1,0,0:0:0:0:
73,96,14610,2,0,P|32:93|-13:105,1,50
217,167,14746,2,0,L|327:153,1,100
490,135,15019,1,0,0:0:0:0:
342,79,15156,2,0,L|302:85,2,25
391,179,15292,6,0,L|388:212,1,30
381,297,15838,6,0,B|251:268|117:317|117:317|88:261|88:261|150:120|150:120|247:133|258:218,1,640
40,188,18296,2,0,L|96:65,1,120
216,18,18842,6,0,B|199:66|199:66|175:101|175:101|166:131|166:131|142:161|142:161|140:201|140:201|113:241|113:241|88:268|88:268|71:307|71:307|64:348|64:348|25:433,2,400,2|2|2,0:0|0:0|0:0,0:0:0:0:
463,342,19662,5,0,0:0:0:0:
440,332,19730,1,0,0:0:0:0:
419,318,19798,1,0,0:0:0:0:
401,300,19866,1,0,0:0:0:0:
370,285,19935,5,0,0:0:0:0:
354,250,20003,1,0,0:0:0:0:
350,213,20071,1,0,0:0:0:0:
356,176,20139,1,0,0:0:0:0:
387,145,20208,5,0,0:0:0:0:
385,95,20276,1,0,0:0:0:0:
357,54,20344,1,0,0:0:0:0:
312,34,20412,1,0,0:0:0:0:
263,40,20481,6,0,P|233:73|225:109,1,50
126,91,20617,2,0,P|128:135|147:166,1,50
43,213,20754,5,0,0:0:0:0:
73,252,20822,1,0,0:0:0:0:
115,278,20890,1,0,0:0:0:0:
164,289,20958,1,0,0:0:0:0:
213,284,21027,5,0,0:0:0:0:
261,268,21095,1,0,0:0:0:0:
303,243,21163,1,0,0:0:0:0:
340,209,21231,1,0,0:0:0:0:
367,167,21300,5,0,0:0:0:0:
423,141,21368,1,0,0:0:0:0:
482,158,21436,1,0,0:0:0:0:
512,209,21504,1,0,0:0:0:0:
509,269,21573,6,0,P|499:304|466:338,1,50
357,360,21710,2,0,P|367:325|400:291,1,50
433,219,21846,6,0,L|426:183,7,25
359,133,22119,6,0,L|366:97,7,25
456,75,22392,5,0,0:0:0:0:
440,48,22460,1,0,0:0:0:0:
417,27,22528,1,0,0:0:0:0:
388,14,22596,1,0,0:0:0:0:
357,10,22665,5,0,0:0:0:0:
327,16,22733,1,0,0:0:0:0:
300,31,22801,1,0,0:0:0:0:
278,54,22869,1,0,0:0:0:0:
265,82,22938,5,0,0:0:0:0:
229,115,23007,1,0,0:0:0:0:
180,118,23075,1,0,0:0:0:0:
140,90,23143,1,0,0:0:0:0:
126,43,23212,5,0,0:0:0:0:
173,83,23280,1,0,0:0:0:0:
183,143,23348,1,0,0:0:0:0:
154,197,23416,1,0,0:0:0:0:
97,220,23485,6,0,P|63:224|30:207,1,50
250,194,23621,2,0,P|284:190|317:207,1,50
406,283,23758,6,0,P|392:336|387:343,1,50
300,178,23894,2,0,P|314:125|319:118,1,50
462,57,24031,5,0,0:0:0:0:
427,72,24099,1,0,0:0:0:0:
390,74,24167,1,0,0:0:0:0:
355,62,24235,1,0,0:0:0:0:
326,38,24304,1,0,0:0:0:0:
276,36,24372,1,0,0:0:0:0:
229,52,24440,1,0,0:0:0:0:
190,82,24508,1,0,0:0:0:0:
163,124,24577,6,0,L|168:163,7,25
110,216,24850,6,0,L|105:254,7,25
199,276,25123,6,0,L|194:237,7,25
252,184,25396,6,0,L|256:145,7,25
291,262,25669,6,0,B|298:264|298:264|306:264|306:264|316:263|316:263|323:265,1,30
274,323,26216,6,0,B|241:314|221:281|228:247|228:247|236:214|268:193|301:198|301:198|346:201|387:168|392:123|392:123|398:78|368:36|323:28|323:28|245:73|164:34|164:34|137:38|115:55|107:80|107:80|97:104|103:133|120:152|120:152|137:172|164:180|190:175,1,850
313,115,28673,5,0,0:0:0:0:
496,192,28855,1,0,0:0:0:0:
284,234,29038,1,0,0:0:0:0:
257,208,29129,6,0,B|224:214|224:214|190:204|190:204|165:214|165:214|113:209|113:209|91:221|91:221|68:219|68:219|36:222|36:222|28:229|28:229|21:244|21:244|0:260|0:260|4:281|4:281|-4:301|-4:301|14:331|14:331|41:347|41:347|71:383|71:383,1,400.00001525879
246,330,29629,6,0,P|217:324|187:323,1,60
325,364,30585,5,0,0:0:0:0:
327,314,30653,1,0,0:0:0:0:
308,268,30721,1,0,0:0:0:0:
271,236,30789,1,0,0:0:0:0:
223,223,30858,5,0,0:0:0:0:
175,210,30926,1,0,0:0:0:0:
139,177,30994,1,0,0:0:0:0:
122,130,31062,1,0,0:0:0:0:
129,81,31131,6,0,P|143:59|175:33,1,50
282,47,31268,2,0,P|307:40|348:44,1,50
321,139,31404,5,0,0:0:0:0:
370,137,31472,1,0,0:0:0:0:
411,110,31540,1,0,0:0:0:0:
433,66,31608,1,0,0:0:0:0:
429,17,31677,5,0,0:0:0:0:
403,59,31745,1,0,0:0:0:0:
401,109,31813,1,0,0:0:0:0:
421,154,31881,1,0,0:0:0:0:
461,184,31950,5,0,0:0:0:0:
491,223,32018,1,0,0:0:0:0:
500,272,32086,1,0,0:0:0:0:
485,319,32154,1,0,0:0:0:0:
451,355,32224,6,0,P|406:368|381:365,1,50
271,375,32360,2,0,P|229:352|214:332,1,50
93,343,32497,6,0,P|80:298|83:273,1,50
73,163,32633,2,0,P|95:121|115:106,1,50
183,42,32770,5,0,0:0:0:0:
207,84,32838,1,0,0:0:0:0:
213,134,32906,1,0,0:0:0:0:
198,181,32974,1,0,0:0:0:0:
165,218,33043,5,0,0:0:0:0:
202,251,33111,1,0,0:0:0:0:
251,261,33179,1,0,0:0:0:0:
298,247,33247,1,0,0:0:0:0:
333,212,33316,5,0,0:0:0:0:
371,181,33384,1,0,0:0:0:0:
420,175,33452,1,0,0:0:0:0:
465,196,33520,1,0,0:0:0:0:
491,238,33589,5,0,0:0:0:0:
497,287,33657,1,0,0:0:0:0:
475,331,33725,1,0,0:0:0:0:
433,357,33793,1,0,0:0:0:0:
384,356,33862,6,0,P|360:337|347:300,1,50
371,181,33999,2,0,P|395:161|408:124,1,50
304,51,34135,5,0,0:0:0:0:
254,58,34203,1,0,0:0:0:0:
205,66,34271,1,0,0:0:0:0:
155,74,34339,1,0,0:0:0:0:
106,82,34408,6,0,P|98:118|101:147,1,50
220,191,34545,2,0,P|228:226|225:255,1,50
104,303,34681,5,0,0:0:0:0:
168,360,34749,1,0,0:0:0:0:
253,366,34817,1,0,0:0:0:0:
326,320,34885,1,0,0:0:0:0:
355,239,34954,6,0,L|346:195,1,40
