osu file format v14

[General]
AudioFilename: audio.mp3
AudioLeadIn: 0
PreviewTime: 116307
Countdown: 1
SampleSet: Normal
StackLeniency: 0.7
Mode: 0
LetterboxInBreaks: 0
WidescreenStoryboard: 0

[Editor]
DistanceSpacing: 1
BeatDivisor: 4
GridSize: 4
TimelineZoom: 5.299996

[Metadata]
Title:Vodovorot
TitleUnicode:Водоворот
Artist:XS Project
ArtistUnicode:XS Project
Creator:XenjeS
Version:Prepare your ANUS
Source:
Tags:
BeatmapID:1532455
BeatmapSetID:725825

[Difficulty]
HPDrainRate:4
CircleSize:3.8
OverallDifficulty:8
ApproachRate:9.7
SliderMultiplier:2.8
SliderTickRate:1

[Events]
//Background and Video events
0,0,"007.jpg",0,0
//Break Periods
2,27501,38007
//Storyboard Layer 0 (Background)
//Storyboard Layer 1 (Fail)
//Storyboard Layer 2 (Pass)
//Storyboard Layer 3 (Foreground)
//Storyboard Sound Samples

[TimingPoints]
100,400.026668444563,4,1,0,100,1,0
5000,-76.9230769230769,4,1,0,100,0,0
40102,-76.9230769230769,4,1,0,100,0,1
52903,-100,4,1,0,100,0,0
53170,-71.4285714285714,4,1,0,100,0,0
104106,-90.9090909090909,4,1,0,100,0,1
116507,-100,4,1,0,100,0,0
142509,-142.857142857143,4,1,0,100,0,0
142909,-100,4,1,0,100,0,0
152110,-500,4,1,0,100,0,0

[HitObjects]
104,80,1700,5,0,0:0:0:0:
292,200,1900,1,0,0:0:0:0:
32,160,2100,5,0,0:0:0:0:
212,280,2300,1,0,0:0:0:0:
460,136,2500,5,0,0:0:0:0:
352,296,2700,1,0,0:0:0:0:
384,84,2900,5,0,0:0:0:0:
328,180,3000,1,0,0:0:0:0:
272,80,3100,1,0,0:0:0:0:
104,104,3300,5,0,0:0:0:0:
88,136,3400,1,0,0:0:0:0:
84,168,3500,1,0,0:0:0:0:
92,200,3600,1,0,0:0:0:0:
108,228,3700,1,0,0:0:0:0:
288,88,3900,1,0,0:0:0:0:
408,172,4100,5,0,0:0:0:0:
200,304,4300,1,0,0:0:0:0:
168,88,4500,5,0,0:0:0:0:
256,176,4600,1,0,0:0:0:0:
284,64,4700,1,0,0:0:0:0:
404,196,4900,5,0,0:0:0:0:
108,128,5100,1,0,0:0:0:0:
128,264,5300,5,0,0:0:0:0:
356,76,5500,1,0,0:0:0:0:
332,296,5700,5,0,0:0:0:0:
192,68,5900,1,0,0:0:0:0:
172,260,6100,5,0,0:0:0:0:
172,260,6200,1,0,0:0:0:0:
172,260,6300,1,0,0:0:0:0:
388,100,6500,5,0,0:0:0:0:
388,100,6600,1,0,0:0:0:0:
388,100,6700,1,0,0:0:0:0:
388,100,6800,1,0,0:0:0:0:
388,100,6900,1,0,0:0:0:0:
180,156,7100,1,0,0:0:0:0:
368,264,7300,5,0,0:0:0:0:
232,68,7500,1,0,0:0:0:0:
424,148,7700,5,0,0:0:0:0:
200,268,7900,1,0,0:0:0:0:
100,104,8100,5,0,0:0:0:0:
260,124,8200,1,0,0:0:0:0:
364,232,8300,1,0,0:0:0:0:
392,64,8500,5,0,0:0:0:0:
168,216,8700,1,0,0:0:0:0:
320,300,8900,5,0,0:0:0:0:
176,100,9100,1,0,0:0:0:0:
400,208,9300,5,0,0:0:0:0:
308,108,9400,1,0,0:0:0:0:
400,208,9500,1,0,0:0:0:0:
208,248,9700,5,0,0:0:0:0:
140,192,9800,1,0,0:0:0:0:
92,128,9900,1,0,0:0:0:0:
184,160,10000,1,0,0:0:0:0:
280,176,10100,1,0,0:0:0:0:
392,68,10300,5,0,0:0:0:0:
160,56,10500,5,0,0:0:0:0:
360,192,10700,1,0,0:0:0:0:
144,252,10900,5,0,0:0:0:0:
184,148,11000,1,0,0:0:0:0:
224,324,11100,1,0,0:0:0:0:
372,112,11300,5,0,0:0:0:0:
408,248,11400,1,0,0:0:0:0:
372,112,11500,1,0,0:0:0:0:
156,108,11700,6,0,L|268:140,1,90.9999958343508
340,268,11900,2,0,L|220:232,1,90.9999958343508
88,40,12100,2,0,L|200:72,1,90.9999958343508
428,332,12300,2,0,L|308:296,1,90.9999958343508
244,160,12500,5,0,0:0:0:0:
244,160,12600,1,0,0:0:0:0:
244,160,12700,1,0,0:0:0:0:
420,128,12900,6,0,B|300:84|300:84|140:68,1,272.999987503052
108,164,13300,5,0,0:0:0:0:
372,268,13700,5,0,0:0:0:0:
232,64,14100,5,0,0:0:0:0:
188,292,14300,5,0,0:0:0:0:
188,292,14400,1,0,0:0:0:0:
188,292,14500,1,0,0:0:0:0:
328,208,14634,1,0,0:0:0:0:
328,208,14700,1,0,0:0:0:0:
96,164,14900,5,0,0:0:0:0:
344,308,15101,1,0,0:0:0:0:
264,72,15301,5,0,0:0:0:0:
104,300,15501,1,0,0:0:0:0:
324,284,15701,5,0,0:0:0:0:
264,152,15801,1,0,0:0:0:0:
152,64,15901,1,0,0:0:0:0:
136,184,16101,5,0,0:0:0:0:
440,208,16234,1,0,0:0:0:0:
440,208,16301,1,0,0:0:0:0:
352,88,16401,5,0,0:0:0:0:
352,88,16501,1,0,0:0:0:0:
176,304,16701,1,0,0:0:0:0:
324,308,16901,5,0,0:0:0:0:
248,56,17101,1,0,0:0:0:0:
152,120,17301,5,0,0:0:0:0:
296,196,17401,1,0,0:0:0:0:
432,232,17501,1,0,0:0:0:0:
136,296,17701,5,0,0:0:0:0:
296,64,17834,1,0,0:0:0:0:
296,64,17901,1,0,0:0:0:0:
352,184,18101,5,0,0:0:0:0:
68,208,18301,1,0,0:0:0:0:
136,104,18501,5,0,0:0:0:0:
396,292,18701,1,0,0:0:0:0:
224,304,18901,5,0,0:0:0:0:
324,192,19001,1,0,0:0:0:0:
448,144,19101,1,0,0:0:0:0:
324,52,19301,5,0,0:0:0:0:
232,312,19434,1,0,0:0:0:0:
232,312,19501,1,0,0:0:0:0:
408,248,19601,5,0,0:0:0:0:
408,248,19701,1,0,0:0:0:0:
168,52,19901,1,0,0:0:0:0:
136,168,20101,5,0,0:0:0:0:
452,168,20301,1,0,0:0:0:0:
344,52,20501,5,0,0:0:0:0:
324,180,20601,1,0,0:0:0:0:
376,312,20701,1,0,0:0:0:0:
264,308,20901,5,0,0:0:0:0:
472,104,21101,1,0,0:0:0:0:
144,104,21301,5,0,0:0:0:0:
460,304,21501,1,0,0:0:0:0:
388,144,21701,5,0,0:0:0:0:
112,232,21901,1,0,0:0:0:0:
264,312,22101,5,0,0:0:0:0:
296,180,22201,1,0,0:0:0:0:
340,68,22301,1,0,0:0:0:0:
152,184,22501,5,0,0:0:0:0:
440,192,22634,1,0,0:0:0:0:
440,192,22701,1,0,0:0:0:0:
408,64,22801,5,0,0:0:0:0:
408,64,22901,1,0,0:0:0:0:
152,284,23101,1,0,0:0:0:0:
272,136,23301,5,0,0:0:0:0:
272,136,23501,1,0,0:0:0:0:
136,308,23701,5,0,0:0:0:0:
108,264,23801,1,0,0:0:0:0:
104,216,23901,1,0,0:0:0:0:
128,84,24101,5,0,0:0:0:0:
444,96,24234,1,0,0:0:0:0:
444,96,24301,1,0,0:0:0:0:
256,52,24501,5,0,0:0:0:0:
112,320,24701,1,0,0:0:0:0:
396,76,24901,5,0,0:0:0:0:
396,76,25101,1,0,0:0:0:0:
80,200,25301,5,0,0:0:0:0:
208,164,25401,1,0,0:0:0:0:
324,200,25501,1,0,0:0:0:0:
160,72,25701,5,0,0:0:0:0:
256,64,25835,1,0,0:0:0:0:
256,64,25901,1,0,0:0:0:0:
404,160,26101,5,0,0:0:0:0:
328,228,26235,1,0,0:0:0:0:
328,228,26301,1,0,0:0:0:0:
128,168,26501,5,0,0:0:0:0:
156,268,26635,1,0,0:0:0:0:
156,268,26701,1,0,0:0:0:0:
456,104,26901,5,0,0:0:0:0:
364,168,27001,1,0,0:0:0:0:
256,132,27101,1,0,0:0:0:0:
256,132,27168,1,0,0:0:0:0:
256,132,27235,1,0,0:0:0:0:
144,204,27301,5,0,0:0:0:0:
192,136,38502,5,0,0:0:0:0:
192,136,38702,1,0,0:0:0:0:
408,160,38902,5,0,0:0:0:0:
408,160,39102,1,0,0:0:0:0:
196,272,39302,5,0,0:0:0:0:
196,272,39502,1,0,0:0:0:0:
104,40,39702,5,0,0:0:0:0:
200,96,39902,1,0,0:0:0:0:
88,152,40002,5,0,0:0:0:0:
88,152,40102,1,0,0:0:0:0:
376,128,40236,1,0,0:0:0:0:
376,128,40302,1,0,0:0:0:0:
260,316,40402,5,0,0:0:0:0:
260,316,40502,1,0,0:0:0:0:
160,44,40702,1,0,0:0:0:0:
400,220,40902,1,0,0:0:0:0:
168,200,41036,1,0,0:0:0:0:
168,200,41102,1,0,0:0:0:0:
432,48,41302,5,0,0:0:0:0:
336,88,41402,1,0,0:0:0:0:
296,184,41502,1,0,0:0:0:0:
100,64,41702,5,0,0:0:0:0:
72,244,41836,1,0,0:0:0:0:
72,244,41902,1,0,0:0:0:0:
72,244,41969,1,0,0:0:0:0:
424,252,42102,1,0,0:0:0:0:
208,80,42302,1,0,0:0:0:0:
212,320,42502,5,0,0:0:0:0:
328,220,42636,1,0,0:0:0:0:
212,320,42769,1,0,0:0:0:0:
224,168,42902,1,0,0:0:0:0:
328,120,43002,1,0,0:0:0:0:
276,32,43102,1,0,0:0:0:0:
368,304,43302,5,0,0:0:0:0:
100,212,43436,1,0,0:0:0:0:
96,180,43502,1,0,0:0:0:0:
108,144,43569,1,0,0:0:0:0:
400,64,43702,1,0,0:0:0:0:
184,316,43902,1,0,0:0:0:0:
440,272,44102,5,0,0:0:0:0:
240,92,44236,1,0,0:0:0:0:
240,92,44302,1,0,0:0:0:0:
80,224,44502,5,0,0:0:0:0:
244,212,44602,1,0,0:0:0:0:
388,152,44702,1,0,0:0:0:0:
300,316,44902,5,0,0:0:0:0:
144,136,45036,1,0,0:0:0:0:
148,100,45103,1,0,0:0:0:0:
180,76,45169,1,0,0:0:0:0:
384,56,45303,5,0,0:0:0:0:
136,276,45503,1,0,0:0:0:0:
416,276,45703,5,0,0:0:0:0:
384,128,45836,1,0,0:0:0:0:
416,276,45969,1,0,0:0:0:0:
276,52,46103,5,0,0:0:0:0:
168,132,46203,1,0,0:0:0:0:
144,256,46303,1,0,0:0:0:0:
284,304,46503,5,0,0:0:0:0:
172,56,46636,1,0,0:0:0:0:
172,56,46703,1,0,0:0:0:0:
172,56,46769,1,0,0:0:0:0:
296,120,46903,5,0,0:0:0:0:
180,320,47103,1,0,0:0:0:0:
436,96,47303,1,0,0:0:0:0:
188,144,47436,1,0,0:0:0:0:
188,144,47503,1,0,0:0:0:0:
404,280,47703,5,0,0:0:0:0:
296,188,47803,1,0,0:0:0:0:
256,80,47903,1,0,0:0:0:0:
128,304,48103,1,0,0:0:0:0:
400,172,48236,1,0,0:0:0:0:
400,172,48303,1,0,0:0:0:0:
400,172,48369,1,0,0:0:0:0:
120,116,48503,5,0,0:0:0:0:
296,316,48703,1,0,0:0:0:0:
384,56,48903,5,0,0:0:0:0:
384,56,49036,1,0,0:0:0:0:
264,176,49169,5,0,0:0:0:0:
264,176,49303,1,0,0:0:0:0:
88,80,49403,5,0,0:0:0:0:
80,112,49503,1,0,0:0:0:0:
360,300,49703,5,0,0:0:0:0:
300,56,49836,1,0,0:0:0:0:
300,56,49903,1,0,0:0:0:0:
300,56,49969,1,0,0:0:0:0:
288,272,50103,5,0,0:0:0:0:
388,76,50303,1,0,0:0:0:0:
152,288,50503,1,0,0:0:0:0:
96,76,50636,1,0,0:0:0:0:
96,76,50703,1,0,0:0:0:0:
368,260,50903,5,0,0:0:0:0:
368,260,51003,1,0,0:0:0:0:
368,260,51103,1,0,0:0:0:0:
116,312,51303,5,0,0:0:0:0:
160,72,51503,1,0,0:0:0:0:
288,124,51603,1,0,0:0:0:0:
408,64,51703,1,0,0:0:0:0:
408,64,51903,1,0,0:0:0:0:
316,336,52103,5,0,0:0:0:0:
264,48,52303,1,0,0:0:0:0:
136,292,52503,5,0,0:0:0:0:
408,152,52703,1,0,0:0:0:0:
408,152,52803,1,0,0:0:0:0:
408,152,52903,1,0,0:0:0:0:
240,308,53103,1,0,0:0:0:0:
136,80,53303,1,0,0:0:0:0:
352,64,53503,5,0,0:0:0:0:
124,228,53703,1,0,0:0:0:0:
384,292,53903,1,0,0:0:0:0:
248,72,54103,1,0,0:0:0:0:
248,312,54303,1,0,0:0:0:0:
456,48,54503,5,0,0:0:0:0:
292,208,54703,1,0,0:0:0:0:
80,104,54903,1,0,0:0:0:0:
344,280,55103,5,0,0:0:0:0:
324,56,55303,5,0,0:0:0:0:
192,308,55503,1,0,0:0:0:0:
444,176,55703,5,0,0:0:0:0:
116,116,55903,1,0,0:0:0:0:
392,272,56103,1,0,0:0:0:0:
144,240,56303,1,0,0:0:0:0:
376,68,56503,1,0,0:0:0:0:
336,324,56703,5,0,0:0:0:0:
108,104,56903,1,0,0:0:0:0:
336,324,57103,1,0,0:0:0:0:
328,48,57303,1,0,0:0:0:0:
440,324,57503,1,0,0:0:0:0:
456,48,57703,1,0,0:0:0:0:
336,324,57903,1,0,0:0:0:0:
108,96,58103,1,0,0:0:0:0:
428,320,58303,5,0,0:0:0:0:
256,48,58503,1,0,0:0:0:0:
248,328,58703,1,0,0:0:0:0:
432,184,58903,1,0,0:0:0:0:
116,224,59103,1,0,0:0:0:0:
392,84,59303,1,0,0:0:0:0:
176,312,59503,5,0,0:0:0:0:
248,64,59703,1,0,0:0:0:0:
352,312,59903,1,0,0:0:0:0:
88,152,60104,1,0,0:0:0:0:
352,312,60304,1,0,0:0:0:0:
88,152,60504,1,0,0:0:0:0:
408,140,60704,1,0,0:0:0:0:
180,312,60904,1,0,0:0:0:0:
316,84,61104,5,0,0:0:0:0:
280,308,61304,1,0,0:0:0:0:
228,68,61504,5,0,0:0:0:0:
192,304,61704,1,0,0:0:0:0:
140,52,61904,5,0,0:0:0:0:
96,296,62104,1,0,0:0:0:0:
40,64,62304,5,0,0:0:0:0:
336,248,62504,1,0,0:0:0:0:
304,76,62704,5,0,0:0:0:0:
40,252,62904,1,0,0:0:0:0:
268,320,63104,5,0,0:0:0:0:
128,80,63304,1,0,0:0:0:0:
348,280,63504,1,0,0:0:0:0:
216,52,63704,1,0,0:0:0:0:
152,316,63904,1,0,0:0:0:0:
368,136,64104,1,0,0:0:0:0:
88,164,64304,5,0,0:0:0:0:
352,292,64504,1,0,0:0:0:0:
236,56,64704,1,0,0:0:0:0:
128,312,64904,1,0,0:0:0:0:
236,56,65104,1,0,0:0:0:0:
68,140,65304,1,0,0:0:0:0:
384,192,65504,1,0,0:0:0:0:
200,304,65704,5,0,0:0:0:0:
352,88,65904,1,0,0:0:0:0:
352,88,65971,1,0,0:0:0:0:
340,304,66104,5,0,0:0:0:0:
132,124,66304,1,0,0:0:0:0:
424,144,66504,1,0,0:0:0:0:
284,44,66704,5,0,0:0:0:0:
188,308,66904,1,0,0:0:0:0:
284,44,67104,1,0,0:0:0:0:
188,308,67304,1,0,0:0:0:0:
392,208,67504,5,0,0:0:0:0:
112,172,67704,1,0,0:0:0:0:
464,216,67904,1,0,0:0:0:0:
192,180,68104,1,0,0:0:0:0:
408,56,68304,5,0,0:0:0:0:
256,312,68504,1,0,0:0:0:0:
444,288,68704,5,0,0:0:0:0:
116,228,68904,1,0,0:0:0:0:
312,88,69104,1,0,0:0:0:0:
176,328,69304,5,0,0:0:0:0:
116,68,69504,1,0,0:0:0:0:
388,140,69704,5,0,0:0:0:0:
88,256,69904,1,0,0:0:0:0:
416,256,70104,1,0,0:0:0:0:
92,144,70304,1,0,0:0:0:0:
320,68,70504,5,0,0:0:0:0:
256,336,70704,1,0,0:0:0:0:
184,48,70904,1,0,0:0:0:0:
380,312,71104,1,0,0:0:0:0:
96,184,71304,5,0,0:0:0:0:
344,68,71438,1,0,0:0:0:0:
184,296,71571,1,0,0:0:0:0:
436,224,71704,5,0,0:0:0:0:
100,72,71838,1,0,0:0:0:0:
100,72,71904,1,0,0:0:0:0:
140,224,72104,5,0,0:0:0:0:
320,40,72304,1,0,0:0:0:0:
176,340,72504,1,0,0:0:0:0:
384,320,72704,1,0,0:0:0:0:
96,92,72904,1,0,0:0:0:0:
272,332,73104,5,0,0:0:0:0:
376,64,73304,1,0,0:0:0:0:
376,64,73371,1,0,0:0:0:0:
376,64,73438,1,0,0:0:0:0:
376,64,73504,1,0,0:0:0:0:
416,288,73704,5,0,0:0:0:0:
216,76,73904,1,0,0:0:0:0:
232,300,74104,1,0,0:0:0:0:
76,108,74238,1,0,0:0:0:0:
76,108,74304,1,0,0:0:0:0:
352,100,74504,5,0,0:0:0:0:
124,244,74638,1,0,0:0:0:0:
124,244,74704,1,0,0:0:0:0:
124,244,74771,1,0,0:0:0:0:
408,256,74904,5,0,0:0:0:0:
208,92,75038,1,0,0:0:0:0:
208,92,75105,1,0,0:0:0:0:
208,92,75171,1,0,0:0:0:0:
244,324,75305,5,0,0:0:0:0:
352,96,75505,1,0,0:0:0:0:
244,324,75705,1,0,0:0:0:0:
92,144,75905,1,0,0:0:0:0:
92,144,76105,1,0,0:0:0:0:
384,124,76305,1,0,0:0:0:0:
92,144,76505,1,0,0:0:0:0:
384,124,76705,1,0,0:0:0:0:
152,324,76905,5,0,0:0:0:0:
352,48,77105,1,0,0:0:0:0:
68,260,77305,1,0,0:0:0:0:
424,128,77505,1,0,0:0:0:0:
48,136,77705,1,0,0:0:0:0:
416,244,77905,1,0,0:0:0:0:
96,52,78105,1,0,0:0:0:0:
336,76,78505,5,0,0:0:0:0:
136,272,78705,1,0,0:0:0:0:
424,232,78905,1,0,0:0:0:0:
184,112,79105,1,0,0:0:0:0:
424,232,79305,1,0,0:0:0:0:
184,112,79505,1,0,0:0:0:0:
440,324,79705,1,0,0:0:0:0:
440,324,79905,1,0,0:0:0:0:
400,60,80105,5,0,0:0:0:0:
252,304,80305,1,0,0:0:0:0:
56,72,80505,1,0,0:0:0:0:
252,304,80705,1,0,0:0:0:0:
88,232,80905,5,0,0:0:0:0:
368,72,81105,1,0,0:0:0:0:
420,280,81305,1,0,0:0:0:0:
420,280,81705,5,0,0:0:0:0:
160,80,81905,1,0,0:0:0:0:
472,172,82105,1,0,0:0:0:0:
160,80,82305,1,0,0:0:0:0:
472,172,82505,1,0,0:0:0:0:
324,336,82705,1,0,0:0:0:0:
76,92,82905,1,0,0:0:0:0:
76,92,83105,1,0,0:0:0:0:
420,60,83305,5,0,0:0:0:0:
152,260,83505,1,0,0:0:0:0:
152,260,83705,1,0,0:0:0:0:
152,260,83905,1,0,0:0:0:0:
428,284,84105,1,0,0:0:0:0:
192,44,84305,1,0,0:0:0:0:
248,344,84505,1,0,0:0:0:0:
248,344,84905,5,0,0:0:0:0:
372,76,85105,1,0,0:0:0:0:
248,344,85305,1,0,0:0:0:0:
224,56,85505,1,0,0:0:0:0:
392,248,85705,1,0,0:0:0:0:
72,204,85905,1,0,0:0:0:0:
456,160,86105,1,0,0:0:0:0:
456,160,86305,1,0,0:0:0:0:
272,64,86505,5,0,0:0:0:0:
272,64,86705,1,0,0:0:0:0:
72,188,86905,5,0,0:0:0:0:
72,188,87105,1,0,0:0:0:0:
348,328,87305,5,0,0:0:0:0:
348,328,87505,1,0,0:0:0:0:
320,48,87705,5,0,0:0:0:0:
320,48,88105,5,0,0:0:0:0:
80,204,88305,1,0,0:0:0:0:
400,200,88505,1,0,0:0:0:0:
80,204,88705,1,0,0:0:0:0:
292,332,88905,1,0,0:0:0:0:
208,64,89105,1,0,0:0:0:0:
292,332,89305,1,0,0:0:0:0:
292,332,89505,1,0,0:0:0:0:
244,160,89705,5,0,0:0:0:0:
244,160,89905,1,0,0:0:0:0:
244,160,90106,1,0,0:0:0:0:
244,160,90306,1,0,0:0:0:0:
244,160,90506,1,0,0:0:0:0:
360,80,90706,5,0,0:0:0:0:
68,268,90906,1,0,0:0:0:0:
360,80,91106,1,0,0:0:0:0:
100,64,91306,5,0,0:0:0:0:
384,292,91506,1,0,0:0:0:0:
388,80,91706,5,0,0:0:0:0:
108,272,91906,1,0,0:0:0:0:
272,44,92106,1,0,0:0:0:0:
232,328,92306,1,0,0:0:0:0:
388,80,92506,1,0,0:0:0:0:
388,80,92706,1,0,0:0:0:0:
424,240,92906,5,0,0:0:0:0:
120,116,93106,1,0,0:0:0:0:
304,60,93306,5,0,0:0:0:0:
160,324,93506,1,0,0:0:0:0:
368,336,93706,5,0,0:0:0:0:
180,52,93906,1,0,0:0:0:0:
368,336,94106,1,0,0:0:0:0:
368,336,94506,5,0,0:0:0:0:
308,72,94706,1,0,0:0:0:0:
232,340,94906,1,0,0:0:0:0:
460,168,95106,1,0,0:0:0:0:
232,340,95306,1,0,0:0:0:0:
460,168,95506,1,0,0:0:0:0:
156,176,95706,1,0,0:0:0:0:
156,176,95906,1,0,0:0:0:0:
376,84,96106,5,0,0:0:0:0:
128,312,96306,1,0,0:0:0:0:
260,36,96506,1,0,0:0:0:0:
128,312,96706,1,0,0:0:0:0:
144,40,96906,1,0,0:0:0:0:
372,296,97106,1,0,0:0:0:0:
144,40,97306,1,0,0:0:0:0:
96,168,97706,5,0,0:0:0:0:
424,80,97906,1,0,0:0:0:0:
144,280,98106,1,0,0:0:0:0:
476,184,98306,1,0,0:0:0:0:
96,168,98506,1,0,0:0:0:0:
424,80,98706,1,0,0:0:0:0:
144,280,98906,1,0,0:0:0:0:
144,280,99106,1,0,0:0:0:0:
328,48,99306,5,0,0:0:0:0:
272,328,99506,1,0,0:0:0:0:
192,52,99706,1,0,0:0:0:0:
272,328,99906,1,0,0:0:0:0:
328,48,100106,1,0,0:0:0:0:
272,328,100306,1,0,0:0:0:0:
192,52,100506,1,0,0:0:0:0:
192,52,100906,5,0,0:0:0:0:
424,280,101106,1,0,0:0:0:0:
192,52,101306,1,0,0:0:0:0:
240,328,101506,1,0,0:0:0:0:
192,52,101706,1,0,0:0:0:0:
432,164,101906,1,0,0:0:0:0:
144,256,102106,1,0,0:0:0:0:
144,256,102306,1,0,0:0:0:0:
320,64,102506,5,0,0:0:0:0:
320,64,102706,1,0,0:0:0:0:
288,272,102906,5,0,0:0:0:0:
288,272,103106,1,0,0:0:0:0:
132,108,103306,5,0,0:0:0:0:
132,108,103506,1,0,0:0:0:0:
436,128,103706,5,0,0:0:0:0:
436,128,103906,1,0,0:0:0:0:
328,276,104106,5,0,0:0:0:0:
88,64,104306,1,0,0:0:0:0:
300,52,104506,5,0,0:0:0:0:
120,288,104706,1,0,0:0:0:0:
412,192,104906,5,0,0:0:0:0:
72,184,105107,1,0,0:0:0:0:
336,56,105307,1,0,0:0:0:0:
336,56,105407,1,0,0:0:0:0:
336,56,105507,1,0,0:0:0:0:
364,268,105707,5,0,0:0:0:0:
128,80,105907,1,0,0:0:0:0:
364,268,106107,1,0,0:0:0:0:
80,276,106307,1,0,0:0:0:0:
208,40,106507,5,0,0:0:0:0:
472,152,106640,1,0,0:0:0:0:
152,180,106773,1,0,0:0:0:0:
436,304,106907,1,0,0:0:0:0:
436,304,107007,1,0,0:0:0:0:
436,304,107107,1,0,0:0:0:0:
408,128,107307,5,0,0:0:0:0:
316,272,107507,1,0,0:0:0:0:
68,68,107707,1,0,0:0:0:0:
240,64,107907,1,0,0:0:0:0:
64,296,108107,1,0,0:0:0:0:
336,324,108307,1,0,0:0:0:0:
208,204,108507,5,0,0:0:0:0:
316,152,108607,1,0,0:0:0:0:
408,228,108707,1,0,0:0:0:0:
192,56,108907,5,0,0:0:0:0:
408,228,109107,1,0,0:0:0:0:
140,280,109307,1,0,0:0:0:0:
456,124,109507,1,0,0:0:0:0:
168,72,109707,5,0,0:0:0:0:
340,292,109840,1,0,0:0:0:0:
168,72,109973,1,0,0:0:0:0:
440,204,110107,1,0,0:0:0:0:
440,204,110207,1,0,0:0:0:0:
440,204,110307,1,0,0:0:0:0:
324,52,110507,5,0,0:0:0:0:
128,260,110707,1,0,0:0:0:0:
428,288,110907,1,0,0:0:0:0:
324,52,111107,5,0,0:0:0:0:
428,288,111307,1,0,0:0:0:0:
148,160,111507,1,0,0:0:0:0:
432,116,111707,1,0,0:0:0:0:
340,176,111807,1,0,0:0:0:0:
300,284,111907,1,0,0:0:0:0:
168,64,112107,5,0,0:0:0:0:
444,188,112307,1,0,0:0:0:0:
160,268,112507,1,0,0:0:0:0:
464,96,112707,1,0,0:0:0:0:
172,88,112907,5,0,0:0:0:0:
376,300,113040,1,0,0:0:0:0:
172,88,113174,1,0,0:0:0:0:
452,176,113307,1,0,0:0:0:0:
336,212,113407,1,0,0:0:0:0:
208,200,113507,1,0,0:0:0:0:
324,48,113707,5,0,0:0:0:0:
176,300,113907,1,0,0:0:0:0:
388,296,114107,5,0,0:0:0:0:
104,128,114307,1,0,0:0:0:0:
324,72,114507,1,0,0:0:0:0:
84,280,114707,1,0,0:0:0:0:
376,228,114907,5,0,0:0:0:0:
256,200,115007,1,0,0:0:0:0:
168,108,115107,1,0,0:0:0:0:
380,68,115307,5,0,0:0:0:0:
96,280,115507,1,0,0:0:0:0:
424,228,115707,5,0,0:0:0:0:
52,92,115907,1,0,0:0:0:0:
192,40,116107,5,0,0:0:0:0:
348,328,116307,1,0,0:0:0:0:
384,48,116507,5,0,0:0:0:0:
112,264,116707,1,0,0:0:0:0:
112,264,116807,1,0,0:0:0:0:
112,264,116907,1,0,0:0:0:0:
120,68,117174,5,0,0:0:0:0:
360,232,117307,1,0,0:0:0:0:
296,56,117507,5,0,0:0:0:0:
88,224,117707,1,0,0:0:0:0:
388,112,117907,1,0,0:0:0:0:
88,224,118107,1,0,0:0:0:0:
392,296,118307,1,0,0:0:0:0:
168,72,118507,5,0,0:0:0:0:
428,88,118707,1,0,0:0:0:0:
160,188,118907,5,0,0:0:0:0:
424,204,119107,1,0,0:0:0:0:
156,304,119307,5,0,0:0:0:0:
424,312,119507,1,0,0:0:0:0:
56,60,119707,5,0,0:0:0:0:
60,316,119907,1,0,0:0:0:0:
188,60,120108,5,0,0:0:0:0:
184,320,120308,1,0,0:0:0:0:
304,60,120508,5,0,0:0:0:0:
304,324,120708,1,0,0:0:0:0:
428,56,120908,5,0,0:0:0:0:
432,328,121108,1,0,0:0:0:0:
176,128,121308,5,0,0:0:0:0:
496,256,121508,1,0,0:0:0:0:
348,60,121708,5,0,0:0:0:0:
184,308,121908,1,0,0:0:0:0:
348,60,122108,1,0,0:0:0:0:
184,308,122308,1,0,0:0:0:0:
444,144,122508,1,0,0:0:0:0:
132,152,122708,1,0,0:0:0:0:
352,52,122908,5,0,0:0:0:0:
324,312,123108,1,0,0:0:0:0:
176,72,123308,1,0,0:0:0:0:
484,112,123508,5,0,0:0:0:0:
168,232,123708,1,0,0:0:0:0:
484,112,123908,1,0,0:0:0:0:
168,232,124108,1,0,0:0:0:0:
400,84,124308,1,0,0:0:0:0:
164,336,124508,1,0,0:0:0:0:
248,52,124708,1,0,0:0:0:0:
428,236,124908,5,0,0:0:0:0:
104,156,125108,1,0,0:0:0:0:
144,328,125308,1,0,0:0:0:0:
208,48,125508,1,0,0:0:0:0:
348,140,125708,1,0,0:0:0:0:
48,244,125908,1,0,0:0:0:0:
384,292,126108,5,0,0:0:0:0:
92,80,126308,1,0,0:0:0:0:
92,80,126508,1,0,0:0:0:0:
440,112,126708,1,0,0:0:0:0:
264,48,126908,1,0,0:0:0:0:
208,320,127108,1,0,0:0:0:0:
476,192,127308,1,0,0:0:0:0:
112,72,127508,1,0,0:0:0:0:
120,236,127708,5,0,0:0:0:0:
312,264,127908,1,0,0:0:0:0:
232,108,128108,1,0,0:0:0:0:
84,304,128308,5,0,0:0:0:0:
416,328,128508,1,0,0:0:0:0:
256,40,128708,1,0,0:0:0:0:
416,328,128908,1,0,0:0:0:0:
84,304,129108,1,0,0:0:0:0:
432,148,129308,5,0,0:0:0:0:
432,148,129508,1,0,0:0:0:0:
140,72,129708,1,0,0:0:0:0:
316,44,129908,1,0,0:0:0:0:
148,296,130108,1,0,0:0:0:0:
148,296,130308,1,0,0:0:0:0:
412,112,130508,1,0,0:0:0:0:
408,256,130708,5,0,0:0:0:0:
96,104,130908,1,0,0:0:0:0:
408,256,131108,1,0,0:0:0:0:
96,104,131308,1,0,0:0:0:0:
276,64,131508,5,0,0:0:0:0:
104,272,131708,1,0,0:0:0:0:
276,64,131908,1,0,0:0:0:0:
104,272,132108,1,0,0:0:0:0:
328,288,132308,5,0,0:0:0:0:
64,88,132508,1,0,0:0:0:0:
328,288,132708,1,0,0:0:0:0:
372,140,132908,5,0,0:0:0:0:
372,140,133108,1,0,0:0:0:0:
80,212,133308,1,0,0:0:0:0:
80,212,133508,1,0,0:0:0:0:
144,48,133708,5,0,0:0:0:0:
232,308,133908,1,0,0:0:0:0:
288,48,134108,1,0,0:0:0:0:
288,48,134208,1,0,0:0:0:0:
288,48,134308,1,0,0:0:0:0:
384,208,134508,1,0,0:0:0:0:
56,144,134708,1,0,0:0:0:0:
388,80,134908,1,0,0:0:0:0:
280,40,135109,5,0,0:0:0:0:
204,312,135309,1,0,0:0:0:0:
112,52,135459,1,0,0:0:0:0:
112,52,135509,1,0,0:0:0:0:
224,108,135609,1,0,0:0:0:0:
360,88,135709,1,0,0:0:0:0:
360,88,135809,1,0,0:0:0:0:
360,88,135909,1,0,0:0:0:0:
104,180,136109,5,0,0:0:0:0:
412,272,136309,1,0,0:0:0:0:
104,180,136509,1,0,0:0:0:0:
412,272,136709,1,0,0:0:0:0:
288,68,136909,5,0,0:0:0:0:
140,312,137109,1,0,0:0:0:0:
184,48,137309,1,0,0:0:0:0:
184,48,137409,1,0,0:0:0:0:
184,48,137509,1,0,0:0:0:0:
384,152,137709,5,0,0:0:0:0:
104,196,137909,1,0,0:0:0:0:
388,320,138109,1,0,0:0:0:0:
272,44,138309,1,0,0:0:0:0:
120,96,138509,5,0,0:0:0:0:
428,144,138659,1,0,0:0:0:0:
140,228,138809,1,0,0:0:0:0:
140,228,138909,1,0,0:0:0:0:
200,124,139009,1,0,0:0:0:0:
324,100,139109,1,0,0:0:0:0:
448,40,139309,5,0,0:0:0:0:
456,324,139509,1,0,0:0:0:0:
328,40,139709,5,0,0:0:0:0:
336,320,139909,1,0,0:0:0:0:
212,40,140109,5,0,0:0:0:0:
216,324,140309,1,0,0:0:0:0:
88,60,140509,5,0,0:0:0:0:
420,240,140709,1,0,0:0:0:0:
420,240,140809,1,0,0:0:0:0:
420,240,140909,1,0,0:0:0:0:
228,180,141309,6,0,P|140:172|88:208,1,140
300,124,141709,2,0,P|312:208|268:268,1,140
179,55,142109,2,0,B|235:99|235:99|307:127,1,140
92,80,142509,2,0,L|192:168,1,97.9999970092774
40,160,142909,2,0,L|160:268,1,140
228,216,143309,2,0,B|220:288|220:288|168:348,1,140
312,236,143709,2,0,P|272:140|192:132,1,140
332,64,144109,5,0,0:0:0:0:
100,176,144509,5,0,0:0:0:0:
408,288,144909,5,0,0:0:0:0:
224,68,145309,5,0,0:0:0:0:
148,312,145709,5,0,0:0:0:0:
416,144,146109,5,0,0:0:0:0:
88,104,146509,5,0,0:0:0:0:
384,84,146909,5,0,0:0:0:0:
148,232,147109,1,0,0:0:0:0:
148,232,147209,1,0,0:0:0:0:
148,232,147309,1,0,0:0:0:0:
456,308,147509,5,0,0:0:0:0:
160,100,147709,1,0,0:0:0:0:
360,84,147909,5,0,0:0:0:0:
96,308,148109,1,0,0:0:0:0:
60,168,148309,5,0,0:0:0:0:
420,304,148509,1,0,0:0:0:0:
436,176,148709,5,0,0:0:0:0:
88,296,148909,1,0,0:0:0:0:
304,332,149109,5,0,0:0:0:0:
128,56,149309,1,0,0:0:0:0:
304,332,149509,1,0,0:0:0:0:
372,168,149709,1,0,0:0:0:0:
52,280,149909,1,0,0:0:0:0:
104,116,150110,1,0,0:0:0:0:
412,320,150210,1,0,0:0:0:0:
448,256,150510,5,0,0:0:0:0:
388,232,150610,1,0,0:0:0:0:
320,232,150710,1,0,0:0:0:0:
264,248,150810,1,0,0:0:0:0:
204,268,150910,1,0,0:0:0:0:
144,280,151010,1,0,0:0:0:0:
88,256,151110,1,0,0:0:0:0:
60,204,151210,1,0,0:0:0:0:
60,140,151310,5,0,0:0:0:0:
84,84,151410,1,0,0:0:0:0:
144,72,151510,1,0,0:0:0:0:
200,100,151610,1,0,0:0:0:0:
248,144,151710,1,0,0:0:0:0:
296,192,151810,1,0,0:0:0:0:
348,232,151910,1,0,0:0:0:0:
408,232,152010,1,0,0:0:0:0:
452,188,152110,2,0,P|448:84|356:80,1,210
