osu file format v14

[General]
AudioFilename: audio.mp3
AudioLeadIn: 0
PreviewTime: 198286
Countdown: 1
SampleSet: Normal
StackLeniency: 0.7
Mode: 0
LetterboxInBreaks: 0
WidescreenStoryboard: 0

[Editor]
Bookmarks: 15998,20798,185587
DistanceSpacing: 1
BeatDivisor: 4
GridSize: 4
TimelineZoom: 2.899999

[Metadata]
Title:Hard Bass Star
TitleUnicode:Звезда Хардбаса Hard Bass Star
Artist:XS Project
ArtistUnicode:XS Project
Creator:XenjeS
Version:Almost Vodovorot
Source:
Tags:
BeatmapID:1589974
BeatmapSetID:755339

[Difficulty]
HPDrainRate:4
CircleSize:3.8
OverallDifficulty:8
ApproachRate:10
SliderMultiplier:2.2
SliderTickRate:1

[Events]
//Background and Video events
0,0,"love_is_war_art_lily_vocaloid_hatsune_miku_97092_2031x16392.jpg",0,0
//Break Periods
2,51396,63516
2,76994,77915
2,78794,79515
2,80194,81115
2,115392,121141
2,147390,159539
2,172988,173938
2,174788,175538
2,176188,177138
//Storyboard Layer 0 (Background)
//Storyboard Layer 1 (Fail)
//Storyboard Layer 2 (Pass)
//Storyboard Layer 3 (Foreground)
//Storyboard Sound Samples

[TimingPoints]
0,399.973335110993,4,1,0,100,1,0
24198,-55.5555555555556,4,1,0,100,0,0
38397,-55.5555555555556,4,1,0,100,0,1
51196,-55.5555555555556,4,1,0,100,0,0
89594,-55.5555555555556,4,1,0,100,0,1
100793,-55.5555555555556,4,1,0,100,0,0
102393,-55.5555555555556,4,1,0,100,0,1
115192,-55.5555555555556,4,1,0,100,0,0
134391,-55.5555555555556,4,1,0,100,0,1
147190,-55.5555555555556,4,1,0,100,0,0
185587,-55.5555555555556,4,1,0,100,0,1
196786,-55.5555555555556,4,1,0,100,0,0
198386,-55.5555555555556,4,1,0,100,0,1
211185,-55.5555555555556,4,1,0,100,0,0

[HitObjects]
244,180,11199,5,0,0:0:0:0:
248,184,11599,5,0,0:0:0:0:
252,188,11999,5,0,0:0:0:0:
320,64,12199,1,0,0:0:0:0:
384,148,12299,1,0,0:0:0:0:
360,256,12399,1,0,0:0:0:0:
116,172,12599,5,0,0:0:0:0:
200,68,12799,5,0,0:0:0:0:
416,220,12999,1,0,0:0:0:0:
200,76,13199,5,0,0:0:0:0:
340,304,13399,1,0,0:0:0:0:
200,84,13599,5,0,0:0:0:0:
192,340,13799,1,0,0:0:0:0:
72,128,13999,5,0,0:0:0:0:
172,168,14099,1,0,0:0:0:0:
320,88,14399,5,0,0:0:0:0:
160,296,14599,1,0,0:0:0:0:
240,60,14799,5,0,0:0:0:0:
244,340,14999,1,0,0:0:0:0:
156,92,15198,5,0,0:0:0:0:
328,312,15398,1,0,0:0:0:0:
352,120,15598,5,0,0:0:0:0:
236,160,15698,1,0,0:0:0:0:
112,100,15998,5,0,0:0:0:0:
344,232,16198,1,0,0:0:0:0:
272,88,16398,5,0,0:0:0:0:
196,176,16498,1,0,0:0:0:0:
184,288,16598,1,0,0:0:0:0:
400,280,16798,5,0,0:0:0:0:
184,96,16998,1,0,0:0:0:0:
368,96,17198,5,0,0:0:0:0:
328,224,17298,1,0,0:0:0:0:
192,196,17498,5,0,0:0:0:0:
228,68,17598,1,0,0:0:0:0:
256,304,17798,5,0,0:0:0:0:
116,108,17998,1,0,0:0:0:0:
116,108,18098,1,0,0:0:0:0:
116,108,18198,1,0,0:0:0:0:
368,104,18398,5,0,0:0:0:0:
140,248,18798,5,0,0:0:0:0:
148,328,19198,5,0,0:0:0:0:
388,156,19398,1,0,0:0:0:0:
128,56,19598,1,0,0:0:0:0:
144,268,19798,5,0,0:0:0:0:
300,164,19998,1,0,0:0:0:0:
132,116,20198,1,0,0:0:0:0:
144,236,20398,5,0,0:0:0:0:
240,180,20498,1,0,0:0:0:0:
132,144,20598,1,0,0:0:0:0:
132,156,20798,5,0,0:0:0:0:
408,88,20998,1,0,0:0:0:0:
136,168,21198,5,0,0:0:0:0:
408,100,21398,1,0,0:0:0:0:
136,180,21598,5,0,0:0:0:0:
408,112,21798,1,0,0:0:0:0:
320,312,21998,5,0,0:0:0:0:
240,284,22098,1,0,0:0:0:0:
156,312,22198,1,0,0:0:0:0:
72,272,22298,1,0,0:0:0:0:
88,192,22398,1,0,0:0:0:0:
96,196,22598,5,0,0:0:0:0:
344,64,22798,1,0,0:0:0:0:
356,168,22898,1,0,0:0:0:0:
304,260,22998,1,0,0:0:0:0:
296,256,23198,5,0,0:0:0:0:
168,56,23398,1,0,0:0:0:0:
152,268,23598,1,0,0:0:0:0:
60,224,23698,1,0,0:0:0:0:
40,120,23798,1,0,0:0:0:0:
252,56,23998,5,0,0:0:0:0:
424,244,24198,6,0,B|376:240|376:240|324:252,1,98.9999969787599
344,144,24398,2,0,B|288:160|288:160|232:156,1,98.9999969787599
244,244,24598,2,0,B|192:236|192:236|124:248,1,98.9999969787599
176,152,24798,2,0,B|120:164|120:164|56:152,1,98.9999969787599
8,200,24998,1,0,0:0:0:0:
40,296,25098,1,0,0:0:0:0:
120,228,25198,2,0,L|220:200,1,98.9999969787599
152,100,25398,2,0,L|44:68,1,98.9999969787599
268,72,25598,5,0,0:0:0:0:
340,304,25798,1,0,0:0:0:0:
136,248,25998,5,0,0:0:0:0:
372,72,26198,1,0,0:0:0:0:
384,288,26398,5,0,0:0:0:0:
128,164,26598,1,0,0:0:0:0:
388,88,26798,5,0,0:0:0:0:
408,192,26898,1,0,0:0:0:0:
200,88,27198,5,0,0:0:0:0:
320,328,27398,1,0,0:0:0:0:
280,72,27598,1,0,0:0:0:0:
164,304,27798,1,0,0:0:0:0:
328,160,27998,1,0,0:0:0:0:
20,176,28198,1,0,0:0:0:0:
260,264,28398,5,0,0:0:0:0:
272,100,28498,1,0,0:0:0:0:
112,200,28798,5,0,0:0:0:0:
404,100,28998,1,0,0:0:0:0:
324,264,29198,1,0,0:0:0:0:
244,172,29298,1,0,0:0:0:0:
220,56,29398,1,0,0:0:0:0:
220,56,29598,5,0,0:0:0:0:
188,304,29798,1,0,0:0:0:0:
448,188,29998,1,0,0:0:0:0:
212,56,30097,1,0,0:0:0:0:
288,284,30397,5,0,0:0:0:0:
340,48,30597,1,0,0:0:0:0:
276,288,30797,5,0,0:0:0:0:
192,196,30897,1,0,0:0:0:0:
176,68,30997,1,0,0:0:0:0:
184,72,31197,5,0,0:0:0:0:
472,92,31397,1,0,0:0:0:0:
468,100,31597,1,0,0:0:0:0:
424,208,31697,1,0,0:0:0:0:
448,336,31797,2,0,B|368:316|368:316|240:332,1,197.99999395752
208,56,32197,5,0,0:0:0:0:
120,304,32397,1,0,0:0:0:0:
52,52,32597,1,0,0:0:0:0:
132,304,32797,5,0,0:0:0:0:
64,52,32997,1,0,0:0:0:0:
144,304,33197,5,0,0:0:0:0:
252,144,33397,1,0,0:0:0:0:
136,64,33597,5,0,0:0:0:0:
232,312,33797,1,0,0:0:0:0:
256,88,33997,1,0,0:0:0:0:
68,276,34197,1,0,0:0:0:0:
360,272,34397,1,0,0:0:0:0:
68,160,34597,1,0,0:0:0:0:
200,312,34797,5,0,0:0:0:0:
264,208,34897,1,0,0:0:0:0:
256,88,34997,1,0,0:0:0:0:
264,96,35197,5,0,0:0:0:0:
348,320,35397,1,0,0:0:0:0:
92,244,35597,1,0,0:0:0:0:
147,159,35697,1,0,0:0:0:0:
204,68,35797,1,0,0:0:0:0:
92,244,35997,5,0,0:0:0:0:
147,159,36197,1,0,0:0:0:0:
204,68,36397,1,0,0:0:0:0:
304,212,36597,1,0,0:0:0:0:
48,212,36797,1,0,0:0:0:0:
288,64,36997,1,0,0:0:0:0:
48,220,37197,5,0,0:0:0:0:
160,176,37397,1,0,0:0:0:0:
276,212,37597,1,0,0:0:0:0:
276,212,37797,5,0,0:0:0:0:
160,176,37897,1,0,0:0:0:0:
48,220,37997,1,0,0:0:0:0:
52,80,38197,5,0,0:0:0:0:
60,88,38397,5,0,0:0:0:0:
336,124,38597,1,0,0:0:0:0:
136,268,38797,1,0,0:0:0:0:
136,36,38997,1,0,0:0:0:0:
328,200,39197,1,0,0:0:0:0:
64,120,39397,1,0,0:0:0:0:
316,40,39597,5,0,0:0:0:0:
236,140,39697,1,0,0:0:0:0:
216,280,39797,1,0,0:0:0:0:
208,272,39997,5,0,0:0:0:0:
92,68,40197,1,0,0:0:0:0:
336,80,40397,1,0,0:0:0:0:
220,260,40597,5,0,0:0:0:0:
108,80,40797,1,0,0:0:0:0:
336,92,40997,1,0,0:0:0:0:
244,232,41197,5,0,0:0:0:0:
156,112,41297,1,0,0:0:0:0:
316,120,41397,1,0,0:0:0:0:
316,136,41597,5,0,0:0:0:0:
80,224,41797,1,0,0:0:0:0:
336,284,41997,1,0,0:0:0:0:
340,288,42097,1,0,0:0:0:0:
340,288,42197,1,0,0:0:0:0:
212,72,42397,1,0,0:0:0:0:
116,304,42597,1,0,0:0:0:0:
384,232,42797,5,0,0:0:0:0:
321,134,42897,1,0,0:0:0:0:
256,40,42997,1,0,0:0:0:0:
208,236,43197,5,0,0:0:0:0:
488,168,43397,1,0,0:0:0:0:
252,48,43597,5,0,0:0:0:0:
317,142,43697,1,0,0:0:0:0:
380,240,43797,1,0,0:0:0:0:
404,76,43997,5,0,0:0:0:0:
240,320,44197,1,0,0:0:0:0:
124,112,44397,5,0,0:0:0:0:
92,232,44497,1,0,0:0:0:0:
116,344,44597,1,0,0:0:0:0:
124,340,44797,5,0,0:0:0:0:
224,100,44997,1,0,0:0:0:0:
224,324,45196,1,0,0:0:0:0:
56,168,45396,1,0,0:0:0:0:
332,132,45596,5,0,0:0:0:0:
56,180,45796,1,0,0:0:0:0:
192,284,45996,5,0,0:0:0:0:
180,76,46096,1,0,0:0:0:0:
180,76,46196,1,0,0:0:0:0:
324,152,46396,5,0,0:0:0:0:
72,260,46596,1,0,0:0:0:0:
120,40,46796,1,0,0:0:0:0:
336,176,46996,5,0,0:0:0:0:
16,88,47130,1,0,0:0:0:0:
20,92,47196,1,0,0:0:0:0:
24,100,47396,5,0,0:0:0:0:
124,320,47596,1,0,0:0:0:0:
232,252,47696,1,0,0:0:0:0:
272,132,47796,1,0,0:0:0:0:
272,140,47996,5,0,0:0:0:0:
0,216,48196,1,0,0:0:0:0:
40,112,48496,5,0,0:0:0:0:
120,252,48596,1,0,0:0:0:0:
284,104,48996,5,0,0:0:0:0:
252,332,49196,1,0,0:0:0:0:
252,332,49296,1,0,0:0:0:0:
252,332,49396,1,0,0:0:0:0:
220,48,49596,5,0,0:0:0:0:
132,224,49796,1,0,0:0:0:0:
68,120,49996,5,0,0:0:0:0:
280,200,50196,1,0,0:0:0:0:
280,88,50396,5,0,0:0:0:0:
160,268,50596,1,0,0:0:0:0:
92,176,50796,5,0,0:0:0:0:
344,168,50996,1,0,0:0:0:0:
152,56,51196,5,0,0:0:0:0:
204,136,63995,5,0,0:0:0:0:
380,120,64395,5,0,0:0:0:0:
308,224,64595,1,0,0:0:0:0:
240,316,64795,1,0,0:0:0:0:
240,316,65195,5,0,0:0:0:0:
120,212,65595,5,0,0:0:0:0:
280,100,65795,1,0,0:0:0:0:
100,56,65995,1,0,0:0:0:0:
168,232,66195,1,0,0:0:0:0:
268,76,66395,1,0,0:0:0:0:
268,76,66795,5,0,0:0:0:0:
132,180,67195,5,0,0:0:0:0:
372,200,67395,1,0,0:0:0:0:
136,172,67595,5,0,0:0:0:0:
360,100,67795,1,0,0:0:0:0:
276,312,67995,1,0,0:0:0:0:
276,312,68395,5,0,0:0:0:0:
216,300,68495,1,0,0:0:0:0:
152,284,68595,1,0,0:0:0:0:
88,264,68695,1,0,0:0:0:0:
24,244,68795,1,0,0:0:0:0:
24,244,69195,5,0,0:0:0:0:
100,148,69595,5,0,0:0:0:0:
172,52,69995,5,0,0:0:0:0:
312,160,70395,5,0,0:0:0:0:
312,160,70795,5,0,0:0:0:0:
168,268,70995,1,0,0:0:0:0:
148,100,71195,1,0,0:0:0:0:
152,104,71595,5,0,0:0:0:0:
360,204,71795,1,0,0:0:0:0:
152,112,71995,5,0,0:0:0:0:
260,300,72195,1,0,0:0:0:0:
152,120,72395,5,0,0:0:0:0:
124,324,72595,1,0,0:0:0:0:
308,184,72795,5,0,0:0:0:0:
308,184,73195,5,0,0:0:0:0:
308,184,73595,5,0,0:0:0:0:
172,276,73795,1,0,0:0:0:0:
80,148,73995,1,0,0:0:0:0:
208,48,74195,1,0,0:0:0:0:
180,280,74395,1,0,0:0:0:0:
180,280,74795,5,0,0:0:0:0:
180,280,75194,5,0,0:0:0:0:
136,212,75294,1,0,0:0:0:0:
148,132,75394,1,0,0:0:0:0:
204,68,75494,1,0,0:0:0:0:
204,68,75594,1,0,0:0:0:0:
212,72,75794,5,0,0:0:0:0:
156,136,75894,1,0,0:0:0:0:
144,216,75994,1,0,0:0:0:0:
188,284,76094,1,0,0:0:0:0:
188,284,76194,1,0,0:0:0:0:
188,284,76394,5,0,0:0:0:0:
268,144,76794,5,0,0:0:0:0:
128,96,78394,5,0,0:0:0:0:
176,288,78594,1,0,0:0:0:0:
176,288,79994,5,0,0:0:0:0:
304,124,81594,5,0,0:0:0:0:
88,216,81794,1,0,0:0:0:0:
88,216,82394,5,0,0:0:0:0:
168,192,82494,1,0,0:0:0:0:
228,136,82594,1,0,0:0:0:0:
304,156,82694,1,0,0:0:0:0:
388,148,82794,1,0,0:0:0:0:
392,156,82994,5,0,0:0:0:0:
308,240,83094,1,0,0:0:0:0:
180,236,83194,1,0,0:0:0:0:
172,240,83394,5,0,0:0:0:0:
212,140,83494,1,0,0:0:0:0:
148,48,83594,1,0,0:0:0:0:
152,52,83794,5,0,0:0:0:0:
264,36,83894,1,0,0:0:0:0:
360,88,83994,1,0,0:0:0:0:
356,96,84194,5,0,0:0:0:0:
280,164,84294,1,0,0:0:0:0:
160,172,84394,1,0,0:0:0:0:
160,180,84594,5,0,0:0:0:0:
224,268,84694,1,0,0:0:0:0:
336,292,84794,1,0,0:0:0:0:
340,296,84994,5,0,0:0:0:0:
336,188,85094,1,0,0:0:0:0:
356,76,85194,1,0,0:0:0:0:
344,76,85394,5,0,0:0:0:0:
324,188,85494,1,0,0:0:0:0:
328,296,85594,1,0,0:0:0:0:
316,296,85794,5,0,0:0:0:0:
208,268,85894,1,0,0:0:0:0:
100,304,85994,1,0,0:0:0:0:
96,308,86194,5,0,0:0:0:0:
104,236,86294,1,0,0:0:0:0:
84,176,86394,1,0,0:0:0:0:
100,108,86494,1,0,0:0:0:0:
168,96,86594,1,0,0:0:0:0:
228,76,86694,1,0,0:0:0:0:
280,108,86794,1,0,0:0:0:0:
336,120,86894,1,0,0:0:0:0:
384,80,86994,1,0,0:0:0:0:
416,136,87094,1,0,0:0:0:0:
408,188,87194,5,0,0:0:0:0:
396,228,87260,1,0,0:0:0:0:
368,256,87327,1,0,0:0:0:0:
332,272,87394,1,0,0:0:0:0:
284,268,87460,1,0,0:0:0:0:
252,248,87527,1,0,0:0:0:0:
236,212,87594,1,0,0:0:0:0:
240,180,87660,5,0,0:0:0:0:
248,144,87727,1,0,0:0:0:0:
236,104,87794,1,0,0:0:0:0:
216,80,87860,1,0,0:0:0:0:
184,64,87927,1,0,0:0:0:0:
148,72,87994,1,0,0:0:0:0:
256,244,89594,5,0,0:0:0:0:
80,264,89994,5,0,0:0:0:0:
180,112,90093,1,0,0:0:0:0:
308,244,90193,1,0,0:0:0:0:
388,64,90293,1,0,0:0:0:0:
388,64,90394,1,0,0:0:0:0:
156,144,90793,5,0,0:0:0:0:
392,300,90993,1,0,0:0:0:0:
392,300,91060,1,0,0:0:0:0:
380,56,91193,1,0,0:0:0:0:
260,324,91593,5,0,0:0:0:0:
352,56,91793,1,0,0:0:0:0:
252,320,91993,5,0,0:0:0:0:
160,56,92193,1,0,0:0:0:0:
96,248,92393,5,0,0:0:0:0:
184,116,92793,5,0,0:0:0:0:
368,88,93193,5,0,0:0:0:0:
248,244,93293,1,0,0:0:0:0:
240,44,93393,1,0,0:0:0:0:
376,208,93493,1,0,0:0:0:0:
184,140,93593,1,0,0:0:0:0:
188,148,93993,5,0,0:0:0:0:
488,60,94193,1,0,0:0:0:0:
368,240,94393,5,0,0:0:0:0:
112,60,94593,1,0,0:0:0:0:
360,244,94793,5,0,0:0:0:0:
64,132,94993,1,0,0:0:0:0:
352,248,95193,5,0,0:0:0:0:
32,212,95393,1,0,0:0:0:0:
296,44,95593,1,0,0:0:0:0:
184,336,95793,1,0,0:0:0:0:
152,112,95993,5,0,0:0:0:0:
160,116,96393,5,0,0:0:0:0:
304,232,96493,1,0,0:0:0:0:
344,40,96593,1,0,0:0:0:0:
280,160,96693,1,0,0:0:0:0:
160,116,96793,1,0,0:0:0:0:
196,288,97193,5,0,0:0:0:0:
200,284,97393,5,0,0:0:0:0:
172,148,97493,1,0,0:0:0:0:
240,36,97593,1,0,0:0:0:0:
244,44,97993,5,0,0:0:0:0:
380,280,98193,1,0,0:0:0:0:
100,232,98393,1,0,0:0:0:0:
376,272,98593,5,0,0:0:0:0:
160,76,98793,1,0,0:0:0:0:
400,100,99193,5,0,0:0:0:0:
400,100,99593,5,0,0:0:0:0:
144,144,99693,1,0,0:0:0:0:
404,188,99793,1,0,0:0:0:0:
140,224,99893,1,0,0:0:0:0:
404,260,99993,1,0,0:0:0:0:
332,312,100393,5,0,0:0:0:0:
124,72,100593,1,0,0:0:0:0:
260,48,100793,5,0,0:0:0:0:
92,324,100993,1,0,0:0:0:0:
160,44,101193,5,0,0:0:0:0:
204,344,101393,1,0,0:0:0:0:
56,80,101593,5,0,0:0:0:0:
308,308,101793,1,0,0:0:0:0:
20,176,101993,5,0,0:0:0:0:
364,212,102193,1,0,0:0:0:0:
200,96,102393,5,0,0:0:0:0:
204,104,102693,5,0,0:0:0:0:
380,160,102793,1,0,0:0:0:0:
224,280,102893,1,0,0:0:0:0:
304,72,102993,5,0,0:0:0:0:
348,256,103093,1,0,0:0:0:0:
160,196,103193,1,0,0:0:0:0:
272,176,103593,5,0,0:0:0:0:
64,64,103793,1,0,0:0:0:0:
72,192,103893,1,0,0:0:0:0:
80,324,103993,1,0,0:0:0:0:
296,72,104393,5,0,0:0:0:0:
368,340,104593,1,0,0:0:0:0:
128,160,104793,1,0,0:0:0:0:
420,180,104993,1,0,0:0:0:0:
276,256,105092,1,0,0:0:0:0:
152,328,105192,1,0,0:0:0:0:
168,136,105592,5,0,0:0:0:0:
432,52,105792,5,0,0:0:0:0:
348,256,105892,1,0,0:0:0:0:
304,104,105992,1,0,0:0:0:0:
348,256,106092,1,0,0:0:0:0:
492,132,106192,1,0,0:0:0:0:
248,152,106292,1,0,0:0:0:0:
464,288,106392,1,0,0:0:0:0:
464,288,106792,5,0,0:0:0:0:
292,32,106992,1,0,0:0:0:0:
460,292,107192,5,0,0:0:0:0:
128,192,107392,1,0,0:0:0:0:
444,104,107592,1,0,0:0:0:0:
128,200,107792,5,0,0:0:0:0:
472,192,107992,1,0,0:0:0:0:
168,40,108192,1,0,0:0:0:0:
464,200,108392,5,0,0:0:0:0:
152,308,108592,1,0,0:0:0:0:
160,128,108792,5,0,0:0:0:0:
160,128,108992,5,0,0:0:0:0:
364,292,109092,1,0,0:0:0:0:
260,104,109192,1,0,0:0:0:0:
232,284,109292,1,0,0:0:0:0:
328,160,109392,1,0,0:0:0:0:
112,188,109492,1,0,0:0:0:0:
408,256,109592,1,0,0:0:0:0:
76,148,109992,5,0,0:0:0:0:
352,112,110192,5,0,0:0:0:0:
240,184,110292,1,0,0:0:0:0:
128,260,110392,1,0,0:0:0:0:
128,260,110792,5,0,0:0:0:0:
204,44,110992,1,0,0:0:0:0:
288,228,111192,1,0,0:0:0:0:
48,152,111392,1,0,0:0:0:0:
172,112,111492,1,0,0:0:0:0:
304,72,111592,1,0,0:0:0:0:
304,72,111992,5,0,0:0:0:0:
224,280,112192,5,0,0:0:0:0:
140,88,112292,1,0,0:0:0:0:
344,180,112392,1,0,0:0:0:0:
172,200,112492,1,0,0:0:0:0:
368,80,112592,1,0,0:0:0:0:
304,268,112692,1,0,0:0:0:0:
216,76,112792,1,0,0:0:0:0:
216,76,113192,5,0,0:0:0:0:
452,292,113392,1,0,0:0:0:0:
336,60,113592,5,0,0:0:0:0:
212,128,113692,1,0,0:0:0:0:
140,240,113792,1,0,0:0:0:0:
152,248,113992,5,0,0:0:0:0:
224,136,114092,1,0,0:0:0:0:
348,68,114192,1,0,0:0:0:0:
360,80,114392,5,0,0:0:0:0:
236,148,114492,1,0,0:0:0:0:
164,260,114592,1,0,0:0:0:0:
176,272,114792,5,0,0:0:0:0:
248,160,114892,1,0,0:0:0:0:
372,92,114992,1,0,0:0:0:0:
372,92,115192,5,0,0:0:0:0:
148,96,121591,5,0,0:0:0:0:
392,268,121791,1,0,0:0:0:0:
156,96,121991,5,0,0:0:0:0:
396,260,122191,1,0,0:0:0:0:
120,276,122391,5,0,0:0:0:0:
420,144,122591,1,0,0:0:0:0:
248,88,122791,5,0,0:0:0:0:
272,272,122891,1,0,0:0:0:0:
276,280,123191,5,0,0:0:0:0:
48,164,123391,1,0,0:0:0:0:
324,168,123591,1,0,0:0:0:0:
160,252,123791,1,0,0:0:0:0:
244,32,123991,1,0,0:0:0:0:
308,304,124191,1,0,0:0:0:0:
124,152,124391,5,0,0:0:0:0:
300,124,124491,1,0,0:0:0:0:
208,312,124791,5,0,0:0:0:0:
216,36,124991,1,0,0:0:0:0:
360,216,125191,1,0,0:0:0:0:
240,220,125291,1,0,0:0:0:0:
112,224,125391,1,0,0:0:0:0:
352,64,125591,1,0,0:0:0:0:
276,300,125791,1,0,0:0:0:0:
140,92,125991,5,0,0:0:0:0:
316,184,126091,1,0,0:0:0:0:
144,268,126191,1,0,0:0:0:0:
308,176,126391,5,0,0:0:0:0:
76,128,126591,1,0,0:0:0:0:
240,328,126791,1,0,0:0:0:0:
240,212,126891,1,0,0:0:0:0:
240,84,126991,1,0,0:0:0:0:
104,264,127191,1,0,0:0:0:0:
388,264,127391,1,0,0:0:0:0:
168,104,127591,1,0,0:0:0:0:
196,228,127691,1,0,0:0:0:0:
228,348,127791,1,0,0:0:0:0:
308,248,127991,5,0,0:0:0:0:
56,220,128191,1,0,0:0:0:0:
288,84,128391,1,0,0:0:0:0:
220,236,128591,1,0,0:0:0:0:
168,24,128791,1,0,0:0:0:0:
384,180,128991,1,0,0:0:0:0:
104,176,129191,1,0,0:0:0:0:
224,100,129291,1,0,0:0:0:0:
340,28,129391,1,0,0:0:0:0:
224,304,129591,5,0,0:0:0:0:
140,68,129791,1,0,0:0:0:0:
368,192,129991,1,0,0:0:0:0:
136,276,130191,1,0,0:0:0:0:
212,28,130391,1,0,0:0:0:0:
352,276,130591,1,0,0:0:0:0:
88,172,130791,1,0,0:0:0:0:
220,120,130891,1,0,0:0:0:0:
360,128,130991,1,0,0:0:0:0:
240,324,131191,5,0,0:0:0:0:
136,84,131391,1,0,0:0:0:0:
368,156,131591,1,0,0:0:0:0:
256,204,131691,1,0,0:0:0:0:
128,264,131791,1,0,0:0:0:0:
200,56,131991,1,0,0:0:0:0:
296,292,132191,1,0,0:0:0:0:
356,56,132391,1,0,0:0:0:0:
120,152,132591,1,0,0:0:0:0:
376,180,132791,5,0,0:0:0:0:
104,256,132991,1,0,0:0:0:0:
368,168,133191,5,0,0:0:0:0:
100,248,133391,1,0,0:0:0:0:
128,72,133591,5,0,0:0:0:0:
256,308,133791,1,0,0:0:0:0:
256,176,133891,1,0,0:0:0:0:
296,52,133991,1,0,0:0:0:0:
296,52,134191,1,0,0:0:0:0:
388,200,134391,5,0,0:0:0:0:
104,156,134591,1,0,0:0:0:0:
296,120,134791,1,0,0:0:0:0:
64,248,134991,1,0,0:0:0:0:
224,52,135190,1,0,0:0:0:0:
160,352,135390,1,0,0:0:0:0:
112,108,135590,1,0,0:0:0:0:
112,108,135690,1,0,0:0:0:0:
112,108,135790,1,0,0:0:0:0:
296,220,135990,5,0,0:0:0:0:
88,216,136190,1,0,0:0:0:0:
340,104,136390,1,0,0:0:0:0:
240,236,136590,1,0,0:0:0:0:
196,32,136790,1,0,0:0:0:0:
344,160,136990,1,0,0:0:0:0:
56,156,137190,1,0,0:0:0:0:
56,156,137290,1,0,0:0:0:0:
56,156,137390,1,0,0:0:0:0:
228,288,137590,5,0,0:0:0:0:
360,64,137790,1,0,0:0:0:0:
136,124,137990,1,0,0:0:0:0:
232,176,138090,1,0,0:0:0:0:
336,232,138190,1,0,0:0:0:0:
268,36,138390,1,0,0:0:0:0:
84,184,138590,1,0,0:0:0:0:
336,284,138790,1,0,0:0:0:0:
320,176,138890,1,0,0:0:0:0:
304,72,138990,1,0,0:0:0:0:
128,192,139190,5,0,0:0:0:0:
408,248,139390,1,0,0:0:0:0:
276,56,139590,1,0,0:0:0:0:
276,56,139690,1,0,0:0:0:0:
276,56,139790,1,0,0:0:0:0:
260,296,139990,1,0,0:0:0:0:
364,120,140190,1,0,0:0:0:0:
396,312,140390,1,0,0:0:0:0:
292,216,140490,1,0,0:0:0:0:
196,120,140590,1,0,0:0:0:0:
196,120,140790,5,0,0:0:0:0:
440,100,140990,1,0,0:0:0:0:
312,208,141190,1,0,0:0:0:0:
312,44,141390,1,0,0:0:0:0:
416,260,141590,1,0,0:0:0:0:
176,128,141790,1,0,0:0:0:0:
436,72,141990,1,0,0:0:0:0:
436,72,142090,1,0,0:0:0:0:
436,72,142190,1,0,0:0:0:0:
312,264,142390,5,0,0:0:0:0:
296,64,142590,1,0,0:0:0:0:
300,252,142790,5,0,0:0:0:0:
148,44,142990,1,0,0:0:0:0:
412,116,143190,1,0,0:0:0:0:
216,204,143390,1,0,0:0:0:0:
364,24,143590,1,0,0:0:0:0:
352,148,143690,1,0,0:0:0:0:
336,288,143790,1,0,0:0:0:0:
208,112,143990,5,0,0:0:0:0:
444,208,144190,1,0,0:0:0:0:
208,320,144390,1,0,0:0:0:0:
236,176,144490,1,0,0:0:0:0:
268,40,144590,1,0,0:0:0:0:
268,40,144990,5,0,0:0:0:0:
144,148,145290,5,0,0:0:0:0:
256,200,145390,1,0,0:0:0:0:
344,96,145590,5,0,0:0:0:0:
180,248,145790,1,0,0:0:0:0:
180,40,145990,1,0,0:0:0:0:
344,216,146190,1,0,0:0:0:0:
88,152,146390,1,0,0:0:0:0:
316,120,146590,1,0,0:0:0:0:
188,208,146690,1,0,0:0:0:0:
64,288,146790,1,0,0:0:0:0:
112,160,146890,1,0,0:0:0:0:
160,44,146990,1,0,0:0:0:0:
208,340,147190,5,0,0:0:0:0:
196,148,159989,5,0,0:0:0:0:
196,148,160389,1,0,0:0:0:0:
300,164,160589,1,0,0:0:0:0:
400,184,160789,1,0,0:0:0:0:
400,184,161189,1,0,0:0:0:0:
276,264,161589,5,0,0:0:0:0:
368,64,161789,1,0,0:0:0:0:
160,172,161989,1,0,0:0:0:0:
408,200,162189,1,0,0:0:0:0:
224,72,162389,1,0,0:0:0:0:
224,72,162789,1,0,0:0:0:0:
284,256,163189,5,0,0:0:0:0:
360,84,163389,1,0,0:0:0:0:
180,116,163589,1,0,0:0:0:0:
444,160,163789,1,0,0:0:0:0:
240,48,163989,1,0,0:0:0:0:
240,48,164389,5,0,0:0:0:0:
424,160,164589,1,0,0:0:0:0:
220,188,164789,1,0,0:0:0:0:
220,188,165188,5,0,0:0:0:0:
408,296,165588,1,0,0:0:0:0:
408,296,165988,5,0,0:0:0:0:
376,96,166388,1,0,0:0:0:0:
376,96,166788,5,0,0:0:0:0:
208,172,166988,1,0,0:0:0:0:
380,244,167188,1,0,0:0:0:0:
380,244,167588,5,0,0:0:0:0:
308,68,167788,1,0,0:0:0:0:
308,228,167988,1,0,0:0:0:0:
440,124,168188,1,0,0:0:0:0:
220,88,168388,1,0,0:0:0:0:
408,232,168588,1,0,0:0:0:0:
364,28,168788,1,0,0:0:0:0:
364,28,169188,1,0,0:0:0:0:
268,160,169588,5,0,0:0:0:0:
452,132,169788,1,0,0:0:0:0:
288,268,169988,5,0,0:0:0:0:
480,240,170188,1,0,0:0:0:0:
480,240,170388,1,0,0:0:0:0:
280,96,170788,1,0,0:0:0:0:
280,96,171188,5,0,0:0:0:0:
240,168,171288,1,0,0:0:0:0:
164,208,171388,1,0,0:0:0:0:
88,176,171488,1,0,0:0:0:0:
48,108,171588,1,0,0:0:0:0:
44,116,171788,5,0,0:0:0:0:
84,184,171888,1,0,0:0:0:0:
160,216,171988,1,0,0:0:0:0:
236,176,172088,1,0,0:0:0:0:
276,104,172188,1,0,0:0:0:0:
160,104,172388,5,0,0:0:0:0:
160,104,172788,5,0,0:0:0:0:
400,96,174388,5,0,0:0:0:0:
56,244,174588,1,0,0:0:0:0:
56,244,175988,5,0,0:0:0:0:
124,64,177588,5,0,0:0:0:0:
372,284,177788,1,0,0:0:0:0:
424,92,178388,5,0,0:0:0:0:
264,108,178488,1,0,0:0:0:0:
412,204,178588,1,0,0:0:0:0:
336,36,178688,1,0,0:0:0:0:
300,212,178788,1,0,0:0:0:0:
148,96,178988,5,0,0:0:0:0:
200,216,179088,1,0,0:0:0:0:
252,328,179188,1,0,0:0:0:0:
268,320,179388,5,0,0:0:0:0:
216,208,179488,1,0,0:0:0:0:
164,88,179588,1,0,0:0:0:0:
336,108,179788,5,0,0:0:0:0:
224,176,179888,1,0,0:0:0:0:
112,252,179987,1,0,0:0:0:0:
120,260,180187,5,0,0:0:0:0:
232,184,180286,1,0,0:0:0:0:
344,116,180386,1,0,0:0:0:0:
144,48,180587,5,0,0:0:0:0:
144,176,180687,1,0,0:0:0:0:
144,316,180787,1,0,0:0:0:0:
152,320,180987,5,0,0:0:0:0:
152,180,181087,1,0,0:0:0:0:
152,52,181187,1,0,0:0:0:0:
260,276,181387,5,0,0:0:0:0:
136,228,181487,1,0,0:0:0:0:
56,124,181587,1,0,0:0:0:0:
60,112,181787,5,0,0:0:0:0:
140,216,181887,1,0,0:0:0:0:
264,264,181987,1,0,0:0:0:0:
348,240,182187,5,0,0:0:0:0:
225,200,182287,1,0,0:0:0:0:
225,71,182387,1,0,0:0:0:0:
348,31,182487,1,0,0:0:0:0:
423,135,182587,1,0,0:0:0:0:
220,240,182687,5,0,0:0:0:0:
180,117,182787,1,0,0:0:0:0:
284,41,182887,1,0,0:0:0:0:
388,117,182987,1,0,0:0:0:0:
348,240,183087,1,0,0:0:0:0:
220,240,183187,5,0,0:0:0:0:
168,220,183254,1,0,0:0:0:0:
144,168,183321,1,0,0:0:0:0:
144,116,183387,1,0,0:0:0:0:
172,72,183454,1,0,0:0:0:0:
200,116,183521,1,0,0:0:0:0:
196,160,183587,1,0,0:0:0:0:
176,200,183654,5,0,0:0:0:0:
140,232,183721,1,0,0:0:0:0:
92,244,183787,1,0,0:0:0:0:
52,220,183854,1,0,0:0:0:0:
24,176,183921,1,0,0:0:0:0:
28,128,183987,1,0,0:0:0:0:
204,108,185587,5,0,0:0:0:0:
204,108,185987,5,0,0:0:0:0:
360,264,186087,1,0,0:0:0:0:
128,200,186187,1,0,0:0:0:0:
284,164,186287,1,0,0:0:0:0:
120,312,186387,1,0,0:0:0:0:
112,196,186787,5,0,0:0:0:0:
336,64,186987,1,0,0:0:0:0:
360,184,187087,1,0,0:0:0:0:
332,296,187187,1,0,0:0:0:0:
144,40,187587,5,0,0:0:0:0:
256,312,187787,1,0,0:0:0:0:
312,32,187987,1,0,0:0:0:0:
88,192,188187,1,0,0:0:0:0:
408,232,188387,1,0,0:0:0:0:
408,232,188787,5,0,0:0:0:0:
340,92,189187,5,0,0:0:0:0:
236,280,189287,1,0,0:0:0:0:
260,64,189387,5,0,0:0:0:0:
152,244,189487,1,0,0:0:0:0:
176,36,189587,5,0,0:0:0:0:
88,124,189987,5,0,0:0:0:0:
408,128,190187,1,0,0:0:0:0:
372,308,190387,5,0,0:0:0:0:
134,70,190587,1,0,0:0:0:0:
253,357,190787,1,0,0:0:0:0:
253,20,190987,1,0,0:0:0:0:
134,308,191187,1,0,0:0:0:0:
372,70,191387,1,0,0:0:0:0:
84,189,191587,1,0,0:0:0:0:
421,189,191787,1,0,0:0:0:0:
96,84,191987,1,0,0:0:0:0:
96,84,192387,5,0,0:0:0:0:
176,296,192487,1,0,0:0:0:0:
212,96,192587,1,0,0:0:0:0:
280,232,192687,1,0,0:0:0:0:
48,144,192787,1,0,0:0:0:0:
56,152,193187,1,0,0:0:0:0:
388,280,193387,5,0,0:0:0:0:
340,80,193487,1,0,0:0:0:0:
172,192,193587,1,0,0:0:0:0:
328,80,193987,5,0,0:0:0:0:
64,132,194187,1,0,0:0:0:0:
328,88,194387,5,0,0:0:0:0:
144,296,194587,1,0,0:0:0:0:
328,96,194787,5,0,0:0:0:0:
136,284,195186,5,0,0:0:0:0:
136,284,195586,5,0,0:0:0:0:
356,204,195686,1,0,0:0:0:0:
136,168,195786,1,0,0:0:0:0:
324,304,195886,1,0,0:0:0:0:
136,168,195986,1,0,0:0:0:0:
336,64,196386,5,0,0:0:0:0:
84,72,196586,1,0,0:0:0:0:
168,160,196686,1,0,0:0:0:0:
268,260,196786,1,0,0:0:0:0:
304,68,196986,5,0,0:0:0:0:
312,72,197186,1,0,0:0:0:0:
320,76,197386,1,0,0:0:0:0:
328,80,197586,1,0,0:0:0:0:
336,84,197786,1,0,0:0:0:0:
344,88,197986,1,0,0:0:0:0:
352,92,198186,1,0,0:0:0:0:
360,96,198386,1,0,0:0:0:0:
360,96,198786,5,0,0:0:0:0:
96,180,198886,1,0,0:0:0:0:
336,208,198986,1,0,0:0:0:0:
120,76,199086,1,0,0:0:0:0:
204,268,199186,1,0,0:0:0:0:
344,68,199586,5,0,0:0:0:0:
204,268,199786,1,0,0:0:0:0:
280,160,199886,1,0,0:0:0:0:
344,68,199986,1,0,0:0:0:0:
344,68,200386,5,0,0:0:0:0:
100,96,200586,1,0,0:0:0:0:
440,228,200786,5,0,0:0:0:0:
196,32,200986,1,0,0:0:0:0:
220,336,201186,1,0,0:0:0:0:
124,60,201586,5,0,0:0:0:0:
124,60,201786,5,0,0:0:0:0:
232,244,201886,1,0,0:0:0:0:
200,76,201986,1,0,0:0:0:0:
104,296,202086,1,0,0:0:0:0:
320,180,202186,1,0,0:0:0:0:
80,152,202286,1,0,0:0:0:0:
256,328,202386,1,0,0:0:0:0:
256,328,202786,5,0,0:0:0:0:
368,68,202986,1,0,0:0:0:0:
144,196,203186,1,0,0:0:0:0:
352,68,203386,5,0,0:0:0:0:
224,304,203586,1,0,0:0:0:0:
208,36,203786,1,0,0:0:0:0:
400,232,203986,1,0,0:0:0:0:
208,44,204186,5,0,0:0:0:0:
248,328,204386,1,0,0:0:0:0:
208,52,204586,5,0,0:0:0:0:
88,312,204786,1,0,0:0:0:0:
88,312,204986,5,0,0:0:0:0:
272,156,205086,1,0,0:0:0:0:
96,128,205186,1,0,0:0:0:0:
288,272,205286,1,0,0:0:0:0:
248,56,205386,1,0,0:0:0:0:
180,216,205486,1,0,0:0:0:0:
416,120,205586,1,0,0:0:0:0:
416,120,205986,5,0,0:0:0:0:
212,64,206186,1,0,0:0:0:0:
288,200,206286,1,0,0:0:0:0:
360,320,206386,1,0,0:0:0:0:
360,320,206786,5,0,0:0:0:0:
384,52,206986,1,0,0:0:0:0:
200,244,207186,1,0,0:0:0:0:
460,184,207386,1,0,0:0:0:0:
324,132,207486,1,0,0:0:0:0:
188,76,207586,1,0,0:0:0:0:
284,292,207986,5,0,0:0:0:0:
284,292,208186,1,0,0:0:0:0:
240,56,208286,1,0,0:0:0:0:
180,296,208386,1,0,0:0:0:0:
132,56,208486,1,0,0:0:0:0:
72,292,208586,1,0,0:0:0:0:
40,60,208686,1,0,0:0:0:0:
192,196,208786,5,0,0:0:0:0:
192,196,209186,5,0,0:0:0:0:
384,48,209386,1,0,0:0:0:0:
440,180,209486,1,0,0:0:0:0:
380,312,209586,1,0,0:0:0:0:
380,312,209986,5,0,0:0:0:0:
380,312,210385,5,0,0:0:0:0:
380,312,210785,5,0,0:0:0:0:
380,312,211185,5,0,0:0:0:0:
