osu file format v14

[General]
AudioFilename: audio.mp3
AudioLeadIn: 0
PreviewTime: -1
Countdown: 1
SampleSet: Normal
StackLeniency: 0.7
Mode: 0
LetterboxInBreaks: 0
WidescreenStoryboard: 0

[Editor]
DistanceSpacing: 0.8
BeatDivisor: 6
GridSize: 32
TimelineZoom: 1

[Metadata]
Title:Escobar
TitleUnicode:Escobar
Artist:XS Project
ArtistUnicode:XS Project
Creator:-Orekii
Version:-OrekiiĀ“s Extra
Source:
Tags:XS Project
BeatmapID:1323288
BeatmapSetID:627820

[Difficulty]
HPDrainRate:5
CircleSize:3.9
OverallDifficulty:5
ApproachRate:9
SliderMultiplier:2.3
SliderTickRate:1

[Events]
//Background and Video events
//Break Periods
//Storyboard Layer 0 (Background)
//Storyboard Layer 1 (Fail)
//Storyboard Layer 2 (Pass)
//Storyboard Layer 3 (Foreground)
//Storyboard Sound Samples

[TimingPoints]
0,239.399999999999,4,1,0,100,1,0

[HitObjects]
96,64,31361,5,0,0:0:0:0:
416,128,31600,1,0,0:0:0:0:
96,288,31840,1,0,0:0:0:0:
384,96,32079,1,0,0:0:0:0:
160,128,32318,1,0,0:0:0:0:
352,256,32558,1,0,0:0:0:0:
160,192,32797,1,0,0:0:0:0:
64,64,34593,1,0,0:0:0:0:
448,320,34712,1,0,0:0:0:0:
96,64,34952,1,0,0:0:0:0:
416,192,35191,5,0,0:0:0:0:
352,288,35351,1,0,0:0:0:0:
352,288,35391,1,0,0:0:0:0:
352,288,35431,1,0,0:0:0:0:
128,96,35670,1,0,0:0:0:0:
288,288,35909,1,0,0:0:0:0:
352,96,36149,1,0,0:0:0:0:
64,64,37825,1,0,0:0:0:0:
448,320,37944,1,0,0:0:0:0:
64,64,38303,5,0,0:0:0:0:
256,320,38543,1,0,0:0:0:0:
416,64,38782,1,0,0:0:0:0:
256,192,39022,1,0,0:0:0:0:
64,320,39261,1,0,0:0:0:0:
448,64,39381,1,0,0:0:0:0:
128,128,39740,1,0,0:0:0:0:
352,256,39979,1,0,0:0:0:0:
128,288,40219,1,0,0:0:0:0:
384,128,40458,1,0,0:0:0:0:
160,128,40697,5,0,0:0:0:0:
192,256,40937,1,0,0:0:0:0:
320,128,41057,1,0,0:0:0:0:
96,96,41416,1,0,0:0:0:0:
416,160,41655,1,0,0:0:0:0:
96,288,41894,1,0,0:0:0:0:
416,352,42134,1,0,0:0:0:0:
96,32,42254,1,0,0:0:0:0:
128,64,42613,5,0,0:0:0:0:
384,288,42852,1,0,0:0:0:0:
96,224,43091,1,0,0:0:0:0:
384,96,43331,1,0,0:0:0:0:
96,96,43570,1,0,0:0:0:0:
416,288,43690,1,0,0:0:0:0:
96,64,44169,5,0,0:0:0:0:
416,320,44408,1,0,0:0:0:0:
96,256,44648,1,0,0:0:0:0:
384,96,44887,1,0,0:0:0:0:
128,128,45126,1,0,0:0:0:0:
320,256,45366,1,0,0:0:0:0:
192,256,45605,1,0,0:0:0:0:
288,128,45845,1,0,0:0:0:0:
128,96,46084,5,0,0:0:0:0:
224,256,46323,1,0,0:0:0:0:
288,96,46563,1,0,0:0:0:0:
384,256,46802,1,0,0:0:0:0:
416,64,47042,1,0,0:0:0:0:
96,64,47281,1,0,0:0:0:0:
384,256,47520,1,0,0:0:0:0:
192,128,47760,1,0,0:0:0:0:
480,320,47999,1,0,0:0:0:0:
96,96,48239,5,0,0:0:0:0:
192,288,48478,1,0,0:0:0:0:
416,160,48717,1,0,0:0:0:0:
96,160,48957,1,0,0:0:0:0:
384,288,49196,1,0,0:0:0:0:
96,64,49436,1,0,0:0:0:0:
416,96,49675,1,0,0:0:0:0:
64,160,49914,1,0,0:0:0:0:
448,224,50154,1,0,0:0:0:0:
64,288,50393,1,0,0:0:0:0:
96,64,50633,5,0,0:0:0:0:
352,320,50872,1,0,0:0:0:0:
288,96,51111,1,0,0:0:0:0:
128,224,51351,1,0,0:0:0:0:
352,160,51590,1,0,0:0:0:0:
128,96,51830,1,0,0:0:0:0:
352,288,52069,1,0,0:0:0:0:
192,192,52308,1,0,0:0:0:0:
320,192,52548,1,0,0:0:0:0:
64,192,52787,5,0,0:0:0:0:
448,192,53027,1,0,0:0:0:0:
128,192,53266,1,0,0:0:0:0:
384,192,53505,1,0,0:0:0:0:
128,96,53745,1,0,0:0:0:0:
384,288,53984,1,0,0:0:0:0:
448,32,54224,1,0,0:0:0:0:
128,128,54463,1,0,0:0:0:0:
320,32,54702,1,0,0:0:0:0:
512,224,54942,1,0,0:0:0:0:
160,256,55181,5,0,0:0:0:0:
352,128,55421,1,0,0:0:0:0:
64,64,56977,5,0,0:0:0:0:
448,320,57096,1,0,0:0:0:0:
128,128,57336,1,0,0:0:0:0:
320,320,57575,1,0,0:0:0:0:
320,96,57815,1,0,0:0:0:0:
160,224,58054,1,0,0:0:0:0:
288,64,58293,1,0,0:0:0:0:
64,320,58533,5,0,0:0:0:0:
448,64,58652,1,0,0:0:0:0:
192,128,58892,1,0,0:0:0:0:
384,320,59131,1,0,0:0:0:0:
320,64,59371,1,0,0:0:0:0:
352,96,59490,1,0,0:0:0:0:
352,128,59610,1,0,0:0:0:0:
448,64,60209,5,0,0:0:0:0:
64,320,60328,1,0,0:0:0:0:
128,128,60568,5,0,0:0:0:0:
288,256,60807,1,0,0:0:0:0:
128,224,61046,1,0,0:0:0:0:
64,64,61286,5,0,0:0:0:0:
448,320,61406,1,0,0:0:0:0:
96,256,61645,5,0,0:0:0:0:
288,96,61884,1,0,0:0:0:0:
352,288,62124,1,0,0:0:0:0:
128,96,62363,1,0,0:0:0:0:
96,256,62603,1,0,0:0:0:0:
96,288,62722,1,0,0:0:0:0:
128,320,62842,1,0,0:0:0:0:
448,64,63440,5,0,0:0:0:0:
64,320,63560,1,0,0:0:0:0:
192,256,63800,1,0,0:0:0:0:
192,96,64039,1,0,0:0:0:0:
352,96,64278,1,0,0:0:0:0:
352,256,64518,1,0,0:0:0:0:
256,192,64757,1,0,0:0:0:0:
64,320,64997,5,0,0:0:0:0:
448,64,65116,1,0,0:0:0:0:
128,288,65356,1,0,0:0:0:0:
416,224,65595,1,0,0:0:0:0:
96,96,65834,1,0,0:0:0:0:
96,64,65954,1,0,0:0:0:0:
128,32,66074,1,0,0:0:0:0:
